<?xml version="1.0" standalone="no"?>
<!DOCTYPE svg PUBLIC "-//W3C//DTD SVG 1.1//EN" "http://www.w3.org/Graphics/SVG/1.1/DTD/svg11.dtd" >
<svg xmlns="http://www.w3.org/2000/svg" xmlns:xlink="http://www.w3.org/1999/xlink" version="1.1">
<metadata>
Created by FontForge 20170731 at Mon Sep 11 15:09:38 2006
 By Aleksey,,,
(c) 2006 Microsoft Corporation. All Rights Reserved.
</metadata>
<defs>
<font id="Calibri-BoldItalic" horiz-adv-x="1080" >
  <font-face 
    font-family="Calibri"
    font-weight="700"
    font-style="italic"
    font-stretch="normal"
    units-per-em="2048"
    panose-1="2 15 7 2 3 4 4 10 2 4"
    ascent="1536"
    descent="-512"
    x-height="960"
    cap-height="1294"
    bbox="-824 -381 2538 1950"
    underline-thickness="186"
    underline-position="-458"
    slope="-11"
    unicode-range="U+000D-FB04"
  />
<missing-glyph horiz-adv-x="1038" 
d="M992 1294v-1294h-945v1294h945zM885 101v1092h-732v-1092h732zM783 886q0 -54 -16 -104.5t-50 -89.5t-86 -64.5t-124 -31.5l-30 -121q-3 -13 -25.5 -18.5t-59.5 -5.5q-22 0 -37.5 1t-24.5 3.5t-12.5 7t-2.5 12.5l25 167q5 33 22.5 46.5t43.5 13.5h11q47 0 80 15t53 39
t29 53.5t9 59.5q0 20 -6.5 38.5t-21 33t-38 23t-58.5 8.5q-38 0 -67 -6.5t-49.5 -14t-33.5 -14t-19 -6.5q-8 0 -11.5 7t-3.5 21q0 7 2 21t5 29.5t8 29.5t12 21q8 7 27.5 16t47 16.5t60.5 12.5t67 5q69 0 120.5 -17.5t85.5 -48t51 -71t17 -87.5zM474 323q0 -9 -2 -23t-6 -30
t-11 -30.5t-16 -24.5q-14 -13 -35.5 -20t-53.5 -7q-28 0 -45.5 4.5t-27 12.5t-12.5 18.5t-3 22.5q0 11 2 25.5t6.5 30t12 30.5t18.5 25q13 14 33.5 20t53.5 6q26 0 43 -4t26.5 -11.5t13 -18.5t3.5 -26zM0 -397z" />
    <glyph glyph-name="uniFB00" unicode="ff" horiz-adv-x="1230" 
d="M1415 1335q0 -6 -1.5 -19.5t-4.5 -31t-7 -35.5t-9.5 -33t-12 -24.5t-14.5 -9.5q-6 0 -15.5 3t-21.5 6t-27.5 6t-34.5 3q-32 0 -55.5 -8.5t-40.5 -28t-28.5 -50.5t-20.5 -74l-15 -79h163q14 0 20.5 -9.5t6.5 -30.5q0 -10 -1.5 -26t-5.5 -34.5t-10 -36.5t-13 -33
t-16.5 -24.5t-20.5 -9.5h-164l-152 -756q-17 -86 -47 -151.5t-75.5 -110t-107.5 -67.5t-142 -23q-59 0 -99.5 8t-51.5 20q-10 9 -10 31q0 7 1.5 22t4.5 32.5t7 36t10 33.5t13 24.5t16 9.5q8 0 16 -2t18.5 -5t23.5 -5t30 -2q32 0 55.5 9t40.5 28.5t29 50.5t21 74l148 743
h-332l-154 -770q-18 -88 -48 -154t-75.5 -109.5t-107 -65.5t-141.5 -22q-54 0 -94 8.5t-53 20.5q-5 5 -7.5 12.5t-2.5 21.5q0 6 1.5 20t4.5 30.5t7 34.5t9.5 33t12.5 24.5t16 9.5q13 0 32.5 -6.5t52.5 -6.5q32 0 55.5 9t40.5 28.5t28.5 50.5t20.5 74l152 757h-112
q-12 0 -18.5 8.5t-6.5 32.5q0 10 1.5 26t5 34t8.5 36.5t13 33t17.5 24t22.5 9.5h110l17 86q17 85 47.5 149t76.5 107t107 65t140 22q26 0 51.5 -2.5t47 -7t37 -10.5t21.5 -12q6 -5 8.5 -14t2.5 -22q0 -6 -1.5 -19.5t-4 -31t-6.5 -35.5t-9.5 -33t-12.5 -24.5t-15 -9.5
q-6 0 -15.5 3t-21.5 6.5t-27.5 6.5t-33.5 3q-32 0 -55.5 -9t-40.5 -28.5t-29 -50.5t-20 -74l-13 -65h332l19 97q17 85 47 149.5t75.5 108t107 65.5t141.5 22q26 0 51.5 -2.5t47 -7t37 -10t21.5 -11.5q5 -6 8 -14.5t3 -21.5z" />
    <glyph glyph-name="uniFB01" unicode="fi" horiz-adv-x="1135" 
d="M1030 960q38 0 53.5 -17t9.5 -52l-171 -857q-2 -10 -9.5 -17.5t-23 -12.5t-40.5 -7.5t-62 -2.5q-36 0 -59.5 2.5t-36.5 7.5t-17.5 12.5t-2.5 17.5l144 722h-331l-158 -784q-17 -83 -46.5 -146t-74.5 -105.5t-106.5 -64t-139.5 -21.5q-52 0 -87 8t-45 16q-5 6 -7 13t-2 20
q0 6 1.5 20t4.5 30.5t7.5 34.5t10 33t12.5 24.5t16 9.5q6 0 12 -1t13 -2.5t16.5 -2.5t24.5 -1q32 0 55.5 9.5t40.5 29.5t29 51.5t21 76.5l151 752h-112q-12 0 -18.5 8.5t-6.5 32.5q0 10 1.5 26t5 34t8.5 36.5t13 33t17.5 24t22.5 9.5h110l19 97q16 85 46.5 149.5t75.5 108
t106 65.5t139 22q27 0 51 -2.5t43 -7t32.5 -9.5t18.5 -11q5 -5 7.5 -13.5t2.5 -20.5q0 -6 -1.5 -20t-4.5 -31t-7 -35t-9.5 -33t-12.5 -24.5t-15 -9.5q-7 0 -14.5 2.5t-17.5 5t-23.5 5t-31.5 2.5q-31 0 -53 -8.5t-38 -28t-27.5 -50.5t-19.5 -74l-15 -79h505zM1180 1226
q-8 -37 -19.5 -62.5t-30.5 -41t-48.5 -22t-71.5 -6.5t-68.5 6.5t-39 22t-14 41t5.5 62.5q7 36 18.5 61t31 41t48.5 23t71 7q43 0 68.5 -7t39 -23t15 -41t-5.5 -61z" />
    <glyph glyph-name="uniFB02" unicode="fl" horiz-adv-x="1135" 
d="M922 36q-4 -21 -33.5 -31.5t-92.5 -10.5q-39 0 -64 3t-39 8t-19 13t-3 18l231 1156q-3 -5 -9 -9t-15 -4q-7 0 -19 3t-30 6.5t-43 6.5t-59 3q-47 0 -79 -9t-53 -28.5t-34 -50.5t-21 -74l-15 -76h148q13 0 19.5 -9.5t6.5 -30.5q0 -10 -1.5 -26t-5.5 -34.5t-9.5 -36.5
t-13 -33t-17 -24.5t-20.5 -9.5h-149l-157 -784q-17 -83 -46.5 -146t-74.5 -105.5t-106.5 -64t-139.5 -21.5q-52 0 -87 8t-45 16q-5 6 -7 13t-2 20q0 6 1.5 20t4.5 30.5t7.5 34.5t10 33t12.5 24.5t16 9.5q6 0 12 -1t13 -2.5t16.5 -2.5t24.5 -1q32 0 55.5 9.5t40.5 29.5
t29 51.5t21 76.5l151 752h-112q-12 0 -18.5 8.5t-6.5 32.5q0 10 1.5 26t5 34t8.5 36.5t13 33t17.5 24t22.5 9.5h110l19 98q16 85 48 149t82.5 107t122.5 64.5t170 21.5q26 0 59.5 -2.5t64 -7t54.5 -11t31 -12.5q4 -5 6 -8t4 -9q2 9 9 16.5t22 13t39.5 9t62.5 3.5q36 0 60 -3
t37 -8.5t17.5 -13.5t2.5 -18z" />
    <glyph glyph-name="uniFB03" unicode="ffi" horiz-adv-x="1718" 
d="M483 756l-157 -784q-17 -83 -46.5 -146t-74.5 -105.5t-106.5 -64t-139.5 -21.5q-52 0 -87 8t-45 16q-5 6 -7 13t-2 20q0 6 1.5 20t4.5 30.5t7.5 34.5t10 33t12.5 24.5t16 9.5q6 0 12 -1t13 -2.5t16.5 -2.5t24.5 -1q32 0 55.5 9.5t40.5 29.5t29 51.5t21 76.5l151 752h-112
q-12 0 -18.5 8.5t-6.5 32.5q0 10 1.5 26t5 34t8.5 36.5t13 33t17.5 24t22.5 9.5h110l17 86q17 85 47.5 149t76.5 107t107 65t140 22q26 0 51.5 -2.5t47 -7t37 -10.5t21.5 -12q6 -5 8.5 -14t2.5 -22q0 -6 -1.5 -19.5t-4 -31t-6.5 -35.5t-9.5 -33t-12.5 -24.5t-15 -9.5
q-6 0 -15.5 3t-21.5 6.5t-27.5 6.5t-33.5 3q-32 0 -55.5 -9t-40.5 -28.5t-29 -50.5t-20 -74l-13 -65h332l19 97q17 85 47 149.5t75 108t106 65.5t140 22q27 0 51 -2.5t43 -7t32.5 -9.5t19.5 -11q5 -6 7 -14t2 -20q0 -6 -1.5 -20t-4 -30.5t-6.5 -34.5t-9.5 -33t-12.5 -24.5
t-14 -9.5t-15.5 2t-19 5t-24 5t-31.5 2q-31 0 -53 -9t-38.5 -28.5t-28 -50.5t-19.5 -73l-15 -79h506q38 0 53.5 -16.5t9.5 -52.5l-171 -857q-2 -10 -9.5 -17.5t-23 -12.5t-40.5 -7.5t-62 -2.5t-60.5 2.5t-36.5 7.5t-17 12.5t-2 17.5l144 722h-332l-152 -756
q-17 -86 -47 -151.5t-75.5 -110t-107.5 -67.5t-142 -23q-59 0 -99.5 8t-51.5 20q-10 9 -10 31q0 7 1.5 22t4.5 32.5t7 36t10 33.5t13 24.5t16 9.5q8 0 16 -2t18.5 -5t23.5 -5t30 -2q32 0 55.5 9t40.5 28.5t29 50.5t21 74l148 743h-332zM1763 1226q-8 -37 -19.5 -62.5
t-31 -41t-48.5 -22t-71 -6.5t-68.5 6.5t-39.5 22t-14.5 41t5.5 62.5q8 36 19.5 61t31 41t48.5 23t72 7q42 0 68 -7t39 -23t14.5 -41t-5.5 -61z" />
    <glyph glyph-name="uniFB04" unicode="ffl" horiz-adv-x="1718" 
d="M1505 34q-4 -21 -34.5 -30.5t-92.5 -9.5q-40 0 -64.5 2.5t-38.5 7.5t-18.5 12.5t-2.5 17.5l232 1161q-3 -5 -9 -9t-15 -4q-8 0 -19.5 2.5t-30 6.5t-43.5 6.5t-59 2.5q-47 0 -79 -8.5t-53.5 -28t-34 -50.5t-21.5 -74l-15 -79h149q14 0 20 -9.5t6 -30.5q0 -10 -1.5 -26
t-5.5 -34.5t-9.5 -36.5t-13 -33t-17 -24.5t-19.5 -9.5h-150l-151 -756q-17 -86 -47 -151.5t-75.5 -110t-107.5 -67.5t-142 -23q-59 0 -99.5 8t-51.5 20q-10 9 -10 31q0 7 1.5 22t4 32.5t7 36t10 33.5t13 24.5t16.5 9.5q8 0 16 -2t18.5 -5t23.5 -5t30 -2q32 0 55.5 9
t40.5 28.5t29 50.5t21 74l147 743h-332l-157 -784q-17 -83 -46.5 -146t-74.5 -105.5t-106.5 -64t-139.5 -21.5q-52 0 -87 8t-45 16q-5 6 -7 13t-2 20q0 6 1.5 20t4.5 30.5t7.5 34.5t10 33t12.5 24.5t16 9.5q6 0 12 -1t13 -2.5t16.5 -2.5t24.5 -1q32 0 55.5 9t40.5 29t29 52
t21 77l151 752h-112q-12 0 -18.5 8.5t-6.5 32.5q0 10 1.5 26t5 34t8.5 36.5t13 33t17.5 24t22.5 9.5h110l17 86q17 85 47.5 149t76.5 107t107 65t140 22q26 0 51.5 -2.5t47 -7t37 -10.5t21.5 -12q6 -5 8.5 -14t2.5 -22q0 -6 -1.5 -19.5t-4 -31t-6.5 -35.5t-9.5 -33
t-12.5 -24.5t-15 -9.5q-6 0 -15.5 3t-21.5 6.5t-27.5 6.5t-33.5 3q-32 0 -55.5 -9t-40.5 -28.5t-29 -50.5t-20 -74l-13 -65h332l19 98q17 85 47.5 149.5t80.5 107.5t123 65t173 22q27 0 60 -2.5t63.5 -7t54 -10.5t30.5 -13q4 -4 6 -8.5t3 -10.5q2 9 9.5 16.5t22.5 13t39.5 9
t62.5 3.5q37 0 60 -3t36.5 -8.5t17.5 -13.5t2 -18z" />
    <glyph glyph-name="f_b.liga" unicode="fb" horiz-adv-x="1713" 
d="M935 1350q2 9 9 16.5t22 13t39.5 9t62.5 3.5q36 0 60 -3t37 -8.5t17.5 -13.5t2.5 -18l-72 -358q-4 -23 -10.5 -48.5t-13.5 -50.5t-14.5 -48.5t-15.5 -41.5q19 32 52.5 64.5t76 58.5t91.5 42t101 16q56 0 98.5 -14.5t73 -39.5t50.5 -59t32 -71.5t16.5 -77.5t4.5 -78
q0 -66 -11.5 -141t-37 -149t-64.5 -142t-93.5 -120t-125 -83t-157.5 -31q-84 0 -148.5 33.5t-112.5 100.5l-15 -75q-4 -21 -32 -31.5t-88 -10.5q-30 0 -50 2.5t-31.5 7.5t-15.5 12.5t-2 17.5l231 1158q-3 -5 -9 -9t-15 -4q-7 0 -19 3t-30 6.5t-43 6.5t-59 3q-47 0 -79 -9
t-53 -28.5t-34 -50.5t-21 -74l-15 -76h148q13 0 19.5 -9.5t6.5 -30.5q0 -10 -1.5 -26t-5.5 -34.5t-9.5 -36.5t-13 -33t-17 -24.5t-20.5 -9.5h-149l-157 -784q-17 -83 -46.5 -146t-74.5 -105.5t-106.5 -64t-139.5 -21.5q-52 0 -87 8t-45 16q-5 6 -7 13t-2 20q0 6 1.5 20
t4.5 30.5t7.5 34.5t10 33t12.5 24.5t16 9.5q6 0 12 -1t13 -2.5t16.5 -2.5t24.5 -1q32 0 55.5 9.5t40.5 29.5t29 51.5t21 76.5l151 752h-112q-12 0 -18.5 8.5t-6.5 32.5q0 10 1.5 26t5 34t8.5 36.5t13 33t17.5 24t22.5 9.5h110l19 98q16 85 48 149t82.5 107t122.5 64.5
t170 21.5q26 0 59.5 -2.5t64 -7t54.5 -11t31 -12.5q4 -5 6 -8t4 -9zM1397 619q0 25 -4 52t-15 49t-31.5 36t-53.5 14q-45 0 -90.5 -26.5t-85 -72.5t-70.5 -107t-45 -130l-28 -136q34 -55 77.5 -81.5t98.5 -26.5q41 0 75 19.5t61.5 52t48 75t34.5 90.5t21 97t7 95z" />
    <glyph glyph-name="f_f_b.liga" unicode="ffb" horiz-adv-x="2296" 
d="M2239 643q0 -66 -12 -141t-37 -149t-64.5 -142t-94 -120t-125 -83t-157.5 -31q-84 0 -148.5 33.5t-111.5 100.5l-16 -77q-3 -21 -30.5 -30.5t-88.5 -9.5t-82.5 10t-17.5 30l232 1161q-3 -5 -9 -9t-15 -4q-8 0 -19.5 2.5t-30 6.5t-43.5 6.5t-59 2.5q-47 0 -79 -8.5
t-53.5 -28t-34 -50.5t-21.5 -74l-15 -79h149q14 0 20 -9.5t6 -30.5q0 -10 -1.5 -26t-5.5 -34.5t-9.5 -36.5t-13 -33t-17 -24.5t-19.5 -9.5h-150l-151 -756q-17 -86 -47 -151.5t-75.5 -110t-107.5 -67.5t-142 -23q-59 0 -99.5 8t-51.5 20q-10 9 -10 31q0 7 1.5 22t4 32.5
t7 36t10 33.5t13 24.5t16.5 9.5q8 0 16 -2t18.5 -5t23.5 -5t30 -2q32 0 55.5 9t40.5 28.5t29 50.5t21 74l147 743h-332l-157 -784q-17 -83 -46.5 -146t-74.5 -105.5t-106.5 -64t-139.5 -21.5q-52 0 -87 8t-45 16q-5 6 -7 13t-2 20q0 6 1.5 20t4.5 30.5t7.5 34.5t10 33
t12.5 24.5t16 9.5q6 0 12 -1t13 -2.5t16.5 -2.5t24.5 -1q32 0 55.5 9t40.5 29t29 52t21 77l151 752h-112q-12 0 -18.5 8.5t-6.5 32.5q0 10 1.5 26t5 34t8.5 36.5t13 33t17.5 24t22.5 9.5h110l17 86q17 85 47.5 149t76.5 107t107 65t140 22q26 0 51.5 -2.5t47 -7t37 -10.5
t21.5 -12q6 -5 8.5 -14t2.5 -22q0 -6 -1.5 -19.5t-4 -31t-6.5 -35.5t-9.5 -33t-12.5 -24.5t-15 -9.5q-6 0 -15.5 3t-21.5 6.5t-27.5 6.5t-33.5 3q-32 0 -55.5 -9t-40.5 -28.5t-29 -50.5t-20 -74l-13 -65h332l19 98q17 85 48 149.5t81 107.5t122.5 65t172.5 22q27 0 60 -2.5
t63.5 -7t54 -10.5t30.5 -13q4 -4 6 -8.5t3 -10.5q2 9 9.5 16.5t23 13t40 9t62.5 3.5q36 0 59.5 -3t36.5 -8.5t17 -13.5t2 -18l-71 -358q-5 -23 -11 -48.5t-13 -50.5t-14.5 -48.5t-14.5 -41.5q18 32 51.5 64.5t76.5 58.5t92.5 42t99.5 16q56 0 98.5 -14.5t73 -39.5t51 -59
t32.5 -71.5t16.5 -77.5t4.5 -78zM1980 619q0 25 -3.5 52t-15 49t-31.5 36t-53 14q-45 0 -91 -27t-86 -73t-71 -107t-44 -130l-28 -135q36 -55 78.5 -81.5t97.5 -26.5q41 0 75 19.5t61.5 52t48 75t34.5 90.5t21 97t7 95z" />
    <glyph glyph-name="f_h.liga" unicode="fh" horiz-adv-x="1711" 
d="M1628 727q0 -36 -3.5 -71.5t-10.5 -70.5l-110 -551q-2 -10 -9.5 -17.5t-23 -12.5t-40.5 -7.5t-61 -2.5q-37 0 -60.5 2.5t-36.5 7.5t-17.5 12.5t-1.5 17.5l105 535q4 21 7 47.5t3 47.5q0 22 -4 40.5t-14 32t-26 21t-39 7.5q-40 0 -84.5 -26t-84 -71t-70.5 -105t-44 -127
l-81 -402q-2 -10 -9.5 -17.5t-23 -12.5t-40.5 -7.5t-62 -2.5q-36 0 -59.5 2.5t-36.5 7.5t-17.5 12.5t-2.5 17.5l231 1158q-3 -5 -9 -9t-15 -4q-7 0 -19 3t-30 6.5t-43 6.5t-59 3q-47 0 -79 -9t-53 -28.5t-34 -50.5t-21 -74l-15 -76h148q13 0 19.5 -9.5t6.5 -30.5
q0 -10 -1.5 -26t-5.5 -34.5t-9.5 -36.5t-13 -33t-17 -24.5t-20.5 -9.5h-149l-157 -784q-17 -83 -46.5 -146t-74.5 -105.5t-106.5 -64t-139.5 -21.5q-52 0 -87 8t-45 16q-5 6 -7 13t-2 20q0 6 1.5 20t4.5 30.5t7.5 34.5t10 33t12.5 24.5t16 9.5q6 0 12 -1t13 -2.5t16.5 -2.5
t24.5 -1q32 0 55.5 9.5t40.5 29.5t29 51.5t21 76.5l151 752h-112q-12 0 -18.5 8.5t-6.5 32.5q0 10 1.5 26t5 34t8.5 36.5t13 33t17.5 24t22.5 9.5h110l19 98q16 85 48 149t82.5 107t122.5 64.5t170 21.5q26 0 59.5 -2.5t64 -7t54.5 -11t31 -12.5q4 -5 6 -8t4 -9q2 9 9 16.5
t22 13t39.5 9t62.5 3.5q37 0 60.5 -3t36.5 -8.5t17.5 -13.5t2.5 -18l-72 -362q-4 -22 -10.5 -47t-13.5 -49.5t-14.5 -47.5t-15.5 -41q20 32 53 64t75 58t91.5 42.5t102.5 16.5q67 0 114 -19t77 -53t43 -81t13 -103z" />
    <glyph glyph-name="f_f_h.liga" unicode="ffh" horiz-adv-x="2293" 
d="M2211 727q0 -36 -3.5 -71.5t-10.5 -70.5l-110 -551q-2 -10 -9.5 -17.5t-23 -12.5t-40.5 -7.5t-62 -2.5q-36 0 -59.5 2.5t-36.5 7.5t-17.5 12.5t-2.5 17.5l107 535q3 21 6.5 47.5t3.5 47.5q0 22 -4.5 40.5t-14.5 32t-26 21t-38 7.5q-41 0 -85.5 -26t-84.5 -71t-70.5 -105
t-43.5 -127l-81 -402q-2 -10 -9.5 -17.5t-23 -12.5t-40.5 -7.5t-62 -2.5t-60.5 2.5t-36.5 7.5t-17 12.5t-2 17.5l232 1161q-3 -5 -9 -9t-15 -4q-8 0 -19.5 2.5t-30 6.5t-43.5 6.5t-59 2.5q-47 0 -79 -8.5t-53.5 -28t-34 -50.5t-21.5 -74l-15 -79h148q14 0 20.5 -9.5
t6.5 -30.5q0 -10 -1.5 -26t-5.5 -34.5t-10 -36.5t-13.5 -33t-17 -24.5t-19.5 -9.5h-149l-152 -756q-17 -86 -47 -151.5t-75.5 -110t-107.5 -67.5t-142 -23q-59 0 -99.5 8t-51.5 20q-10 9 -10 31q0 7 1.5 22t4.5 32.5t7 36t10 33.5t13 24.5t16 9.5q8 0 16 -2t18.5 -5t23.5 -5
t30 -2q32 0 55.5 9t40.5 28.5t29 50.5t21 74l148 743h-332l-158 -784q-17 -83 -46.5 -146t-74 -105.5t-106 -64t-139.5 -21.5q-52 0 -87 8t-45 16q-5 6 -7 13t-2 20q0 6 1.5 20t4.5 30.5t7.5 34.5t10 33t12.5 24.5t16 9.5q6 0 12 -1t13 -2.5t16.5 -2.5t24.5 -1
q32 0 55.5 9.5t40.5 29.5t29 51.5t21 76.5l151 752h-112q-12 0 -18.5 8.5t-6.5 32.5q0 10 1.5 26t5 34t8.5 36.5t13 33t17.5 24t22.5 9.5h110l17 86q17 85 47.5 149t76.5 107t107 65t140 22q26 0 51.5 -2.5t47 -7t37 -10.5t21.5 -12q6 -5 8.5 -14t2.5 -22q0 -6 -1.5 -19.5
t-4 -31t-6.5 -35.5t-9.5 -33t-12.5 -24.5t-15 -9.5q-6 0 -15.5 3t-21.5 6.5t-27.5 6.5t-33.5 3q-32 0 -55.5 -9t-40.5 -28.5t-29 -50.5t-20 -74l-13 -65h332l19 98q17 85 47.5 149.5t80.5 107.5t123 65t173 22q27 0 60 -2.5t63.5 -7t54 -10.5t30.5 -13q4 -4 6 -8.5t3 -10.5
q2 9 9.5 16.5t22.5 13t39.5 9t62.5 3.5q37 0 60.5 -3t36.5 -8.5t17 -13.5t2 -18l-71 -362q-5 -22 -11 -47t-13.5 -49.5t-15 -47.5t-14.5 -41q19 32 52 64t75.5 58t92 42.5t101.5 16.5q68 0 115 -19t77 -53t43 -81t13 -103z" />
    <glyph glyph-name="f_igrave.liga" unicode="f&#xec;" horiz-adv-x="1135" 
d="M1127 1114q3 -14 2.5 -24t-9.5 -16t-28 -9t-53 -3q-28 0 -46 1.5t-28 6t-15.5 11t-9.5 16.5l-100 248q-4 11 -3.5 21t13 17.5t38.5 12t72 4.5q34 0 54 -2t31 -6.5t15.5 -12.5t7.5 -20zM1030 960q38 0 53.5 -17t9.5 -52l-171 -857q-2 -10 -9.5 -17.5t-23 -12.5t-40.5 -7.5
t-62 -2.5q-36 0 -59.5 2.5t-36.5 7.5t-17.5 12.5t-2.5 17.5l144 722h-332l-157 -784q-17 -83 -46.5 -146t-74.5 -105.5t-106.5 -64t-139.5 -21.5q-52 0 -87 8t-45 16q-5 6 -7 13t-2 20q0 6 1.5 20t4.5 30.5t7.5 34.5t10 33t12.5 24.5t16 9.5q6 0 12 -1t13 -2.5t16.5 -2.5
t24.5 -1q32 0 55.5 9.5t40.5 29.5t29 51.5t21 76.5l151 752h-112q-12 0 -18.5 8.5t-6.5 32.5q0 10 1.5 26t5 34t8.5 36.5t13 33t17.5 24t22.5 9.5h110l19 97q16 85 46 149t74 107.5t102.5 65t133.5 21.5q23 0 44.5 -2t39.5 -6t30 -8.5t17 -9.5q6 -6 8.5 -15t2.5 -21
q0 -6 -1.5 -20t-4 -31t-6.5 -35t-10 -33t-12.5 -24.5t-13.5 -9.5t-13 2t-14.5 4.5t-19.5 4.5t-25 2q-28 0 -49.5 -9t-36.5 -28.5t-26 -50.5t-19 -74l-15 -76h505z" />
    <glyph glyph-name="f_iacute.liga" unicode="f&#xed;" horiz-adv-x="1135" 
d="M1030 960q38 0 53.5 -17t9.5 -52l-171 -857q-2 -10 -9.5 -17.5t-23 -12.5t-40.5 -7.5t-62 -2.5q-36 0 -59.5 2.5t-36.5 7.5t-17.5 12.5t-2.5 17.5l144 722h-332l-157 -784q-17 -83 -46.5 -146t-74.5 -105.5t-106.5 -64t-139.5 -21.5q-52 0 -87 8t-45 16q-5 6 -7 13t-2 20
q0 6 1.5 20t4.5 30.5t7.5 34.5t10 33t12.5 24.5t16 9.5q6 0 12 -1t13 -2.5t16.5 -2.5t24.5 -1q32 0 55.5 9.5t40.5 29.5t29 51.5t21 76.5l151 752h-112q-12 0 -18.5 8.5t-6.5 32.5q0 10 1.5 26t5 34t8.5 36.5t13 33t17.5 24t22.5 9.5h110l19 97q16 85 46.5 149t75.5 107.5
t106 65t139 21.5q26 0 50.5 -2.5t45 -6.5t35 -9.5t20.5 -11.5q5 -5 8 -13.5t3 -22.5q0 -6 -1.5 -20t-4.5 -30.5t-7 -34.5t-9.5 -33.5t-12.5 -25t-14 -9.5t-15.5 2.5t-19 5.5t-24.5 6t-32 3q-32 0 -55 -9t-39.5 -28.5t-28 -50.5t-19.5 -74l-15 -76h505zM1102 1115
q-8 -10 -16 -16.5t-21 -10.5t-32 -6t-48 -2q-35 0 -55 3t-28 9.5t-5.5 16.5t11.5 23l152 229q8 11 18 19t25.5 12.5t38.5 6.5t56 2q46 0 72 -4.5t37.5 -12t9.5 -17t-11 -20.5zM643 957z" />
    <glyph glyph-name="f_icircumflex.liga" unicode="f&#xee;" horiz-adv-x="1135" 
d="M945 1112q-8 -12 -16 -19t-20.5 -10.5t-31 -4.5t-47.5 -1q-33 0 -52 3t-25 11t1 23t25 38l174 214q7 10 17.5 16t25.5 9.5t37.5 5t53.5 1.5q32 0 53 -2t35 -6t22 -10t13 -14l93 -223q8 -20 10 -33t-5.5 -20.5t-27 -10t-54.5 -2.5q-32 0 -51.5 1t-30 4.5t-15 10.5t-7.5 19
l-59 149zM1030 960q38 0 53.5 -17t9.5 -52l-171 -857q-2 -10 -9.5 -17.5t-23 -12.5t-40.5 -7.5t-62 -2.5q-36 0 -59.5 2.5t-36.5 7.5t-17.5 12.5t-2.5 17.5l144 722h-332l-157 -784q-17 -83 -46.5 -146t-74.5 -105.5t-106.5 -64t-139.5 -21.5q-52 0 -87 8t-45 16q-5 6 -7 13
t-2 20q0 6 1.5 20t4.5 30.5t7.5 34.5t10 33t12.5 24.5t16 9.5q6 0 12 -1t13 -2.5t16.5 -2.5t24.5 -1q32 0 55.5 9.5t40.5 29.5t29 51.5t21 76.5l151 752h-112q-12 0 -18.5 8.5t-6.5 32.5q0 10 1.5 26t5 34t8.5 36.5t13 33t17.5 24t22.5 9.5h110l19 97q16 85 46 149t74 107.5
t102.5 65t133.5 21.5q23 0 44.5 -2t39.5 -6t30 -8.5t17 -9.5q6 -6 8.5 -15t2.5 -21q0 -6 -1.5 -19.5t-4 -30t-7 -33.5t-10 -31.5t-12.5 -24t-14 -9.5t-13 2t-14.5 4.5t-19.5 4.5t-25 2q-28 0 -49 -9t-36 -28.5t-25.5 -50.5t-19.5 -74l-15 -81h505z" />
    <glyph glyph-name="f_itilde.liga" unicode="f&#x129;" horiz-adv-x="1153" 
d="M1354 1319q0 -9 -2 -32t-8.5 -52t-19.5 -60t-35 -57t-54.5 -43t-77.5 -17q-48 0 -80 18t-55 39t-42 39t-41 18q-23 0 -36.5 -20t-19.5 -65q0 -7 -3 -12t-11 -9t-23 -6t-39 -2q-21 0 -34.5 2t-21 6t-10 10t-2.5 14q0 7 2 29t8.5 51t19.5 60.5t35.5 57.5t55 43.5t78.5 17.5
t77.5 -18t55.5 -39.5t43 -39.5t40 -18q23 0 36.5 19.5t17.5 65.5q1 8 5 13.5t12.5 9t22.5 5.5t36 2q43 0 56.5 -7t13.5 -23zM1049 960q38 0 53.5 -16.5t8.5 -52.5l-171 -857q-2 -10 -9 -17.5t-22.5 -12.5t-40.5 -7.5t-62 -2.5t-60.5 2.5t-36.5 7.5t-17 12.5t-2 17.5l144 722
h-351l-157 -784q-17 -83 -46.5 -146t-74.5 -105.5t-106.5 -64t-139.5 -21.5q-52 0 -87 8t-45 16q-5 6 -7 13t-2 20q0 6 1.5 20t4.5 30.5t7.5 34.5t10 33t12.5 24.5t16 9.5q6 0 12 -1t13 -2.5t16.5 -2.5t24.5 -1q32 0 55.5 9.5t40.5 29.5t29 51.5t21 76.5l151 752h-112
q-12 0 -18.5 8.5t-6.5 32.5q0 10 1.5 26t5 34t8.5 36.5t13 33t17.5 24t22.5 9.5h110l21 107q16 81 44.5 143t71.5 104.5t101.5 64t133.5 21.5q37 0 65.5 -6t36.5 -13q5 -5 7 -12.5t2 -21.5q0 -4 -1 -17.5t-4 -30.5t-7 -36t-9 -34.5t-12 -25.5t-14 -10q-4 0 -8 0.5t-9.5 1.5
t-13 2t-17.5 1q-27 0 -46 -9t-33.5 -28.5t-24.5 -50.5t-18 -73l-15 -77h524z" />
    <glyph glyph-name="f_idieresis.liga" unicode="f&#xef;" horiz-adv-x="1153" 
d="M793 1226q7 37 18 61t28 37.5t41 18.5t56 5t53 -5t32 -18.5t12 -37.5t-7 -61q-7 -37 -18 -61.5t-27.5 -38.5t-39.5 -19.5t-55 -5.5t-53.5 5.5t-32.5 19.5t-13 38.5t6 61.5zM1101 1226q8 37 19 61t28 37.5t40.5 18.5t55.5 5t53 -5t31.5 -18.5t12 -37.5t-6.5 -61
q-7 -37 -17.5 -61.5t-27 -38.5t-40 -19.5t-55.5 -5.5t-53 5.5t-32.5 19.5t-13 38.5t5.5 61.5zM1049 960q38 0 53.5 -16.5t8.5 -52.5l-171 -857q-2 -10 -9 -17.5t-22.5 -12.5t-40.5 -7.5t-62 -2.5t-60.5 2.5t-36.5 7.5t-17 12.5t-2 17.5l144 722h-351l-157 -784
q-17 -83 -46.5 -146t-74.5 -105.5t-106.5 -64t-139.5 -21.5q-52 0 -87 8t-45 16q-5 6 -7 13t-2 20q0 6 1.5 20t4.5 30.5t7.5 34.5t10 33t12.5 24.5t16 9.5q6 0 12 -1t13 -2.5t16.5 -2.5t24.5 -1q32 0 55.5 9.5t40.5 29.5t29 51.5t21 76.5l151 752h-112q-12 0 -18.5 8.5
t-6.5 32.5q0 10 1.5 26t5 34t8.5 36.5t13 33t17.5 24t22.5 9.5h110l21 107q16 81 44.5 143t71.5 104.5t101.5 64t133.5 21.5q20 0 38.5 -1.5t34 -4.5t26.5 -7t15 -8q5 -6 8 -14.5t3 -21.5q0 -5 -1.5 -18.5t-4 -31t-6.5 -36.5t-9.5 -35t-12 -26.5t-14.5 -10.5q-5 0 -10.5 1.5
t-13 3.5t-17 3.5t-21.5 1.5q-27 0 -46 -8.5t-33 -27.5t-24 -49.5t-18 -72.5l-15 -77h524z" />
    <glyph glyph-name="f_imacron.liga" unicode="f&#x12b;" horiz-adv-x="1153" 
d="M1299 1323q16 0 23.5 -10t7.5 -29q0 -6 -1.5 -19t-4.5 -29t-8 -33t-12.5 -31t-17.5 -23t-22 -9h-450q-18 0 -25.5 9.5t-7.5 29.5q0 7 1.5 20.5t4.5 29t8.5 32.5t12.5 31t17 22.5t24 8.5h450zM1049 960q38 0 53.5 -16.5t8.5 -52.5l-171 -857q-2 -10 -9 -17.5t-22.5 -12.5
t-40.5 -7.5t-62 -2.5t-60.5 2.5t-36.5 7.5t-17 12.5t-2 17.5l144 722h-351l-157 -784q-17 -83 -46.5 -146t-74.5 -105.5t-106.5 -64t-139.5 -21.5q-52 0 -87 8t-45 16q-5 6 -7 13t-2 20q0 6 1.5 20t4.5 30.5t7.5 34.5t10 33t12.5 24.5t16 9.5q6 0 12 -1t13 -2.5t16.5 -2.5
t24.5 -1q32 0 55.5 9.5t40.5 29.5t29 51.5t21 76.5l151 752h-112q-12 0 -18.5 8.5t-6.5 32.5q0 10 1.5 26t5 34t8.5 36.5t13 33t17.5 24t22.5 9.5h110l21 107q16 81 44.5 143t71.5 104.5t101.5 64t133.5 21.5q20 0 38.5 -1.5t34 -4.5t26.5 -7t15 -8q5 -6 8 -14.5t3 -21.5
q0 -5 -1 -18t-4 -30.5t-6.5 -36t-9 -34t-12 -26t-14.5 -10.5q-5 0 -10.5 1.5t-13 3.5t-17 3.5t-21.5 1.5q-27 0 -46 -9t-33.5 -28.5t-24.5 -50.5t-18 -73l-15 -77h524z" />
    <glyph glyph-name="f_ibreve.liga" unicode="f&#x12d;" horiz-adv-x="1153" 
d="M1195 1369q8 8 24.5 12.5t49.5 4.5q26 0 42 -1.5t24.5 -5t11.5 -8t3 -10.5q0 -4 -2.5 -27.5t-13 -55.5t-30 -68.5t-54.5 -67t-86.5 -51t-124.5 -20.5q-72 0 -118.5 17t-73.5 44t-37 61.5t-10 69.5q0 13 1 29.5t3.5 32t6.5 28.5t10 18q6 6 22.5 10.5t50.5 4.5
q23 0 38.5 -2t24 -6t12 -9.5t3.5 -13.5t-2 -21.5t-2 -24.5q0 -37 19 -58.5t66 -21.5q30 0 51 9t35.5 23t23 31t14 33t9.5 27.5t9 16.5zM1049 960q38 0 53.5 -16.5t8.5 -52.5l-171 -857q-2 -10 -9 -17.5t-22.5 -12.5t-40.5 -7.5t-62 -2.5t-60.5 2.5t-36.5 7.5t-17 12.5
t-2 17.5l144 722h-351l-157 -784q-17 -83 -46.5 -146t-74.5 -105.5t-106.5 -64t-139.5 -21.5q-52 0 -87 8t-45 16q-5 6 -7 13t-2 20q0 6 1.5 20t4.5 30.5t7.5 34.5t10 33t12.5 24.5t16 9.5q6 0 12 -1t13 -2.5t16.5 -2.5t24.5 -1q32 0 55.5 9.5t40.5 29.5t29 51.5t21 76.5
l151 752h-112q-12 0 -18.5 8.5t-6.5 32.5q0 10 1.5 26t5 34t8.5 36.5t13 33t17.5 24t22.5 9.5h110l21 107q16 81 44.5 143t71.5 104.5t101.5 64t133.5 21.5q37 0 66 -6t37 -13q5 -5 7 -12.5t2 -21.5q0 -4 -1 -17.5t-4 -30.5t-7 -36t-9 -34.5t-12 -25.5t-14 -10q-5 0 -9 0.5
t-9.5 1.5t-13 2t-17.5 1q-27 0 -46 -9t-33.5 -28.5t-24.5 -50.5t-18 -73l-15 -77h524z" />
    <glyph glyph-name="f_iogonek.liga" unicode="f&#x12f;" horiz-adv-x="1135" 
d="M922 32q-4 -18 -12.5 -32.5t-21.5 -25.5l-69 -58q-34 -29 -49.5 -47t-15.5 -36q0 -15 11.5 -24t38.5 -9h88q16 0 21.5 -6t5.5 -18q0 -8 -2 -22.5t-6 -30t-9.5 -29t-11.5 -19.5q-8 -7 -26.5 -14t-43 -13t-53 -9.5t-55.5 -3.5q-101 0 -154 35.5t-53 105.5q0 23 5.5 45
t18.5 45t34 46.5t52 49.5l51 42l149 752h-332l-157 -784q-17 -83 -46.5 -146t-74.5 -105.5t-106.5 -64t-139.5 -21.5q-52 0 -87 8t-45 16q-5 6 -7 13t-2 20q0 6 1.5 20t4.5 30.5t7 34.5t10 33t13 24.5t16 9.5q6 0 12.5 -1t13.5 -2.5t16.5 -2.5t23.5 -1q32 0 55.5 9.5
t40.5 29.5t29 51.5t21 76.5l151 752h-112q-12 0 -18.5 8.5t-6.5 32.5q0 10 1.5 26t5 34t8.5 36.5t13 33t17.5 24t22.5 9.5h110l19 97q16 85 46.5 149.5t75.5 108t106 65.5t139 22q27 0 51 -2.5t43 -7t32.5 -9.5t18.5 -11q6 -6 8 -14t2 -20q0 -6 -1.5 -20t-4.5 -31t-7 -35
t-9.5 -33t-12.5 -24.5t-15 -9.5q-7 0 -14.5 2.5t-17.5 5t-23.5 5t-31.5 2.5q-31 0 -53 -8.5t-38 -28t-27.5 -50.5t-19.5 -74l-15 -79h505q38 0 53.5 -17t9.5 -52zM1180 1226q-8 -37 -19.5 -62.5t-30.5 -41t-48.5 -22t-71.5 -6.5t-68.5 6.5t-39 22t-14 41t5.5 62.5
q7 36 18.5 61t31 41t48.5 23t71 7q43 0 68.5 -7t39 -23t15 -41t-5.5 -61z" />
    <glyph glyph-name="f_dotlessi.liga" unicode="f&#x131;" horiz-adv-x="1135" 
d="M1030 960q38 0 53.5 -17t9.5 -52l-171 -857q-2 -10 -9.5 -17.5t-23 -12.5t-40.5 -7.5t-62 -2.5q-36 0 -59.5 2.5t-36.5 7.5t-17.5 12.5t-2.5 17.5l144 722h-332l-157 -784q-17 -83 -46.5 -146t-74.5 -105.5t-106.5 -64t-139.5 -21.5q-52 0 -87 8t-45 16q-5 6 -7 13t-2 20
q0 6 1.5 20t4.5 30.5t7.5 34.5t10 33t12.5 24.5t16 9.5q6 0 12 -1t13 -2.5t16.5 -2.5t24.5 -1q32 0 55.5 9.5t40.5 29.5t29 51.5t21 76.5l151 752h-112q-12 0 -18.5 8.5t-6.5 32.5q0 10 1.5 26t5 34t8.5 36.5t13 33t17.5 24t22.5 9.5h110l19 97q16 85 46.5 149t75.5 107.5
t106 65t139 21.5q26 0 50.5 -2.5t45 -6.5t35 -9.5t20.5 -11.5q5 -5 8 -13.5t3 -22.5q0 -6 -1.5 -20t-4.5 -30.5t-7 -34.5t-9.5 -33.5t-12.5 -25t-14 -9.5t-15.5 2.5t-19 5.5t-24.5 6t-32 3q-32 0 -55 -9t-39.5 -28.5t-28 -50.5t-19.5 -74l-15 -76h505z" />
    <glyph glyph-name="f_f_igrave.liga" unicode="ff&#xec;" horiz-adv-x="1718" 
d="M857 960l19 97q17 85 47 149.5t73.5 108t102 65.5t133.5 22q23 0 44.5 -2t39.5 -6t30 -8.5t17 -9.5q6 -5 9 -14t3 -21q0 -6 -1.5 -20t-4.5 -31t-7 -35t-9.5 -33t-12.5 -24.5t-15 -9.5q-5 0 -11.5 2t-15 4t-19 4t-26.5 2q-28 0 -48.5 -8.5t-36 -28t-26.5 -50.5t-20 -74
l-15 -79h506q38 0 53.5 -16.5t9.5 -52.5l-171 -857q-2 -10 -9.5 -17.5t-23 -12.5t-40.5 -7.5t-62 -2.5t-60.5 2.5t-36.5 7.5t-17 12.5t-2 17.5l144 722h-332l-152 -756q-17 -86 -47 -151.5t-75.5 -110t-107.5 -67.5t-142 -23q-59 0 -99.5 8t-51.5 20q-10 9 -10 31
q0 7 1.5 22t4.5 32.5t7 36t10 33.5t13 24.5t16 9.5q8 0 16 -2t18.5 -5t23.5 -5t30 -2q32 0 55.5 9t40.5 28.5t29 50.5t21 74l148 743h-332l-157 -784q-17 -83 -46.5 -146t-74.5 -105.5t-106.5 -64t-139.5 -21.5q-52 0 -87 8t-45 16q-5 6 -7 13t-2 20q0 6 1.5 20t4.5 30.5
t7.5 34.5t10 33t12.5 24.5t16 9.5q6 0 12 -1t13 -2.5t16.5 -2.5t24.5 -1q32 0 55.5 9.5t40.5 29.5t29 51.5t21 76.5l151 752h-112q-12 0 -18.5 8.5t-6.5 32.5q0 10 1.5 26t5 34t8.5 36.5t13 33t17.5 24t22.5 9.5h110l17 86q17 85 47.5 149t76.5 107t107 65t140 22
q26 0 51.5 -2.5t47 -7t37 -10.5t21.5 -12q6 -5 8.5 -14t2.5 -22q0 -6 -1.5 -19.5t-4 -31t-6.5 -35.5t-9.5 -33t-12.5 -24.5t-15 -9.5q-6 0 -15.5 3t-21.5 6.5t-27.5 6.5t-33.5 3q-32 0 -55.5 -9t-40.5 -28.5t-29 -50.5t-20 -74l-13 -65h332zM1710 1114q3 -14 2.5 -24
t-9.5 -16t-28 -9t-52 -3q-29 0 -47 1.5t-28 6t-15.5 11t-9.5 16.5l-99 248q-5 11 -4.5 21t13 17.5t38.5 12t73 4.5q33 0 53 -2t31.5 -6.5t16 -12.5t7.5 -20z" />
    <glyph glyph-name="f_f_iacute.liga" unicode="ff&#xed;" horiz-adv-x="1718" 
d="M483 756l-157 -784q-17 -83 -46.5 -146t-74.5 -105.5t-106.5 -64t-139.5 -21.5q-52 0 -87 8t-45 16q-5 6 -7 13t-2 20q0 6 1.5 20t4.5 30.5t7.5 34.5t10 33t12.5 24.5t16 9.5q6 0 12 -1t13 -2.5t16.5 -2.5t24.5 -1q32 0 55.5 9.5t40.5 29.5t29 51.5t21 76.5l151 752h-112
q-12 0 -18.5 8.5t-6.5 32.5q0 10 1.5 26t5 34t8.5 36.5t13 33t17.5 24t22.5 9.5h110l17 86q17 85 47.5 149t76.5 107t107 65t140 22q26 0 51.5 -2.5t47 -7t37 -10.5t21.5 -12q6 -5 8.5 -14t2.5 -22q0 -6 -1.5 -19.5t-4 -31t-6.5 -35.5t-9.5 -33t-12.5 -24.5t-15 -9.5
q-6 0 -15.5 3t-21.5 6.5t-27.5 6.5t-33.5 3q-32 0 -55.5 -9t-40.5 -28.5t-29 -50.5t-20 -74l-13 -65h332l19 97q17 85 47 149.5t75 108t106 65.5t140 22q27 0 53.5 -3t48 -7.5t37 -10t21.5 -11.5q5 -5 8 -14t3 -22q0 -6 -1.5 -19.5t-4.5 -30.5t-7 -35t-9.5 -33t-12 -24.5
t-14.5 -9.5q-7 0 -17 3t-22.5 6t-28 6t-33.5 3q-33 0 -56 -9t-39.5 -28.5t-28 -50.5t-19.5 -73l-15 -79h506q38 0 53.5 -16.5t9.5 -52.5l-171 -857q-2 -10 -9.5 -17.5t-23 -12.5t-40.5 -7.5t-62 -2.5t-60.5 2.5t-36.5 7.5t-17 12.5t-2 17.5l144 722h-332l-152 -756
q-17 -86 -47 -151.5t-75.5 -110t-107.5 -67.5t-142 -23q-59 0 -99.5 8t-51.5 20q-10 9 -10 31q0 7 1.5 22t4.5 32.5t7 36t10 33.5t13 24.5t16 9.5q8 0 16 -2t18.5 -5t23.5 -5t30 -2q32 0 55.5 9t40.5 28.5t29 50.5t21 74l148 743h-332zM1690 1113q-8 -10 -16.5 -16.5
t-21.5 -10.5t-32 -6t-48 -2q-35 0 -54.5 3t-27.5 9.5t-5.5 16.5t11.5 24l152 228q8 12 18 20t25.5 12.5t38 6.5t56.5 2q46 0 72 -4.5t37 -12t9.5 -17.5t-11.5 -21z" />
    <glyph glyph-name="f_f_icircumflex.liga" unicode="ff&#xee;" horiz-adv-x="1718" 
d="M1528 1112q-8 -12 -16 -19t-21 -10.5t-32 -4.5t-49 -1q-33 0 -51 3t-23 11.5t2 23.5t24 37l174 214q7 10 17.5 16t26 9.5t37.5 5t54 1.5q31 0 52 -2t35 -6t22 -10t12 -14l94 -223q8 -20 10 -33t-6 -20.5t-27.5 -10t-54.5 -2.5q-32 0 -51 1t-30 4.5t-15.5 10.5t-7.5 19
l-58 149zM857 960l19 97q17 85 47 149.5t73.5 108t102 65.5t133.5 22q23 0 44.5 -2t39.5 -6t30 -8.5t17 -9.5q6 -5 9 -14t3 -21q0 -5 -1.5 -18t-5 -29.5t-7.5 -34t-9.5 -32t-12.5 -24.5t-14 -10q-5 0 -11.5 2t-15 4.5t-19 4.5t-26.5 2q-28 0 -48.5 -10t-36 -30.5t-26.5 -52
t-20 -74.5l-15 -79h506q38 0 53.5 -16.5t9.5 -52.5l-171 -857q-2 -10 -9.5 -17.5t-23 -12.5t-40.5 -7.5t-62 -2.5t-60.5 2.5t-36.5 7.5t-17 12.5t-2 17.5l144 722h-332l-152 -756q-17 -86 -47 -151.5t-75.5 -110t-107.5 -67.5t-142 -23q-59 0 -99.5 8t-51.5 20q-10 9 -10 31
q0 7 1.5 22t4.5 32.5t7 36t10 33.5t13 24.5t16 9.5q8 0 16 -2t18.5 -5t23.5 -5t30 -2q32 0 55.5 9t40.5 28.5t29 50.5t21 74l148 743h-332l-157 -784q-17 -83 -46.5 -146t-74.5 -105.5t-106.5 -64t-139.5 -21.5q-52 0 -87 8t-45 16q-5 6 -7 13t-2 20q0 6 1.5 20t4.5 30.5
t7.5 34.5t10 33t12.5 24.5t16 9.5q6 0 12 -1t13 -2.5t16.5 -2.5t24.5 -1q32 0 55.5 9.5t40.5 29.5t29 51.5t21 76.5l151 752h-112q-12 0 -18.5 8.5t-6.5 32.5q0 10 1.5 26t5 34t8.5 36.5t13 33t17.5 24t22.5 9.5h110l17 86q17 85 47.5 149t76.5 107t107 65t140 22
q26 0 51.5 -2.5t47 -7t37 -10.5t21.5 -12q6 -5 8.5 -14t2.5 -22q0 -6 -1.5 -19.5t-4 -31t-6.5 -35.5t-9.5 -33t-12.5 -24.5t-15 -9.5q-6 0 -15.5 3t-21.5 6.5t-27.5 6.5t-33.5 3q-32 0 -55.5 -9t-40.5 -28.5t-29 -50.5t-20 -74l-13 -65h332z" />
    <glyph glyph-name="f_f_itilde.liga" unicode="ff&#x129;" horiz-adv-x="1736" 
d="M857 960l20 101q17 84 45.5 148t71 107t99.5 64.5t132 21.5q39 0 68.5 -6t38.5 -15q5 -5 7 -12.5t2 -21.5q0 -6 -1.5 -20t-4.5 -31t-7.5 -35.5t-9.5 -34t-12 -25t-14 -9.5q-9 0 -19 3t-29 3q-27 0 -45.5 -9t-33 -28.5t-24.5 -50.5t-19 -74l-15 -76h524q39 0 54.5 -16.5
t8.5 -52.5l-170 -857q-3 -10 -10.5 -17.5t-23 -12.5t-40 -7.5t-61.5 -2.5t-60.5 2.5t-36.5 7.5t-17.5 12.5t-2.5 17.5l144 722h-350l-152 -756q-17 -86 -47 -151.5t-75.5 -110t-107.5 -67.5t-142 -23q-59 0 -99.5 8t-51.5 20q-10 9 -10 31q0 7 1.5 22t4.5 32.5t7 36t10 33.5
t13 24.5t16 9.5q8 0 16 -2t18.5 -5t23.5 -5t30 -2q32 0 55.5 9t40.5 28.5t29 50.5t21 74l148 743h-332l-157 -784q-17 -83 -46.5 -146t-74.5 -105.5t-106.5 -64t-139.5 -21.5q-52 0 -87 8t-45 16q-5 6 -7 13t-2 20q0 6 1.5 20t4.5 30.5t7.5 34.5t10 33t12.5 24.5t16 9.5
q6 0 12 -1t13 -2.5t16.5 -2.5t24.5 -1q32 0 55.5 9.5t40.5 29.5t29 51.5t21 76.5l151 752h-112q-12 0 -18.5 8.5t-6.5 32.5q0 10 1.5 26t5 34t8.5 36.5t13 33t17.5 24t22.5 9.5h110l17 86q17 85 47.5 149t76.5 107t107 65t140 22q26 0 51.5 -2.5t47 -7t37 -10.5t21.5 -12
q6 -5 8.5 -14t2.5 -22q0 -6 -1.5 -19.5t-4 -31t-6.5 -35.5t-9.5 -33t-12.5 -24.5t-15 -9.5q-6 0 -15.5 3t-21.5 6.5t-27.5 6.5t-33.5 3q-32 0 -55.5 -9t-40.5 -28.5t-29 -50.5t-20 -74l-13 -65h332zM1938 1319q0 -9 -2 -32t-9 -52t-20 -60t-35 -57t-54.5 -43t-77.5 -17
q-32 0 -56.5 8.5t-44 21t-34.5 27.5t-28.5 28t-26.5 21t-28 8q-23 0 -36.5 -20t-18.5 -65q-1 -7 -4 -12t-11 -9t-23 -6t-39 -2q-22 0 -35 2t-20.5 6t-10.5 10t-3 14q0 7 2 29t9 51t20 60.5t35 57.5t54.5 43.5t78.5 17.5q31 0 55.5 -8.5t43.5 -21.5t35 -27.5t29.5 -27.5
t26.5 -21.5t27 -8.5q23 0 36.5 19.5t18.5 65.5q1 8 4.5 13.5t12 9t22 5.5t36.5 2q42 0 56.5 -7t14.5 -23z" />
    <glyph glyph-name="f_f_idieresis.liga" unicode="ff&#xef;" horiz-adv-x="1736" 
d="M1376 1226q7 37 18 61t28 37.5t40.5 18.5t55.5 5q33 0 54 -5t32 -18.5t12 -37.5t-6 -61q-8 -37 -18.5 -61.5t-27.5 -38.5t-40 -19.5t-55 -5.5t-53.5 5.5t-33 19.5t-13 38.5t6.5 61.5zM1684 1226q8 37 19 61t28 37.5t40.5 18.5t55.5 5t53 -5t32 -18.5t12 -37.5t-6 -61
q-8 -37 -19 -61.5t-27.5 -38.5t-39.5 -19.5t-55 -5.5t-53.5 5.5t-32.5 19.5t-12.5 38.5t5.5 61.5zM857 960l19 97q17 85 45.5 149.5t71.5 108t100.5 65.5t131.5 22q20 0 39 -2t35.5 -5.5t28 -8t17.5 -9.5q5 -5 7.5 -12t2.5 -21q0 -6 -1.5 -20t-4.5 -31.5t-7.5 -35.5
t-9.5 -33.5t-12 -25.5t-14 -10q-5 0 -11 1.5t-13 3.5t-16 3.5t-21 1.5q-27 0 -46 -8.5t-33.5 -27.5t-24.5 -49.5t-19 -73.5l-15 -79h524q39 0 54.5 -16.5t8.5 -52.5l-170 -857q-3 -10 -10.5 -17.5t-23 -12.5t-40 -7.5t-61.5 -2.5t-60.5 2.5t-36.5 7.5t-17.5 12.5t-2.5 17.5
l144 722h-350l-152 -756q-17 -86 -47 -151.5t-75.5 -110t-107.5 -67.5t-142 -23q-59 0 -99.5 8t-51.5 20q-10 9 -10 31q0 7 1.5 22t4.5 32.5t7 36t10 33.5t13 24.5t16 9.5q8 0 16 -2t18.5 -5t23.5 -5t30 -2q32 0 55.5 9t40.5 28.5t29 50.5t21 74l148 743h-332l-157 -784
q-17 -83 -46.5 -146t-74.5 -105.5t-106.5 -64t-139.5 -21.5q-52 0 -87 8t-45 16q-5 6 -7 13t-2 20q0 6 1.5 20t4.5 30.5t7.5 34.5t10 33t12.5 24.5t16 9.5q6 0 12 -1t13 -2.5t16.5 -2.5t24.5 -1q32 0 55.5 9.5t40.5 29.5t29 51.5t21 76.5l151 752h-112q-12 0 -18.5 8.5
t-6.5 32.5q0 10 1.5 26t5 34t8.5 36.5t13 33t17.5 24t22.5 9.5h110l17 86q17 85 47.5 149t76.5 107t107 65t140 22q26 0 51.5 -2.5t47 -7t37 -10.5t21.5 -12q6 -5 8.5 -14t2.5 -22q0 -6 -1.5 -19.5t-4 -31t-6.5 -35.5t-9.5 -33t-12.5 -24.5t-15 -9.5q-6 0 -15.5 3t-21.5 6.5
t-27.5 6.5t-33.5 3q-32 0 -55.5 -9t-40.5 -28.5t-29 -50.5t-20 -74l-13 -65h332z" />
    <glyph glyph-name="f_f_imacron.liga" unicode="ff&#x12b;" horiz-adv-x="1736" 
d="M857 960l19 97q17 85 45.5 149.5t71.5 108t100.5 65.5t131.5 22q20 0 39 -2t35.5 -5.5t28 -8t17.5 -9.5q5 -5 7.5 -12t2.5 -21q0 -6 -1.5 -20t-4.5 -31.5t-7.5 -35.5t-9.5 -33.5t-12 -25.5t-14 -10q-5 0 -11 1.5t-13 3.5t-16 3.5t-21 1.5q-27 0 -46 -8.5t-33.5 -27.5
t-24.5 -49.5t-19 -73.5l-15 -79h524q39 0 54.5 -16.5t8.5 -52.5l-170 -857q-3 -10 -10.5 -17.5t-23 -12.5t-40 -7.5t-61.5 -2.5t-60.5 2.5t-36.5 7.5t-17.5 12.5t-2.5 17.5l144 722h-350l-152 -756q-17 -86 -47 -151.5t-75.5 -110t-107.5 -67.5t-142 -23q-59 0 -99.5 8
t-51.5 20q-10 9 -10 31q0 7 1.5 22t4.5 32.5t7 36t10 33.5t13 24.5t16 9.5q8 0 16 -2t18.5 -5t23.5 -5t30 -2q32 0 55.5 9t40.5 28.5t29 50.5t21 74l148 743h-332l-157 -784q-17 -83 -46.5 -146t-74.5 -105.5t-106.5 -64t-139.5 -21.5q-52 0 -87 8t-45 16q-5 6 -7 13t-2 20
q0 6 1.5 20t4.5 30.5t7.5 34.5t10 33t12.5 24.5t16 9.5q6 0 12 -1t13 -2.5t16.5 -2.5t24.5 -1q32 0 55.5 9.5t40.5 29.5t29 51.5t21 76.5l151 752h-112q-12 0 -18.5 8.5t-6.5 32.5q0 10 1.5 26t5 34t8.5 36.5t13 33t17.5 24t22.5 9.5h110l17 86q17 85 47.5 149t76.5 107
t107 65t140 22q26 0 51.5 -2.5t47 -7t37 -10.5t21.5 -12q6 -5 8.5 -14t2.5 -22q0 -6 -1.5 -19.5t-4 -31t-6.5 -35.5t-9.5 -33t-12.5 -24.5t-15 -9.5q-6 0 -15.5 3t-21.5 6.5t-27.5 6.5t-33.5 3q-32 0 -55.5 -9t-40.5 -28.5t-29 -50.5t-20 -74l-13 -65h332zM1882 1323
q16 0 23 -10t7 -29q0 -6 -1.5 -19t-4.5 -29t-7.5 -33t-12 -31t-17.5 -23t-22 -9h-450q-19 0 -26 9.5t-7 29.5q0 10 3 33.5t11 48.5t21 43.5t33 18.5h450z" />
    <glyph glyph-name="f_f_ibreve.liga" unicode="ff&#x12d;" horiz-adv-x="1736" 
d="M857 960l20 101q17 84 45.5 148t71 107t99.5 64.5t132 21.5q39 0 68.5 -6t38.5 -15q5 -5 7 -12.5t2 -21.5q0 -6 -1.5 -20t-4.5 -31t-7.5 -35.5t-9.5 -34t-12 -25t-14 -9.5q-9 0 -19 3t-29 3q-27 0 -45.5 -9t-33 -28.5t-24.5 -50.5t-19 -74l-15 -76h524q39 0 54.5 -16.5
t8.5 -52.5l-170 -857q-3 -10 -10.5 -17.5t-23 -12.5t-40 -7.5t-61.5 -2.5t-60.5 2.5t-36.5 7.5t-17.5 12.5t-2.5 17.5l144 722h-350l-152 -756q-17 -86 -47 -151.5t-75.5 -110t-107.5 -67.5t-142 -23q-59 0 -99.5 8t-51.5 20q-10 9 -10 31q0 7 1.5 22t4.5 32.5t7 36t10 33.5
t13 24.5t16 9.5q8 0 16 -2t18.5 -5t23.5 -5t30 -2q32 0 55.5 9t40.5 28.5t29 50.5t21 74l148 743h-332l-157 -784q-17 -83 -46.5 -146t-74.5 -105.5t-106.5 -64t-139.5 -21.5q-52 0 -87 8t-45 16q-5 6 -7 13t-2 20q0 6 1.5 20t4.5 30.5t7.5 34.5t10 33t12.5 24.5t16 9.5
q6 0 12 -1t13 -2.5t16.5 -2.5t24.5 -1q32 0 55.5 9.5t40.5 29.5t29 51.5t21 76.5l151 752h-112q-12 0 -18.5 8.5t-6.5 32.5q0 10 1.5 26t5 34t8.5 36.5t13 33t17.5 24t22.5 9.5h110l17 86q17 85 47.5 149t76.5 107t107 65t140 22q26 0 51.5 -2.5t47 -7t37 -10.5t21.5 -12
q6 -5 8.5 -14t2.5 -22q0 -6 -1.5 -19.5t-4 -31t-6.5 -35.5t-9.5 -33t-12.5 -24.5t-15 -9.5q-6 0 -15.5 3t-21.5 6.5t-27.5 6.5t-33.5 3q-32 0 -55.5 -9t-40.5 -28.5t-29 -50.5t-20 -74l-13 -65h332zM1778 1369q8 8 24.5 12.5t49.5 4.5q26 0 42 -1.5t24.5 -5t11 -8t2.5 -10.5
q0 -4 -2.5 -27.5t-12.5 -55.5t-30 -68.5t-54 -67t-86 -51t-125 -20.5t-119 17t-73 44t-37 61.5t-10 69.5q0 13 1 29.5t3.5 32t6.5 28.5t10 18q6 6 22 10.5t50 4.5q24 0 39 -2t24 -6t12.5 -9.5t3.5 -13.5t-2 -21.5t-2 -24.5q0 -37 18.5 -58.5t65.5 -21.5q30 0 51 9t35.5 23
t23.5 31t15 33t9.5 27.5t8.5 16.5z" />
    <glyph glyph-name="f_f_dotlessi.liga" unicode="ff&#x131;" horiz-adv-x="1718" 
d="M483 756l-157 -784q-17 -83 -46.5 -146t-74.5 -105.5t-106.5 -64t-139.5 -21.5q-52 0 -87 8t-45 16q-5 6 -7 13t-2 20q0 6 1.5 20t4.5 30.5t7.5 34.5t10 33t12.5 24.5t16 9.5q6 0 12 -1t13 -2.5t16.5 -2.5t24.5 -1q32 0 55.5 9.5t40.5 29.5t29 51.5t21 76.5l151 752h-112
q-12 0 -18.5 8.5t-6.5 32.5q0 10 1.5 26t5 34t8.5 36.5t13 33t17.5 24t22.5 9.5h110l17 86q17 85 47.5 149t76.5 107t107 65t140 22q26 0 51.5 -2.5t47 -7t37 -10.5t21.5 -12q6 -5 8.5 -14t2.5 -22q0 -6 -1.5 -19.5t-4 -31t-6.5 -35.5t-9.5 -33t-12.5 -24.5t-15 -9.5
q-6 0 -15.5 3t-21.5 6.5t-27.5 6.5t-33.5 3q-32 0 -55.5 -9t-40.5 -28.5t-29 -50.5t-20 -74l-13 -65h332l19 97q17 85 47 149.5t75 108t106 65.5t140 22q25 0 49.5 -2.5t45 -6.5t35 -9t20.5 -11q5 -6 8 -14.5t3 -21.5q0 -6 -1.5 -20t-4.5 -30.5t-7 -34.5t-9.5 -33t-12 -24.5
t-14.5 -9.5q-7 0 -15.5 2t-19 5t-24.5 5.5t-32 2.5q-33 0 -56 -9t-39.5 -28.5t-28 -50.5t-19.5 -73l-15 -79h506q38 0 53.5 -16.5t9.5 -52.5l-171 -857q-2 -10 -9.5 -17.5t-23 -12.5t-40.5 -7.5t-62 -2.5t-60.5 2.5t-36.5 7.5t-17 12.5t-2 17.5l144 722h-332l-152 -756
q-17 -86 -47 -151.5t-75.5 -110t-107.5 -67.5t-142 -23q-59 0 -99.5 8t-51.5 20q-10 9 -10 31q0 7 1.5 22t4.5 32.5t7 36t10 33.5t13 24.5t16 9.5q8 0 16 -2t18.5 -5t23.5 -5t30 -2q32 0 55.5 9t40.5 28.5t29 50.5t21 74l148 743h-332z" />
    <glyph glyph-name="f_j.liga" unicode="fj" horiz-adv-x="1135" 
d="M916 4q-18 -88 -45.5 -154.5t-70.5 -111.5t-103.5 -67.5t-143.5 -22.5q-31 0 -57.5 3t-46 7.5t-32 10t-16.5 9.5q-5 5 -7.5 12.5t-2.5 19.5q0 7 1.5 21.5t4.5 31.5t7.5 35t10.5 32.5t13 24t16 9.5q8 0 15.5 -2.5t17.5 -5t23.5 -5t33.5 -2.5q24 0 44 8t36.5 26t29 47.5
t21.5 73.5l150 752h-332l-157 -784q-17 -83 -46.5 -146t-74.5 -105.5t-106.5 -64t-139.5 -21.5q-54 0 -88.5 8t-43.5 16q-9 10 -9 31q0 7 1.5 22t4.5 32t7.5 35.5t10.5 33.5t13 24.5t16 9.5q7 0 13.5 -1.5t13.5 -3t16.5 -2.5t24.5 -1q31 0 54 9.5t40 29.5t28.5 51t20.5 75
l151 752h-112q-12 0 -18.5 8.5t-6.5 32.5q0 10 1.5 26t5 34t8.5 36.5t13 33t17.5 24t22.5 9.5h110l18 94q17 85 47.5 150t75.5 109t106 66.5t139 22.5q27 0 51 -2.5t43.5 -7t33 -9.5t18.5 -11q5 -5 7.5 -13.5t2.5 -20.5q0 -6 -1.5 -20t-4.5 -31t-7 -35t-9.5 -33t-12.5 -24.5
t-15 -9.5q-7 0 -14.5 2.5t-18 5t-24 5t-31.5 2.5q-31 0 -53 -8.5t-38 -28t-27.5 -50.5t-19.5 -74l-15 -79h505q38 0 53.5 -17t9.5 -52zM1180 1226q-8 -37 -19.5 -62.5t-30.5 -41t-48.5 -22t-71.5 -6.5t-68.5 6.5t-39 22t-14 41t5.5 62.5q7 36 18.5 61t31 41t48.5 23t71 7
q43 0 68.5 -7t39 -23t15 -41t-5.5 -61z" />
    <glyph glyph-name="f_jcircumflex.liga" unicode="f&#x135;" horiz-adv-x="1135" 
d="M945 1112q-8 -12 -16 -19t-20.5 -10.5t-31 -4.5t-47.5 -1q-33 0 -52 3t-25 11t1 23t25 38l174 214q7 10 17.5 16t25.5 9.5t37.5 5t53.5 1.5q32 0 53 -2t35 -6t22 -10t13 -14l93 -223q8 -20 10 -33t-5.5 -20.5t-27 -10t-54.5 -2.5q-32 0 -51.5 1t-30 4.5t-15 10.5t-7.5 19
l-59 149zM525 960h505q38 0 53.5 -17t9.5 -52l-178 -887q-18 -87 -45.5 -153.5t-70 -111.5t-103 -68t-143.5 -23q-31 0 -57 3t-45 7.5t-31 10t-17 9.5q-4 5 -6.5 12.5t-2.5 19.5q0 7 1.5 21.5t4.5 32t7.5 36t10.5 33.5t13.5 25t16.5 10q8 0 15 -2.5t16.5 -5.5t22.5 -5t33 -2
q24 0 44 8t36 26.5t28.5 48t21.5 73.5l150 747h-332l-157 -784q-17 -83 -46.5 -146t-74.5 -105.5t-106.5 -64t-139.5 -21.5q-54 0 -88.5 8t-43.5 16q-9 10 -9 31q0 7 1.5 22t4.5 32t7.5 35.5t10.5 33.5t13 24.5t16 9.5q7 0 13.5 -1.5t13.5 -3t16.5 -2.5t24.5 -1q31 0 54 9.5
t40 29.5t28.5 51t20.5 75l151 752h-112q-12 0 -18.5 8.5t-6.5 32.5q0 10 1.5 26t5 34t8.5 36.5t13 33t17.5 24t22.5 9.5h110l19 97q17 85 46.5 149t73.5 107.5t102.5 65t133.5 21.5q23 0 44.5 -2t39.5 -6t30 -8.5t17 -9.5q6 -6 8.5 -15t2.5 -21q0 -6 -1.5 -19.5t-4 -30
t-7 -33.5t-10 -31.5t-12.5 -24t-14 -9.5t-13 2t-14.5 4.5t-19.5 4.5t-25 2q-28 0 -49 -9.5t-36.5 -29t-26 -50t-18.5 -73.5z" />
    <glyph glyph-name="f_f_j.liga" unicode="ffj" horiz-adv-x="1719" 
d="M1499 4q-18 -87 -45.5 -153.5t-70.5 -111.5t-104 -68t-144 -23q-31 0 -57 3t-45.5 7.5t-32 10t-16.5 9.5q-5 5 -8 12.5t-3 19.5q0 7 2 21.5t5 31.5t7.5 35t11 32.5t13.5 24t16 9.5t16.5 -2.5t17 -5t22.5 -5t33 -2.5q24 0 44.5 8t36.5 26t28.5 47.5t21.5 73.5l150 752
h-332l-154 -770q-17 -86 -47.5 -151.5t-76 -110t-107 -67t-141.5 -22.5q-59 0 -100 8t-52 20q-10 8 -10 30q0 12 3.5 38t10 52.5t16 47t22.5 20.5q8 0 16.5 -2t19 -5t23.5 -5t29 -2q33 0 56 9t40 28.5t29 50.5t21 74l151 757h-332l-157 -784q-17 -83 -46.5 -146
t-74.5 -105.5t-106.5 -64t-139.5 -21.5q-52 0 -87 8t-45 16q-5 6 -7 13t-2 20q0 6 1.5 20t4.5 30.5t7.5 34.5t10 33t12.5 24.5t16 9.5q6 0 12 -1t13 -2.5t16.5 -2.5t24.5 -1q32 0 55.5 9.5t40.5 29.5t29 51.5t21 76.5l151 752h-112q-12 0 -18.5 8.5t-6.5 32.5q0 10 1.5 26
t5 34t8.5 36.5t13 33t17.5 24t22.5 9.5h110l17 86q17 85 47.5 149t76.5 107t107 65t140 22q26 0 51.5 -2.5t47 -7t37 -10.5t21.5 -12q6 -5 8.5 -14t2.5 -22q0 -6 -1.5 -19.5t-4 -31t-6.5 -35.5t-9.5 -33t-12.5 -24.5t-15 -9.5q-6 0 -15.5 3t-21.5 6.5t-27.5 6.5t-33.5 3
q-32 0 -55.5 -9t-40.5 -28.5t-29 -50.5t-20 -74l-13 -65h332l19 97q17 85 47 149.5t75 108t106 65.5t140 22q27 0 51 -2.5t43 -7t32.5 -9.5t19.5 -11q5 -5 7 -13.5t2 -20.5q0 -6 -1.5 -20t-4 -30.5t-6.5 -34.5t-9.5 -33t-12.5 -24.5t-14 -9.5t-15.5 2t-19 5t-24 5t-31.5 2
q-31 0 -53 -9t-38.5 -28.5t-28 -50.5t-19.5 -73l-15 -79h506q38 0 53.5 -16.5t9.5 -52.5zM1763 1226q-8 -37 -19.5 -62.5t-31 -41t-48.5 -22t-71 -6.5t-68.5 6.5t-39.5 22t-14.5 41t5.5 62.5q8 36 19.5 61t31 41t48.5 23t72 7q42 0 68 -7t39 -23t14.5 -41t-5.5 -61z" />
    <glyph glyph-name="f_k.liga" unicode="fk" horiz-adv-x="1613" 
d="M1645 930q0 -16 -13 -37.5t-45 -54.5l-315 -297l205 -430q10 -24 14.5 -42t4.5 -28q0 -13 -6.5 -21.5t-22 -14.5t-42 -8.5t-66.5 -2.5t-64.5 2t-38 6.5t-20 12.5t-9.5 21l-211 470l-94 -472q-2 -10 -9.5 -17.5t-23 -12.5t-40.5 -7.5t-62 -2.5q-36 0 -59.5 2.5t-36.5 7.5
t-17.5 12.5t-2.5 17.5l231 1158q-3 -5 -9 -9t-15 -4q-7 0 -19 3t-30 6.5t-43 6.5t-59 3q-47 0 -79 -9t-53 -28.5t-34 -50.5t-21 -74l-15 -76h148q13 0 19.5 -9.5t6.5 -30.5q0 -10 -1.5 -26t-5.5 -34.5t-9.5 -36.5t-13 -33t-17 -24.5t-20.5 -9.5h-149l-157 -784
q-17 -83 -46.5 -146t-74.5 -105.5t-106.5 -64t-139.5 -21.5q-52 0 -87 8t-45 16q-5 6 -7 13t-2 20q0 6 1.5 20t4.5 30.5t7.5 34.5t10 33t12.5 24.5t16 9.5q6 0 12 -1t13 -2.5t16.5 -2.5t24.5 -1q32 0 55.5 9.5t40.5 29.5t29 51.5t21 76.5l151 752h-112q-12 0 -18.5 8.5
t-6.5 32.5q0 10 1.5 26t5 34t8.5 36.5t13 33t17.5 24t22.5 9.5h110l19 98q16 85 48 149t82.5 107t122.5 64.5t170 21.5q26 0 59.5 -2.5t64 -7t54.5 -11t31 -12.5q4 -5 6 -8t4 -9q2 9 9 16.5t22 13t39.5 9t62.5 3.5q37 0 60.5 -3t36.5 -8.5t17.5 -13.5t2.5 -18l-157 -783
l334 357q10 12 22 20.5t30 13.5t43.5 7t63.5 2t62 -2t38 -6.5t19 -11.5t5 -16z" />
    <glyph glyph-name="f_f_k.liga" unicode="ffk" horiz-adv-x="2197" 
d="M2229 930q0 -16 -13 -37.5t-44 -54.5l-316 -297l205 -430q10 -24 14.5 -42t4.5 -28q0 -12 -6.5 -21t-22 -15t-42 -8.5t-66.5 -2.5t-64.5 2.5t-38 7.5t-20 13t-10.5 19l-210 470l-95 -472q-2 -10 -9.5 -17.5t-23 -12.5t-40.5 -7.5t-62 -2.5t-60.5 2.5t-36.5 7.5t-17 12.5
t-2 17.5l233 1161q-3 -5 -9.5 -9t-15.5 -4q-8 0 -19.5 2.5t-30 6.5t-43.5 6.5t-59 2.5q-47 0 -79 -8.5t-53 -28t-33.5 -50.5t-21.5 -74l-15 -79h148q14 0 20.5 -9.5t6.5 -30.5q0 -10 -1.5 -26t-5.5 -34.5t-10 -36.5t-13.5 -33t-17 -24.5t-19.5 -9.5h-149l-152 -756
q-17 -86 -47 -151.5t-75.5 -110t-107.5 -67.5t-142 -23q-59 0 -99.5 8t-51.5 20q-10 9 -10 31q0 7 1.5 22t4 32.5t7 36t10 33.5t13 24.5t16.5 9.5q8 0 16 -2t18.5 -5t23.5 -5t30 -2q32 0 55.5 9t40.5 28.5t29 50.5t21 74l148 743h-333l-157 -784q-17 -83 -46.5 -146
t-74.5 -105.5t-106.5 -64t-139.5 -21.5q-52 0 -87 8t-45 16q-5 6 -7 13t-2 20q0 6 1.5 20t4.5 30.5t7.5 34.5t10 33t12.5 24.5t16 9.5q6 0 12 -1t13 -2.5t16.5 -2.5t24.5 -1q32 0 55.5 9t40.5 29t29 52t21 77l151 752h-112q-12 0 -18.5 8.5t-6.5 32.5q0 10 1.5 26t5 34
t8.5 36.5t13 33t17.5 24t22.5 9.5h110l17 86q17 85 47.5 149t76.5 107t107 65t140 22q26 0 51.5 -2.5t47 -7t37 -10.5t21.5 -12q6 -5 8.5 -14t2.5 -22q0 -6 -1.5 -19.5t-4 -31t-6.5 -35.5t-9.5 -33t-12.5 -24.5t-15 -9.5q-6 0 -15.5 3t-21.5 6.5t-27.5 6.5t-33.5 3
q-32 0 -55.5 -9t-40.5 -28.5t-29 -50.5t-20 -74l-13 -65h333l19 98q17 85 47.5 149.5t80.5 107.5t122 65t171 22q27 0 60.5 -2.5t64.5 -7t54.5 -11t31.5 -13.5q3 -3 5 -7.5t4 -10.5q2 9 9 16.5t22.5 13t40 9t62.5 3.5q37 0 60.5 -3t36.5 -8.5t17 -13.5t2 -18l-156 -783
l333 357q9 11 21 19.5t30.5 13.5t44.5 7.5t63 2.5q38 0 62.5 -2.5t38.5 -7t19 -11t5 -15.5z" />
    <glyph glyph-name="f_lacute.liga" unicode="f&#x13a;" horiz-adv-x="1135" 
d="M922 36q-4 -21 -33.5 -31.5t-92.5 -10.5q-39 0 -64 3t-39 8t-19 13t-3 18l231 1156q-3 -5 -9 -9t-15 -4q-7 0 -19 3t-30 6.5t-43 6.5t-59 3q-47 0 -79 -9t-53 -28.5t-34 -50.5t-21 -74l-15 -76h148q13 0 19.5 -9.5t6.5 -30.5q0 -10 -1.5 -26t-5.5 -34.5t-9.5 -36.5
t-13 -33t-17 -24.5t-20.5 -9.5h-149l-157 -784q-17 -83 -46.5 -146t-74.5 -105.5t-106.5 -64t-139.5 -21.5q-52 0 -87 8t-45 16q-5 6 -7 13t-2 20q0 6 1.5 20t4.5 30.5t7.5 34.5t10 33t12.5 24.5t16 9.5q6 0 12 -1t13 -2.5t16.5 -2.5t24.5 -1q32 0 55.5 9.5t40.5 29.5
t29 51.5t21 76.5l151 752h-112q-12 0 -18.5 8.5t-6.5 32.5q0 10 1.5 26t5 34t8.5 36.5t13 33t17.5 24t22.5 9.5h110l19 98q16 85 48 149t82.5 107t122.5 64.5t170 21.5q26 0 59.5 -2.5t64 -7t54.5 -11t31 -12.5q4 -5 6 -8t4 -9q2 9 9 16.5t22 13t39.5 9t62.5 3.5q36 0 60 -3
t37 -8.5t17.5 -13.5t2.5 -18zM1211 1489q-11 -9 -21.5 -15.5t-25 -10.5t-36 -6.5t-52.5 -2.5q-68 0 -83.5 13t10.5 40l189 204q13 14 26 23t31 14t43 7t61 2q47 0 72 -6t34 -15.5t3.5 -21.5t-20.5 -25zM675 1362z" />
    <glyph glyph-name="f_lcaron.liga" unicode="f&#x13e;" horiz-adv-x="1258" 
d="M922 36q-4 -21 -33.5 -31.5t-92.5 -10.5q-39 0 -64 3t-39 8t-19 13t-3 18l231 1156q-3 -5 -9 -9t-15 -4q-7 0 -19 3t-30 6.5t-43 6.5t-59 3q-47 0 -79 -9t-53 -28.5t-34 -50.5t-21 -74l-15 -76h148q13 0 19.5 -9.5t6.5 -30.5q0 -10 -1.5 -26t-5.5 -34.5t-9.5 -36.5
t-13 -33t-17 -24.5t-20.5 -9.5h-149l-157 -784q-17 -83 -46.5 -146t-74.5 -105.5t-106.5 -64t-139.5 -21.5q-52 0 -87 8t-45 16q-5 6 -7 13t-2 20q0 6 1.5 20t4.5 30.5t7.5 34.5t10 33t12.5 24.5t16 9.5q6 0 12 -1t13 -2.5t16.5 -2.5t24.5 -1q32 0 55.5 9.5t40.5 29.5
t29 51.5t21 76.5l151 752h-112q-12 0 -18.5 8.5t-6.5 32.5q0 10 1.5 26t5 34t8.5 36.5t13 33t17.5 24t22.5 9.5h110l19 98q16 85 48 149t82.5 107t122.5 64.5t170 21.5q26 0 59.5 -2.5t64 -7t54.5 -11t31 -12.5q4 -5 6 -8t4 -9q2 9 9 16.5t22 13t39.5 9t62.5 3.5q36 0 60 -3
t37 -8.5t17.5 -13.5t2.5 -18zM1355 1038q-6 -11 -14 -17.5t-21 -10t-32 -5t-48 -1.5q-23 0 -36 2.5t-19 7.5t-6 14t4 22l116 305q4 12 12.5 20.5t23 14.5t37.5 9t56 3q36 0 57 -3.5t30 -9.5t8.5 -15.5t-7.5 -21.5zM955 988z" />
    <glyph glyph-name="f_uni013C.liga" unicode="f&#x13c;" horiz-adv-x="1135" 
d="M922 36q-4 -21 -33.5 -31.5t-92.5 -10.5q-39 0 -64 3t-39 8t-19 13t-3 18l231 1156q-3 -5 -9 -9t-15 -4q-7 0 -19 3t-30 6.5t-43 6.5t-59 3q-47 0 -79 -9t-53 -28.5t-34 -50.5t-21 -74l-15 -76h148q13 0 19.5 -9.5t6.5 -30.5q0 -10 -1.5 -26t-5.5 -34.5t-9.5 -36.5
t-13 -33t-17 -24.5t-20.5 -9.5h-149l-157 -784q-17 -83 -46.5 -146t-74.5 -105.5t-106.5 -64t-139.5 -21.5q-52 0 -87 8t-45 16q-5 6 -7 13t-2 20q0 6 1.5 20t4.5 30.5t7.5 34.5t10 33t12.5 24.5t16 9.5q6 0 12 -1t13 -2.5t16.5 -2.5t24.5 -1q32 0 55.5 9.5t40.5 29.5
t29 51.5t21 76.5l151 752h-112q-12 0 -18.5 8.5t-6.5 32.5q0 10 1.5 26t5 34t8.5 36.5t13 33t17.5 24t22.5 9.5h110l19 98q16 85 48 149t82.5 107t122.5 64.5t170 21.5q26 0 59.5 -2.5t64 -7t54.5 -11t31 -12.5q4 -5 6 -8t4 -9q2 9 9 16.5t22 13t39.5 9t62.5 3.5q36 0 60 -3
t37 -8.5t17.5 -13.5t2.5 -18zM745 -330q-7 -10 -14.5 -16.5t-20.5 -11t-34 -6t-53 -1.5q-31 0 -49 2.5t-25.5 9t-7 16.5t7.5 24l88 190q5 11 14 19.5t25 13.5t42.5 7t66.5 2t62.5 -4t31.5 -11.5t7 -18.5t-12 -25z" />
    <glyph glyph-name="f_t.liga" unicode="ft" horiz-adv-x="1293" 
d="M1324 917q0 -10 -1.5 -25.5t-5.5 -33.5t-10 -36t-13 -32.5t-16.5 -24t-21.5 -9.5h-195l-84 -419q-2 -15 -4.5 -35.5t-2.5 -33.5q0 -40 19 -58.5t60 -18.5q24 0 40.5 3.5t29.5 8t22 8t17 3.5t13.5 -7.5t5.5 -24.5q0 -19 -4 -43t-10.5 -46.5t-14.5 -41t-17 -27.5t-27.5 -17
t-43 -14t-52 -9.5t-56.5 -3.5q-60 0 -105.5 12.5t-76.5 39.5t-46 69t-15 102q0 11 1 25.5t3 30.5t4.5 32.5t5.5 29.5l87 435h-327l-157 -784q-17 -83 -46.5 -146t-74.5 -105.5t-106.5 -64t-139.5 -21.5q-52 0 -87 8t-45 16q-5 6 -7 13t-2 20q0 6 1.5 20t4.5 30.5t7.5 34.5
t10 33t12.5 24.5t16 9.5q6 0 12 -1t13 -2.5t16.5 -2.5t24.5 -1q32 0 55.5 9.5t40.5 29.5t29 51.5t21 76.5l151 752h-112q-12 0 -18.5 8.5t-6.5 32.5q0 10 1.5 26t5 34t8.5 36.5t13 33t17.5 24t22.5 9.5h110l19 99q16 84 47 148t76.5 107t107 64.5t139.5 21.5q26 0 50.5 -2.5
t44.5 -6.5t34.5 -10t20.5 -12q5 -5 8 -13.5t3 -22.5q0 -6 -1.5 -19.5t-4.5 -30.5t-7 -35t-9.5 -33.5t-12.5 -25t-14 -9.5t-15 2.5t-19.5 6t-26 6.5t-33.5 3q-31 0 -54.5 -9t-40 -28.5t-28.5 -50.5t-20 -74l-14 -76h328l40 199q2 10 9.5 18t22.5 13.5t40 8t61 2.5
q37 0 60.5 -2.5t37 -8t18 -13.5t2.5 -18l-40 -199h193q16 0 22 -11t6 -32z" />
    <glyph glyph-name="f_uni0163.liga" unicode="f&#x163;" horiz-adv-x="1293" 
d="M1324 917q0 -10 -1.5 -25.5t-5.5 -33.5t-10 -36t-13 -32.5t-16.5 -24t-21.5 -9.5h-195l-84 -419q-2 -15 -4.5 -35.5t-2.5 -33.5q0 -40 19 -58.5t60 -18.5q24 0 40.5 3.5t29.5 8t22 8t17 3.5t13.5 -7.5t5.5 -24.5q0 -19 -4 -43t-10.5 -46.5t-14.5 -41t-17 -27.5t-27.5 -17
t-43 -14t-52 -9.5t-56.5 -3.5q-60 0 -105.5 12.5t-76.5 39.5t-46 69t-15 102q0 11 1 25.5t3 30.5t4.5 32.5t5.5 29.5l87 435h-327l-157 -784q-17 -83 -46.5 -146t-74.5 -105.5t-106.5 -64t-139.5 -21.5q-52 0 -87 8t-45 16q-5 6 -7 13t-2 20q0 6 1.5 20t4.5 30.5t7.5 34.5
t10 33t12.5 24.5t16 9.5q6 0 12 -1t13 -2.5t16.5 -2.5t24.5 -1q32 0 55.5 9.5t40.5 29.5t29 51.5t21 76.5l151 752h-112q-12 0 -18.5 8.5t-6.5 32.5q0 10 1.5 26t5 34t8.5 36.5t13 33t17.5 24t22.5 9.5h110l19 99q16 84 47 148t76.5 107t107 64.5t139.5 21.5q26 0 50.5 -2.5
t44.5 -6.5t34.5 -10t20.5 -12q5 -5 8 -13.5t3 -22.5q0 -6 -1.5 -19.5t-4.5 -30.5t-7 -35t-9.5 -33.5t-12.5 -25t-14 -9.5t-15 2.5t-19.5 6t-26 6.5t-33.5 3q-31 0 -54.5 -9t-40 -28.5t-28.5 -50.5t-20 -74l-14 -76h328l40 199q2 10 9.5 18t22.5 13.5t40 8t61 2.5
q37 0 60.5 -2.5t37 -8t18 -13.5t2.5 -18l-40 -199h193q16 0 22 -11t6 -32zM843 -330q-7 -10 -14.5 -16.5t-20.5 -11t-34 -6t-53 -1.5q-31 0 -49 2.5t-25.5 9t-7 16.5t7.5 24l88 190q5 11 14 19.5t25 13.5t42.5 7t66.5 2t62.5 -4t31.5 -11.5t7 -18.5t-12 -25z" />
    <glyph glyph-name="f_tcaron.liga" unicode="f&#x165;" horiz-adv-x="1340" 
d="M1324 917q0 -10 -1.5 -25.5t-5.5 -33.5t-10 -36t-13 -32.5t-16.5 -24t-21.5 -9.5h-195l-84 -419q-2 -15 -4.5 -35.5t-2.5 -33.5q0 -40 19 -58.5t60 -18.5q24 0 40.5 3.5t29.5 8t22 8t17 3.5t13.5 -7.5t5.5 -24.5q0 -19 -4 -43t-10.5 -46.5t-14.5 -41t-17 -27.5t-27.5 -17
t-43 -14t-52 -9.5t-56.5 -3.5q-60 0 -105.5 12.5t-76.5 39.5t-46 69t-15 102q0 11 1 25.5t3 30.5t4.5 32.5t5.5 29.5l87 435h-327l-157 -784q-17 -83 -46.5 -146t-74.5 -105.5t-106.5 -64t-139.5 -21.5q-52 0 -87 8t-45 16q-5 6 -7 13t-2 20q0 6 1.5 20t4.5 30.5t7.5 34.5
t10 33t12.5 24.5t16 9.5q6 0 12 -1t13 -2.5t16.5 -2.5t24.5 -1q32 0 55.5 9.5t40.5 29.5t29 51.5t21 76.5l151 752h-112q-12 0 -18.5 8.5t-6.5 32.5q0 10 1.5 26t5 34t8.5 36.5t13 33t17.5 24t22.5 9.5h110l19 99q16 84 47 148t76.5 107t107 64.5t139.5 21.5q26 0 50.5 -2.5
t44.5 -6.5t34.5 -10t20.5 -12q5 -5 8 -13.5t3 -22.5q0 -6 -1.5 -19.5t-4.5 -30.5t-7 -35t-9.5 -33.5t-12.5 -25t-14 -9.5t-15 2.5t-19.5 6t-26 6.5t-33.5 3q-31 0 -54.5 -9t-40 -28.5t-28.5 -50.5t-20 -74l-14 -76h328l40 199q2 10 9.5 18t22.5 13.5t40 8t61 2.5
q37 0 60.5 -2.5t37 -8t18 -13.5t2.5 -18l-40 -199h193q16 0 22 -11t6 -32zM1404 1158q-6 -11 -14 -17.5t-21 -10t-32 -5t-48 -1.5q-23 0 -36 2.5t-19 7.5t-6 14t4 22l116 305q4 12 12.5 20.5t23 14.5t37.5 9t56 3q36 0 57 -3.5t30 -9.5t8.5 -15.5t-7.5 -21.5zM1004 1108z
" />
    <glyph glyph-name="t_f.liga" unicode="tf" horiz-adv-x="1296" 
d="M1481 1332q0 -6 -1.5 -19.5t-4.5 -30.5t-7 -35t-9.5 -33.5t-12 -25t-14.5 -9.5q-6 0 -15.5 3t-22 6.5t-28 6.5t-33.5 3q-32 0 -55.5 -9t-40.5 -28.5t-29 -50.5t-20 -74l-15 -76h163q14 0 20.5 -9.5t6.5 -30.5q0 -10 -1.5 -26t-5.5 -34.5t-10 -36.5t-13.5 -33t-17 -24.5
t-20.5 -9.5h-163l-154 -770q-17 -86 -47.5 -151.5t-76 -110t-107.5 -67t-142 -22.5q-58 0 -99 8t-53 20q-9 9 -9 30q0 12 3.5 38t9.5 52.5t16 47t23 20.5q8 0 16 -2t18.5 -5t24 -5t29.5 -2q33 0 56 9t40 28.5t29 50.5t21 74l151 757h-403l-84 -419q-3 -15 -5.5 -35.5
t-2.5 -33.5q0 -40 19 -58.5t60 -18.5q24 0 41 3.5t29.5 8t21.5 8t17 3.5t13.5 -7.5t5.5 -24.5q0 -19 -4 -43t-10.5 -46.5t-14.5 -41t-17 -27.5t-27 -17t-42.5 -14t-52.5 -9.5t-56 -3.5q-60 0 -105.5 12.5t-76.5 39.5t-46.5 69t-15.5 102q0 11 1 25.5t3.5 30.5t5 32.5
t5.5 29.5l87 435h-108q-13 0 -19 8.5t-6 32.5q0 17 3.5 44.5t11.5 54t21 45.5t31 19h107l40 199q2 10 9.5 18t23 13.5t40 8t61.5 2.5q36 0 60 -2.5t37 -8t17.5 -13.5t2.5 -18l-40 -199h403l20 97q17 85 47.5 149t76 107.5t107 65t140.5 21.5q26 0 51 -2.5t46.5 -7t37 -10.5
t21.5 -12q6 -5 9 -14t3 -22z" />
    <glyph glyph-name="t_i.liga" unicode="ti" horiz-adv-x="1199" 
d="M986 34q-2 -10 -9.5 -17.5t-23 -12.5t-40 -7.5t-61.5 -2.5q-36 0 -60 2.5t-37.5 7.5t-18 12.5t-1.5 17.5l144 722h-401l-84 -419q-3 -15 -5.5 -35.5t-2.5 -33.5q0 -40 19 -58.5t60 -18.5q24 0 41 3.5t29.5 8t21.5 8t17 3.5t13.5 -7.5t5.5 -24.5q0 -19 -4 -43t-10.5 -46.5
t-14.5 -41t-17 -27.5t-27 -17t-42.5 -14t-52.5 -9.5t-56 -3.5q-60 0 -105.5 12.5t-76.5 39.5t-46.5 69t-15.5 102q0 11 1 25.5t3.5 30.5t5 32.5t5.5 29.5l87 435h-108q-13 0 -19 8.5t-6 32.5q0 17 3.5 44.5t11.5 54t21 45.5t31 19h107l40 199q2 10 9.5 18t23 13.5t40 8
t61.5 2.5q36 0 60 -2.5t37.5 -8t17.5 -13.5t2 -18l-40 -199h577q42 0 55 -18t6 -52zM1243 1226q-7 -37 -19 -62.5t-31.5 -41t-49 -22t-71.5 -6.5t-68.5 6.5t-40 22t-15.5 41t5 62.5q8 36 19.5 61t31.5 41t49 23t72 7q42 0 68.5 -7t40 -23t15 -41t-5.5 -61z" />
    <glyph glyph-name="t_igrave.liga" unicode="t&#xec;" horiz-adv-x="1199" 
d="M986 34q-2 -10 -9.5 -17.5t-23 -12.5t-40 -7.5t-61.5 -2.5q-36 0 -60 2.5t-37.5 7.5t-18 12.5t-1.5 17.5l144 722h-401l-84 -419q-3 -15 -5.5 -35.5t-2.5 -33.5q0 -40 19 -58.5t60 -18.5q24 0 41 3.5t29.5 8t21.5 8t17 3.5t13.5 -7.5t5.5 -24.5q0 -19 -4 -43t-10.5 -46.5
t-14.5 -41t-17 -27.5t-27 -17t-42.5 -14t-52.5 -9.5t-56 -3.5q-60 0 -105.5 12.5t-76.5 39.5t-46.5 69t-15.5 102q0 11 1 25.5t3.5 30.5t5 32.5t5.5 29.5l87 435h-108q-13 0 -19 8.5t-6 32.5q0 17 3.5 44.5t11.5 54t21 45.5t31 19h107l40 199q2 10 9.5 18t23 13.5t40 8
t61.5 2.5q36 0 60 -2.5t37.5 -8t17.5 -13.5t2 -18l-40 -199h577q42 0 55 -18t6 -52zM1171 1135q8 -13 9.5 -23t-7 -16.5t-28.5 -9.5t-55 -3q-29 0 -48 1.5t-31.5 6t-21 11t-16.5 16.5l-183 232q-9 11 -9.5 21t11.5 17.5t39 11.5t73 4q34 0 56 -1.5t37 -6.5t24 -12.5
t16 -19.5zM517 960z" />
    <glyph glyph-name="t_iacute.liga" unicode="t&#xed;" horiz-adv-x="1199" 
d="M986 34q-2 -10 -9.5 -17.5t-23 -12.5t-40 -7.5t-61.5 -2.5q-36 0 -60 2.5t-37.5 7.5t-18 12.5t-1.5 17.5l144 722h-401l-84 -419q-3 -15 -5.5 -35.5t-2.5 -33.5q0 -40 19 -58.5t60 -18.5q24 0 41 3.5t29.5 8t21.5 8t17 3.5t13.5 -7.5t5.5 -24.5q0 -19 -4 -43t-10.5 -46.5
t-14.5 -41t-17 -27.5t-27 -17t-42.5 -14t-52.5 -9.5t-56 -3.5q-60 0 -105.5 12.5t-76.5 39.5t-46.5 69t-15.5 102q0 11 1 25.5t3.5 30.5t5 32.5t5.5 29.5l87 435h-108q-13 0 -19 8.5t-6 32.5q0 17 3.5 44.5t11.5 54t21 45.5t31 19h107l40 199q2 10 9.5 18t23 13.5t40 8
t61.5 2.5q36 0 60 -2.5t37.5 -8t17.5 -13.5t2 -18l-40 -199h577q42 0 55 -18t6 -52zM1161 1118q-8 -10 -16 -16.5t-21 -10.5t-32 -6t-48 -2q-35 0 -55 3t-28 9.5t-5.5 16.5t11.5 23l152 229q8 11 18 19t25.5 12.5t38.5 6.5t56 2q46 0 72 -4.5t37.5 -12t9.5 -17t-11 -20.5z
M702 960z" />
    <glyph glyph-name="t_icircumflex.liga" unicode="t&#xee;" horiz-adv-x="1199" 
d="M986 34q-2 -10 -9.5 -17.5t-23 -12.5t-40 -7.5t-61.5 -2.5q-36 0 -60 2.5t-37.5 7.5t-18 12.5t-1.5 17.5l144 722h-401l-84 -419q-3 -15 -5.5 -35.5t-2.5 -33.5q0 -40 19 -58.5t60 -18.5q24 0 41 3.5t29.5 8t21.5 8t17 3.5t13.5 -7.5t5.5 -24.5q0 -19 -4 -43t-10.5 -46.5
t-14.5 -41t-17 -27.5t-27 -17t-42.5 -14t-52.5 -9.5t-56 -3.5q-60 0 -105.5 12.5t-76.5 39.5t-46.5 69t-15.5 102q0 11 1 25.5t3.5 30.5t5 32.5t5.5 29.5l87 435h-108q-13 0 -19 8.5t-6 32.5q0 17 3.5 44.5t11.5 54t21 45.5t31 19h107l40 199q2 10 9.5 18t23 13.5t40 8
t61.5 2.5q36 0 60 -2.5t37.5 -8t17.5 -13.5t2 -18l-40 -199h577q42 0 55 -18t6 -52zM1355 1149q10 -19 13 -31.5t-5.5 -20t-29.5 -11t-60 -3.5q-32 0 -50 1.5t-28 5.5t-14.5 10.5t-9.5 17.5l-74 150l-134 -150q-9 -11 -18 -18t-22 -10.5t-33 -5t-49 -1.5q-40 0 -61 3.5
t-26.5 11t1.5 20.5t25 31l202 223q8 10 19 15.5t27 9.5t38.5 5.5t53.5 1.5q32 0 53 -2t35 -6t22 -10t13 -14zM520 960z" />
    <glyph glyph-name="t_idieresis.liga" unicode="t&#xef;" horiz-adv-x="1199" 
d="M986 34q-2 -10 -9.5 -17.5t-23 -12.5t-40 -7.5t-61.5 -2.5q-36 0 -60 2.5t-37.5 7.5t-18 12.5t-1.5 17.5l144 722h-401l-84 -419q-3 -15 -5.5 -35.5t-2.5 -33.5q0 -40 19 -58.5t60 -18.5q24 0 41 3.5t29.5 8t21.5 8t17 3.5t13.5 -7.5t5.5 -24.5q0 -19 -4 -43t-10.5 -46.5
t-14.5 -41t-17 -27.5t-27 -17t-42.5 -14t-52.5 -9.5t-56 -3.5q-60 0 -105.5 12.5t-76.5 39.5t-46.5 69t-15.5 102q0 11 1 25.5t3.5 30.5t5 32.5t5.5 29.5l87 435h-108q-13 0 -19 8.5t-6 32.5q0 17 3.5 44.5t11.5 54t21 45.5t31 19h107l40 199q2 10 9.5 18t23 13.5t40 8
t61.5 2.5q36 0 60 -2.5t37.5 -8t17.5 -13.5t2 -18l-40 -199h577q42 0 55 -18t6 -52zM802 1225q7 37 18.5 61t29.5 38t42 19t57 5t54.5 -5t33 -19t13 -38t-6.5 -61q-7 -37 -18 -61t-28 -38t-41 -19t-56 -5q-34 0 -56 5t-34 19t-14 38t6 61zM1138 1225q7 37 19 61t29.5 38
t42 19t56.5 5q33 0 55 -5t33 -19t12.5 -38t-5.5 -61q-8 -37 -19 -61t-28.5 -38t-41 -19t-56.5 -5t-55 5t-34 19t-14 38t6 61zM548 960z" />
    <glyph glyph-name="t_imacron.liga" unicode="t&#x12b;" horiz-adv-x="1199" 
d="M986 34q-2 -10 -9.5 -17.5t-23 -12.5t-40 -7.5t-61.5 -2.5q-36 0 -60 2.5t-37.5 7.5t-18 12.5t-1.5 17.5l144 722h-401l-84 -419q-3 -15 -5.5 -35.5t-2.5 -33.5q0 -40 19 -58.5t60 -18.5q24 0 41 3.5t29.5 8t21.5 8t17 3.5t13.5 -7.5t5.5 -24.5q0 -19 -4 -43t-10.5 -46.5
t-14.5 -41t-17 -27.5t-27 -17t-42.5 -14t-52.5 -9.5t-56 -3.5q-60 0 -105.5 12.5t-76.5 39.5t-46.5 69t-15.5 102q0 11 1 25.5t3.5 30.5t5 32.5t5.5 29.5l87 435h-108q-13 0 -19 8.5t-6 32.5q0 17 3.5 44.5t11.5 54t21 45.5t31 19h107l40 199q2 10 9.5 18t23 13.5t40 8
t61.5 2.5q36 0 60 -2.5t37.5 -8t17.5 -13.5t2 -18l-40 -199h577q42 0 55 -18t6 -52zM1394 1284q0 -7 -1.5 -20t-4.5 -28.5t-7.5 -32.5t-12 -31t-17 -23t-22.5 -9h-511q-17 0 -25 9t-8 30q0 10 3 33.5t10.5 48.5t21 43.5t35.5 18.5h511q16 0 22 -10.5t6 -28.5zM537 960z" />
    <glyph glyph-name="t_itilde.liga" unicode="t&#x129;" horiz-adv-x="1199" 
d="M986 34q-2 -10 -9.5 -17.5t-23 -12.5t-40 -7.5t-61.5 -2.5q-36 0 -60 2.5t-37.5 7.5t-18 12.5t-1.5 17.5l144 722h-401l-84 -419q-3 -15 -5.5 -35.5t-2.5 -33.5q0 -40 19 -58.5t60 -18.5q24 0 41 3.5t29.5 8t21.5 8t17 3.5t13.5 -7.5t5.5 -24.5q0 -19 -4 -43t-10.5 -46.5
t-14.5 -41t-17 -27.5t-27 -17t-42.5 -14t-52.5 -9.5t-56 -3.5q-60 0 -105.5 12.5t-76.5 39.5t-46.5 69t-15.5 102q0 11 1 25.5t3.5 30.5t5 32.5t5.5 29.5l87 435h-108q-13 0 -19 8.5t-6 32.5q0 17 3.5 44.5t11.5 54t21 45.5t31 19h107l40 199q2 10 9.5 18t23 13.5t40 8
t61.5 2.5q36 0 60 -2.5t37.5 -8t17.5 -13.5t2 -18l-40 -199h577q42 0 55 -18t6 -52zM1446 1347q0 -6 -2 -27.5t-9.5 -50.5t-23 -61.5t-41.5 -59.5t-64.5 -44.5t-93.5 -17.5q-39 0 -68.5 8t-53.5 21t-43.5 27.5t-37 27t-35 21t-37.5 8.5q-33 0 -49.5 -23.5t-21.5 -61.5
q-2 -9 -5.5 -14.5t-12.5 -8.5t-24.5 -4t-39.5 -1q-22 0 -36 1.5t-21.5 5t-10 9t-2.5 13.5q0 6 2 27.5t9.5 50.5t22.5 61t41 59t65 45t94 18q37 0 67 -8t54 -21t43.5 -27.5t37.5 -27.5t35.5 -21t36.5 -8q30 0 48.5 21.5t23.5 63.5q1 17 17.5 22.5t61.5 5.5q46 0 59.5 -6.5
t13.5 -22.5zM473 960z" />
    <glyph glyph-name="t_ibreve.liga" unicode="t&#x12d;" horiz-adv-x="1199" 
d="M986 34q-2 -10 -9.5 -17.5t-23 -12.5t-40 -7.5t-61.5 -2.5q-36 0 -60 2.5t-37.5 7.5t-18 12.5t-1.5 17.5l144 722h-401l-84 -419q-3 -15 -5.5 -35.5t-2.5 -33.5q0 -40 19 -58.5t60 -18.5q24 0 41 3.5t29.5 8t21.5 8t17 3.5t13.5 -7.5t5.5 -24.5q0 -19 -4 -43t-10.5 -46.5
t-14.5 -41t-17 -27.5t-27 -17t-42.5 -14t-52.5 -9.5t-56 -3.5q-60 0 -105.5 12.5t-76.5 39.5t-46.5 69t-15.5 102q0 11 1 25.5t3.5 30.5t5 32.5t5.5 29.5l87 435h-108q-13 0 -19 8.5t-6 32.5q0 17 3.5 44.5t11.5 54t21 45.5t31 19h107l40 199q2 10 9.5 18t23 13.5t40 8
t61.5 2.5q36 0 60 -2.5t37.5 -8t17.5 -13.5t2 -18l-40 -199h577q42 0 55 -18t6 -52zM1406 1373q0 -10 -4.5 -35.5t-17 -57.5t-36 -66.5t-60.5 -63t-91 -46.5t-128 -18q-76 0 -125.5 16t-78.5 44t-40.5 64.5t-11.5 75.5q0 11 1 26t3 29.5t5.5 26t8.5 16.5q9 8 27.5 12t51.5 4
q24 0 39.5 -2t24.5 -6t12 -9.5t3 -12.5q0 -9 -1.5 -20.5t-1.5 -22.5q0 -19 5 -34t16 -26t29.5 -17t46.5 -6t52 7t43.5 21.5t33.5 36t22 52.5q4 10 9.5 17.5t15.5 12t26 7t41 2.5q26 0 41.5 -2t24 -5t11.5 -8.5t3 -11.5zM539 960z" />
    <glyph glyph-name="t_iogonek.liga" unicode="t&#x12f;" horiz-adv-x="1199" 
d="M1092 960q45 0 58.5 -18.5t6.5 -54.5l-171 -853q-4 -18 -13 -33.5t-22 -26.5l-70 -58q-35 -29 -48.5 -47t-13.5 -36q0 -15 10.5 -24t38.5 -9h87q16 0 22 -6t6 -18q0 -8 -2 -22.5t-6 -30.5t-10 -30.5t-12 -20.5q-8 -7 -26 -13.5t-42.5 -12t-51.5 -8.5t-51 -3
q-107 0 -160 36.5t-53 109.5q0 22 5.5 43t18.5 43.5t34 45.5t52 49l51 42l149 752h-401l-84 -419q-3 -15 -5.5 -35.5t-2.5 -33.5q0 -40 19 -58.5t60 -18.5q24 0 41 3.5t29.5 8t21.5 8t17 3.5t13.5 -7.5t5.5 -24.5q0 -19 -4 -43t-10.5 -46.5t-14.5 -41t-17 -27.5t-27 -17
t-42.5 -14t-52.5 -9.5t-56 -3.5q-60 0 -105.5 12.5t-76.5 39.5t-46.5 69t-15.5 102q0 11 1 25.5t3.5 30.5t5 32.5t5.5 29.5l87 435h-108q-13 0 -19 8.5t-6 32.5q0 17 3.5 44.5t11.5 54t21 45.5t31 19h107l40 199q2 10 9.5 18t23 13.5t40 8t61.5 2.5q36 0 60 -2.5t37 -8
t17.5 -13.5t2.5 -18l-40 -199h573zM1244 1226q-8 -37 -19.5 -62.5t-31.5 -41t-49.5 -22t-71.5 -6.5t-68.5 6.5t-40 22t-15 41t5.5 62.5q8 36 19.5 61t31.5 41t49 23t71 7q43 0 69 -7t39.5 -23t15.5 -41t-5 -61z" />
    <glyph glyph-name="t_dotlessi.liga" unicode="t&#x131;" horiz-adv-x="1199" 
d="M986 34q-2 -10 -9.5 -17.5t-23 -12.5t-40 -7.5t-61.5 -2.5q-36 0 -60 2.5t-37.5 7.5t-18 12.5t-1.5 17.5l144 722h-401l-84 -419q-3 -15 -5.5 -35.5t-2.5 -33.5q0 -40 19 -58.5t60 -18.5q24 0 41 3.5t29.5 8t21.5 8t17 3.5t13.5 -7.5t5.5 -24.5q0 -19 -4 -43t-10.5 -46.5
t-14.5 -41t-17 -27.5t-27 -17t-42.5 -14t-52.5 -9.5t-56 -3.5q-60 0 -105.5 12.5t-76.5 39.5t-46.5 69t-15.5 102q0 11 1 25.5t3.5 30.5t5 32.5t5.5 29.5l87 435h-108q-13 0 -19 8.5t-6 32.5q0 17 3.5 44.5t11.5 54t21 45.5t31 19h107l40 199q2 10 9.5 18t23 13.5t40 8
t61.5 2.5q36 0 60 -2.5t37.5 -8t17.5 -13.5t2 -18l-40 -199h577q42 0 55 -18t6 -52z" />
    <glyph glyph-name="t_t.liga" unicode="tt" horiz-adv-x="1344" 
d="M1374 917q0 -10 -2 -25.5t-5.5 -33.5t-9 -36t-13 -32.5t-17 -24t-20.5 -9.5h-196l-83 -419q-4 -15 -6 -35.5t-2 -33.5q0 -40 19 -58.5t60 -18.5q24 0 40.5 3.5t29 8t22 8t17.5 3.5t13 -7.5t5 -24.5q0 -19 -3.5 -43t-10 -46.5t-14.5 -41t-17 -27.5t-27 -17t-42.5 -14
t-52.5 -9.5t-56 -3.5q-61 0 -106.5 12.5t-76.5 39.5t-46.5 69t-15.5 102q0 11 1.5 25.5t3.5 30.5t4.5 32.5t5.5 29.5l88 435h-383l-84 -419q-3 -15 -5.5 -35.5t-2.5 -33.5q0 -40 19 -58.5t60 -18.5q24 0 41 3.5t29.5 8t21.5 8t17 3.5t13.5 -7.5t5.5 -24.5q0 -19 -4 -43
t-10.5 -46.5t-14.5 -41t-17 -27.5t-27 -17t-42.5 -14t-52.5 -9.5t-56 -3.5q-60 0 -105.5 12.5t-76.5 39.5t-46.5 69t-15.5 102q0 11 1 25.5t3.5 30.5t5 32.5t5.5 29.5l87 435h-108q-13 0 -19 8.5t-6 32.5q0 17 3.5 44.5t11.5 54t21 45.5t31 19h107l40 199q2 10 9.5 18
t23 13.5t40 8t61.5 2.5q36 0 60 -2.5t37 -8t17.5 -13.5t2.5 -18l-40 -199h383l49 247q2 10 9.5 18t23 13t40 8t61.5 3q36 0 59.5 -3t37 -8t18 -13t2.5 -18l-49 -247h193q16 0 22 -11t6 -32z" />
    <glyph glyph-name="t_t_f.liga" unicode="ttf" horiz-adv-x="1930" 
d="M2115 1332q0 -6 -1.5 -19.5t-4.5 -30.5t-7 -35t-9.5 -33.5t-12.5 -25t-15 -9.5q-6 0 -15.5 3t-21.5 6.5t-27 6.5t-34 3q-32 0 -55.5 -9t-40.5 -28.5t-29 -50.5t-20 -74l-15 -76h162q15 0 21 -9.5t6 -30.5q0 -10 -1.5 -26t-5.5 -34.5t-10 -36.5t-13 -33t-16.5 -24.5
t-20.5 -9.5h-164l-154 -770q-17 -86 -47 -151.5t-75.5 -110t-107.5 -67t-142 -22.5q-59 0 -99 8t-52 20q-10 7 -10 30q0 12 3 38t9.5 52.5t16.5 47t23 20.5q7 0 15.5 -2t19 -5t24 -5t29.5 -2q32 0 55.5 9t40.5 28.5t29 50.5t20 74l152 757h-404l-83 -419q-4 -15 -6 -35.5
t-2 -33.5q0 -40 19 -58.5t60 -18.5q24 0 40.5 3.5t29 8t22 8t17.5 3.5t13 -7.5t5 -24.5q0 -19 -3.5 -43t-10 -46.5t-14.5 -41t-17 -27.5t-27 -17t-42.5 -14t-52.5 -9.5t-56 -3.5q-61 0 -106.5 12.5t-76.5 39.5t-46.5 69t-15.5 102q0 11 1.5 25.5t3.5 30.5t4.5 32.5t5.5 29.5
l88 435h-383l-84 -419q-3 -15 -5.5 -35.5t-2.5 -33.5q0 -40 19 -58.5t60 -18.5q24 0 41 3.5t29.5 8t21.5 8t17 3.5t13.5 -7.5t5.5 -24.5q0 -19 -4 -43t-10.5 -46.5t-14.5 -41t-17 -27.5t-27 -17t-42.5 -14t-52.5 -9.5t-56 -3.5q-60 0 -105.5 12.5t-76.5 39.5t-46.5 69
t-15.5 102q0 11 1 25.5t3.5 30.5t5 32.5t5.5 29.5l87 435h-108q-13 0 -19 8.5t-6 32.5q0 17 3.5 44.5t11.5 54t21 45.5t31 19h107l40 199q2 10 9.5 18t23 13.5t40 8t61.5 2.5q36 0 60 -2.5t37 -8t17.5 -13.5t2.5 -18l-40 -199h383l49 247q2 10 9.5 18t23 13t40 8t61.5 3
q36 0 59.5 -3t37 -8t18 -13t2.5 -18l-49 -247h403l20 97q16 85 47 149t76.5 107.5t106.5 65t140 21.5q26 0 51.5 -2.5t47 -7t37 -10.5t21.5 -12q6 -5 9 -14t3 -22z" />
    <glyph glyph-name="t_t_i.liga" unicode="tti" horiz-adv-x="1832" 
d="M1620 34q-3 -10 -10 -17.5t-22.5 -12.5t-40.5 -7.5t-61 -2.5q-37 0 -60.5 2.5t-37 7.5t-18 12.5t-1.5 17.5l144 722h-402l-83 -419q-4 -15 -6 -35.5t-2 -33.5q0 -40 19 -58.5t60 -18.5q24 0 40.5 3.5t29 8t22 8t17.5 3.5t13 -7.5t5 -24.5q0 -19 -3.5 -43t-10 -46.5
t-14.5 -41t-17 -27.5t-27 -17t-42.5 -14t-52.5 -9.5t-56 -3.5q-61 0 -106.5 12.5t-76.5 39.5t-46.5 69t-15.5 102q0 11 1.5 25.5t3.5 30.5t4.5 32.5t5.5 29.5l88 435h-383l-84 -419q-3 -15 -5.5 -35.5t-2.5 -33.5q0 -40 19 -58.5t60 -18.5q24 0 41 3.5t29.5 8t21.5 8t17 3.5
t13.5 -7.5t5.5 -24.5q0 -19 -4 -43t-10.5 -46.5t-14.5 -41t-17 -27.5t-27 -17t-42.5 -14t-52.5 -9.5t-56 -3.5q-60 0 -105.5 12.5t-76.5 39.5t-46.5 69t-15.5 102q0 11 1 25.5t3.5 30.5t5 32.5t5.5 29.5l87 435h-108q-13 0 -19 8.5t-6 32.5q0 17 3.5 44.5t11.5 54t21 45.5
t31 19h107l40 199q2 10 9.5 18t23 13.5t40 8t61.5 2.5q36 0 60 -2.5t37 -8t17.5 -13.5t2.5 -18l-40 -199h383l49 247q2 10 9.5 18t23 13t40 8t61.5 3q36 0 59.5 -3t37 -8t18 -13t2.5 -18l-49 -247h576q42 0 55 -18t6 -52zM1876 1226q-7 -37 -18.5 -62.5t-31 -41t-49 -22
t-71.5 -6.5t-68.5 6.5t-40 22t-15.5 41t5 62.5q7 36 19 61t31.5 41t49 23t71.5 7q43 0 69 -7t40 -23t15.5 -41t-6.5 -61z" />
    <glyph glyph-name="t_t_igrave.liga" unicode="tt&#xec;" horiz-adv-x="1832" 
d="M1620 34q-3 -10 -10 -17.5t-22.5 -12.5t-40.5 -7.5t-61 -2.5q-37 0 -60.5 2.5t-37 7.5t-18 12.5t-1.5 17.5l144 722h-402l-83 -419q-4 -15 -6 -35.5t-2 -33.5q0 -40 19 -58.5t60 -18.5q24 0 40.5 3.5t29 8t22 8t17.5 3.5t13 -7.5t5 -24.5q0 -19 -3.5 -43t-10 -46.5
t-14.5 -41t-17 -27.5t-27 -17t-42.5 -14t-52.5 -9.5t-56 -3.5q-61 0 -106.5 12.5t-76.5 39.5t-46.5 69t-15.5 102q0 11 1.5 25.5t3.5 30.5t4.5 32.5t5.5 29.5l88 435h-383l-84 -419q-3 -15 -5.5 -35.5t-2.5 -33.5q0 -40 19 -58.5t60 -18.5q24 0 41 3.5t29.5 8t21.5 8t17 3.5
t13.5 -7.5t5.5 -24.5q0 -19 -4 -43t-10.5 -46.5t-14.5 -41t-17 -27.5t-27 -17t-42.5 -14t-52.5 -9.5t-56 -3.5q-60 0 -105.5 12.5t-76.5 39.5t-46.5 69t-15.5 102q0 11 1 25.5t3.5 30.5t5 32.5t5.5 29.5l87 435h-108q-13 0 -19 8.5t-6 32.5q0 17 3.5 44.5t11.5 54t21 45.5
t31 19h107l40 199q2 10 9.5 18t23 13.5t40 8t61.5 2.5q36 0 60 -2.5t37 -8t17.5 -13.5t2.5 -18l-40 -199h383l49 247q2 10 9.5 18t23 13t40 8t61.5 3q36 0 59.5 -3t37 -8t18 -13t2.5 -18l-49 -247h576q42 0 55 -18t6 -52zM1808 1135q8 -13 9.5 -23t-7 -16.5t-28.5 -9.5
t-55 -3q-29 0 -48 1.5t-31.5 6t-21 11t-16.5 16.5l-183 232q-9 11 -9.5 21t11.5 17.5t39 11.5t73 4q34 0 56 -1.5t37 -6.5t24 -12.5t16 -19.5zM1154 960z" />
    <glyph glyph-name="t_t_iacute.liga" unicode="tt&#xed;" horiz-adv-x="1832" 
d="M1620 34q-3 -10 -10 -17.5t-22.5 -12.5t-40.5 -7.5t-61 -2.5q-37 0 -60.5 2.5t-37 7.5t-18 12.5t-1.5 17.5l144 722h-402l-83 -419q-4 -15 -6 -35.5t-2 -33.5q0 -40 19 -58.5t60 -18.5q24 0 40.5 3.5t29 8t22 8t17.5 3.5t13 -7.5t5 -24.5q0 -19 -3.5 -43t-10 -46.5
t-14.5 -41t-17 -27.5t-27 -17t-42.5 -14t-52.5 -9.5t-56 -3.5q-61 0 -106.5 12.5t-76.5 39.5t-46.5 69t-15.5 102q0 11 1.5 25.5t3.5 30.5t4.5 32.5t5.5 29.5l88 435h-383l-84 -419q-3 -15 -5.5 -35.5t-2.5 -33.5q0 -40 19 -58.5t60 -18.5q24 0 41 3.5t29.5 8t21.5 8t17 3.5
t13.5 -7.5t5.5 -24.5q0 -19 -4 -43t-10.5 -46.5t-14.5 -41t-17 -27.5t-27 -17t-42.5 -14t-52.5 -9.5t-56 -3.5q-60 0 -105.5 12.5t-76.5 39.5t-46.5 69t-15.5 102q0 11 1 25.5t3.5 30.5t5 32.5t5.5 29.5l87 435h-108q-13 0 -19 8.5t-6 32.5q0 17 3.5 44.5t11.5 54t21 45.5
t31 19h107l40 199q2 10 9.5 18t23 13.5t40 8t61.5 2.5q36 0 60 -2.5t37 -8t17.5 -13.5t2.5 -18l-40 -199h383l49 247q2 10 9.5 18t23 13t40 8t61.5 3q36 0 59.5 -3t37 -8t18 -13t2.5 -18l-49 -247h576q42 0 55 -18t6 -52zM1798 1118q-8 -10 -16 -16.5t-21 -10.5t-32 -6
t-48 -2q-35 0 -55 3t-28 9.5t-5.5 16.5t11.5 23l152 229q8 11 18 19t25.5 12.5t38.5 6.5t56 2q46 0 72 -4.5t37.5 -12t9.5 -17t-11 -20.5zM1339 960z" />
    <glyph glyph-name="t_t_icircumflex.liga" unicode="tt&#xee;" horiz-adv-x="1832" 
d="M1620 34q-3 -10 -10 -17.5t-22.5 -12.5t-40.5 -7.5t-61 -2.5q-37 0 -60.5 2.5t-37 7.5t-18 12.5t-1.5 17.5l144 722h-402l-83 -419q-4 -15 -6 -35.5t-2 -33.5q0 -40 19 -58.5t60 -18.5q24 0 40.5 3.5t29 8t22 8t17.5 3.5t13 -7.5t5 -24.5q0 -19 -3.5 -43t-10 -46.5
t-14.5 -41t-17 -27.5t-27 -17t-42.5 -14t-52.5 -9.5t-56 -3.5q-61 0 -106.5 12.5t-76.5 39.5t-46.5 69t-15.5 102q0 11 1.5 25.5t3.5 30.5t4.5 32.5t5.5 29.5l88 435h-383l-84 -419q-3 -15 -5.5 -35.5t-2.5 -33.5q0 -40 19 -58.5t60 -18.5q24 0 41 3.5t29.5 8t21.5 8t17 3.5
t13.5 -7.5t5.5 -24.5q0 -19 -4 -43t-10.5 -46.5t-14.5 -41t-17 -27.5t-27 -17t-42.5 -14t-52.5 -9.5t-56 -3.5q-60 0 -105.5 12.5t-76.5 39.5t-46.5 69t-15.5 102q0 11 1 25.5t3.5 30.5t5 32.5t5.5 29.5l87 435h-108q-13 0 -19 8.5t-6 32.5q0 17 3.5 44.5t11.5 54t21 45.5
t31 19h107l40 199q2 10 9.5 18t23 13.5t40 8t61.5 2.5q36 0 60 -2.5t37 -8t17.5 -13.5t2.5 -18l-40 -199h383l49 247q2 10 9.5 18t23 13t40 8t61.5 3q36 0 59.5 -3t37 -8t18 -13t2.5 -18l-49 -247h576q42 0 55 -18t6 -52zM1989 1149q10 -19 13 -31.5t-5.5 -20t-29.5 -11
t-60 -3.5q-32 0 -50 1.5t-28 5.5t-14.5 10.5t-9.5 17.5l-74 150l-134 -150q-9 -11 -18 -18t-22 -10.5t-33 -5t-49 -1.5q-40 0 -61 3.5t-26.5 11t1.5 20.5t25 31l202 223q8 10 19 15.5t27 9.5t38.5 5.5t53.5 1.5q32 0 53 -2t35 -6t22 -10t13 -14zM1154 960z" />
    <glyph glyph-name="t_t_idieresis.liga" unicode="tt&#xef;" horiz-adv-x="1832" 
d="M1620 34q-3 -10 -10 -17.5t-22.5 -12.5t-40.5 -7.5t-61 -2.5q-37 0 -60.5 2.5t-37 7.5t-18 12.5t-1.5 17.5l144 722h-402l-83 -419q-4 -15 -6 -35.5t-2 -33.5q0 -40 19 -58.5t60 -18.5q24 0 40.5 3.5t29 8t22 8t17.5 3.5t13 -7.5t5 -24.5q0 -19 -3.5 -43t-10 -46.5
t-14.5 -41t-17 -27.5t-27 -17t-42.5 -14t-52.5 -9.5t-56 -3.5q-61 0 -106.5 12.5t-76.5 39.5t-46.5 69t-15.5 102q0 11 1.5 25.5t3.5 30.5t4.5 32.5t5.5 29.5l88 435h-383l-84 -419q-3 -15 -5.5 -35.5t-2.5 -33.5q0 -40 19 -58.5t60 -18.5q24 0 41 3.5t29.5 8t21.5 8t17 3.5
t13.5 -7.5t5.5 -24.5q0 -19 -4 -43t-10.5 -46.5t-14.5 -41t-17 -27.5t-27 -17t-42.5 -14t-52.5 -9.5t-56 -3.5q-60 0 -105.5 12.5t-76.5 39.5t-46.5 69t-15.5 102q0 11 1 25.5t3.5 30.5t5 32.5t5.5 29.5l87 435h-108q-13 0 -19 8.5t-6 32.5q0 17 3.5 44.5t11.5 54t21 45.5
t31 19h107l40 199q2 10 9.5 18t23 13.5t40 8t61.5 2.5q36 0 60 -2.5t37 -8t17.5 -13.5t2.5 -18l-40 -199h383l49 247q2 10 9.5 18t23 13t40 8t61.5 3q36 0 59.5 -3t37 -8t18 -13t2.5 -18l-49 -247h576q42 0 55 -18t6 -52zM1436 1225q7 37 18.5 61t29.5 38t42 19t57 5
t54.5 -5t33 -19t13 -38t-6.5 -61q-7 -37 -18 -61t-28 -38t-41 -19t-56 -5q-34 0 -56 5t-34 19t-14 38t6 61zM1772 1225q7 37 19 61t29.5 38t42 19t56.5 5q33 0 55 -5t33 -19t12.5 -38t-5.5 -61q-8 -37 -19 -61t-28.5 -38t-41 -19t-56.5 -5t-55 5t-34 19t-14 38t6 61z
M1182 960z" />
    <glyph glyph-name="t_t_imacron.liga" unicode="tt&#x12b;" horiz-adv-x="1832" 
d="M1620 34q-3 -10 -10 -17.5t-22.5 -12.5t-40.5 -7.5t-61 -2.5q-37 0 -60.5 2.5t-37 7.5t-18 12.5t-1.5 17.5l144 722h-402l-83 -419q-4 -15 -6 -35.5t-2 -33.5q0 -40 19 -58.5t60 -18.5q24 0 40.5 3.5t29 8t22 8t17.5 3.5t13 -7.5t5 -24.5q0 -19 -3.5 -43t-10 -46.5
t-14.5 -41t-17 -27.5t-27 -17t-42.5 -14t-52.5 -9.5t-56 -3.5q-61 0 -106.5 12.5t-76.5 39.5t-46.5 69t-15.5 102q0 11 1.5 25.5t3.5 30.5t4.5 32.5t5.5 29.5l88 435h-383l-84 -419q-3 -15 -5.5 -35.5t-2.5 -33.5q0 -40 19 -58.5t60 -18.5q24 0 41 3.5t29.5 8t21.5 8t17 3.5
t13.5 -7.5t5.5 -24.5q0 -19 -4 -43t-10.5 -46.5t-14.5 -41t-17 -27.5t-27 -17t-42.5 -14t-52.5 -9.5t-56 -3.5q-60 0 -105.5 12.5t-76.5 39.5t-46.5 69t-15.5 102q0 11 1 25.5t3.5 30.5t5 32.5t5.5 29.5l87 435h-108q-13 0 -19 8.5t-6 32.5q0 17 3.5 44.5t11.5 54t21 45.5
t31 19h107l40 199q2 10 9.5 18t23 13.5t40 8t61.5 2.5q36 0 60 -2.5t37 -8t17.5 -13.5t2.5 -18l-40 -199h383l49 247q2 10 9.5 18t23 13t40 8t61.5 3q36 0 59.5 -3t37 -8t18 -13t2.5 -18l-49 -247h576q42 0 55 -18t6 -52zM2028 1284q0 -7 -1.5 -20t-4.5 -28.5t-7.5 -32.5
t-12 -31t-17 -23t-22.5 -9h-511q-17 0 -25 9t-8 30q0 10 3 33.5t10.5 48.5t21 43.5t35.5 18.5h511q16 0 22 -10.5t6 -28.5zM1171 960z" />
    <glyph glyph-name="t_t_itilde.liga" unicode="tt&#x129;" horiz-adv-x="1832" 
d="M1620 34q-3 -10 -10 -17.5t-22.5 -12.5t-40.5 -7.5t-61 -2.5q-37 0 -60.5 2.5t-37 7.5t-18 12.5t-1.5 17.5l144 722h-402l-83 -419q-4 -15 -6 -35.5t-2 -33.5q0 -40 19 -58.5t60 -18.5q24 0 40.5 3.5t29 8t22 8t17.5 3.5t13 -7.5t5 -24.5q0 -19 -3.5 -43t-10 -46.5
t-14.5 -41t-17 -27.5t-27 -17t-42.5 -14t-52.5 -9.5t-56 -3.5q-61 0 -106.5 12.5t-76.5 39.5t-46.5 69t-15.5 102q0 11 1.5 25.5t3.5 30.5t4.5 32.5t5.5 29.5l88 435h-383l-84 -419q-3 -15 -5.5 -35.5t-2.5 -33.5q0 -40 19 -58.5t60 -18.5q24 0 41 3.5t29.5 8t21.5 8t17 3.5
t13.5 -7.5t5.5 -24.5q0 -19 -4 -43t-10.5 -46.5t-14.5 -41t-17 -27.5t-27 -17t-42.5 -14t-52.5 -9.5t-56 -3.5q-60 0 -105.5 12.5t-76.5 39.5t-46.5 69t-15.5 102q0 11 1 25.5t3.5 30.5t5 32.5t5.5 29.5l87 435h-108q-13 0 -19 8.5t-6 32.5q0 17 3.5 44.5t11.5 54t21 45.5
t31 19h107l40 199q2 10 9.5 18t23 13.5t40 8t61.5 2.5q36 0 60 -2.5t37 -8t17.5 -13.5t2.5 -18l-40 -199h383l49 247q2 10 9.5 18t23 13t40 8t61.5 3q36 0 59.5 -3t37 -8t18 -13t2.5 -18l-49 -247h576q42 0 55 -18t6 -52zM2082 1347q0 -6 -2 -27.5t-9.5 -50.5t-23 -61.5
t-41.5 -59.5t-64.5 -44.5t-93.5 -17.5q-39 0 -68.5 8t-53.5 21t-43.5 27.5t-37 27t-35 21t-37.5 8.5q-33 0 -49.5 -23.5t-21.5 -61.5q-2 -9 -5.5 -14.5t-12.5 -8.5t-24.5 -4t-39.5 -1q-22 0 -36 1.5t-21.5 5t-10 9t-2.5 13.5q0 6 2 27.5t9.5 50.5t22.5 61t41 59t65 45t94 18
q37 0 67 -8t54 -21t43.5 -27.5t37.5 -27.5t35.5 -21t36.5 -8q30 0 48.5 21.5t23.5 63.5q1 17 17.5 22.5t61.5 5.5q46 0 59.5 -6.5t13.5 -22.5zM1109 960z" />
    <glyph glyph-name="t_t_ibreve.liga" unicode="tt&#x12d;" horiz-adv-x="1832" 
d="M1620 34q-3 -10 -10 -17.5t-22.5 -12.5t-40.5 -7.5t-61 -2.5q-37 0 -60.5 2.5t-37 7.5t-18 12.5t-1.5 17.5l144 722h-402l-83 -419q-4 -15 -6 -35.5t-2 -33.5q0 -40 19 -58.5t60 -18.5q24 0 40.5 3.5t29 8t22 8t17.5 3.5t13 -7.5t5 -24.5q0 -19 -3.5 -43t-10 -46.5
t-14.5 -41t-17 -27.5t-27 -17t-42.5 -14t-52.5 -9.5t-56 -3.5q-61 0 -106.5 12.5t-76.5 39.5t-46.5 69t-15.5 102q0 11 1.5 25.5t3.5 30.5t4.5 32.5t5.5 29.5l88 435h-383l-84 -419q-3 -15 -5.5 -35.5t-2.5 -33.5q0 -40 19 -58.5t60 -18.5q24 0 41 3.5t29.5 8t21.5 8t17 3.5
t13.5 -7.5t5.5 -24.5q0 -19 -4 -43t-10.5 -46.5t-14.5 -41t-17 -27.5t-27 -17t-42.5 -14t-52.5 -9.5t-56 -3.5q-60 0 -105.5 12.5t-76.5 39.5t-46.5 69t-15.5 102q0 11 1 25.5t3.5 30.5t5 32.5t5.5 29.5l87 435h-108q-13 0 -19 8.5t-6 32.5q0 17 3.5 44.5t11.5 54t21 45.5
t31 19h107l40 199q2 10 9.5 18t23 13.5t40 8t61.5 2.5q36 0 60 -2.5t37 -8t17.5 -13.5t2.5 -18l-40 -199h383l49 247q2 10 9.5 18t23 13t40 8t61.5 3q36 0 59.5 -3t37 -8t18 -13t2.5 -18l-49 -247h576q42 0 55 -18t6 -52zM2040 1373q0 -10 -4.5 -35.5t-17 -57.5t-36 -66.5
t-60.5 -63t-91 -46.5t-128 -18q-76 0 -125.5 16t-78.5 44t-40.5 64.5t-11.5 75.5q0 11 1 26t3 29.5t5.5 26t8.5 16.5q9 8 27.5 12t51.5 4q24 0 39.5 -2t24.5 -6t12 -9.5t3 -12.5q0 -9 -1.5 -20.5t-1.5 -22.5q0 -19 5 -34t16 -26t29.5 -17t46.5 -6t52 7t43.5 21.5t33.5 36
t22 52.5q4 10 9.5 17.5t15.5 12t26 7t41 2.5q26 0 41.5 -2t24 -5t11.5 -8.5t3 -11.5zM1173 960z" />
    <glyph glyph-name="t_t_iogonek.liga" unicode="tt&#x12f;" horiz-adv-x="1832" 
d="M1620 34q-4 -18 -13 -33.5t-23 -26.5l-69 -58q-35 -29 -48.5 -47t-13.5 -36q0 -15 10.5 -24t38.5 -9h87q16 0 22 -6t6 -18q0 -8 -2.5 -22.5t-6 -30.5t-9.5 -30.5t-12 -20.5q-7 -7 -26 -13.5t-43.5 -12t-51.5 -8.5t-51 -3q-106 0 -159.5 36.5t-53.5 109.5q0 22 5.5 43
t18.5 43.5t34 45.5t52 49l51 42l150 752h-402l-83 -419q-4 -15 -6 -35.5t-2 -33.5q0 -40 19 -58.5t60 -18.5q24 0 40.5 3.5t29 8t22 8t17.5 3.5t13 -7.5t5 -24.5q0 -19 -3.5 -43t-10 -46.5t-14.5 -41t-17 -27.5t-27 -17t-42.5 -14t-52.5 -9.5t-56 -3.5q-61 0 -106.5 12.5
t-76.5 39.5t-46.5 69t-15.5 102q0 11 1.5 25.5t3.5 30.5t4.5 32.5t5.5 29.5l88 435h-383l-84 -419q-3 -15 -5.5 -35.5t-2.5 -33.5q0 -40 19 -58.5t60 -18.5q24 0 41 3.5t29.5 8t21.5 8t17 3.5t13.5 -7.5t5.5 -24.5q0 -19 -4 -43t-10.5 -46.5t-14.5 -41t-17 -27.5t-27 -17
t-42.5 -14t-52.5 -9.5t-56 -3.5q-60 0 -105.5 12.5t-76.5 39.5t-46.5 69t-15.5 102q0 11 1 25.5t3.5 30.5t5 32.5t5.5 29.5l87 435h-108q-13 0 -19 8.5t-6 32.5q0 17 3.5 44.5t11.5 54t21 45.5t31 19h107l40 199q2 10 9.5 18t23 13.5t40 8t61.5 2.5q36 0 60 -2.5t37 -8
t17.5 -13.5t2.5 -18l-40 -199h383l49 247q2 10 9.5 18t23 13t40 8t61.5 3q36 0 59.5 -3t37 -8t18 -13t2.5 -18l-49 -247h576q42 0 55 -18t6 -52zM1877 1226q-7 -37 -19 -62.5t-31.5 -41t-49 -22t-71.5 -6.5t-68.5 6.5t-40 22t-15.5 41t6 62.5q7 36 19 61t31.5 41t49 23
t71.5 7q43 0 69 -7t39.5 -23t15.5 -41t-6 -61z" />
    <glyph glyph-name="t_t_dotlessi.liga" unicode="tt&#x131;" horiz-adv-x="1832" 
d="M1620 34q-3 -10 -10 -17.5t-22.5 -12.5t-40.5 -7.5t-61 -2.5q-37 0 -60.5 2.5t-37 7.5t-18 12.5t-1.5 17.5l144 722h-402l-83 -419q-4 -15 -6 -35.5t-2 -33.5q0 -40 19 -58.5t60 -18.5q24 0 40.5 3.5t29 8t22 8t17.5 3.5t13 -7.5t5 -24.5q0 -19 -3.5 -43t-10 -46.5
t-14.5 -41t-17 -27.5t-27 -17t-42.5 -14t-52.5 -9.5t-56 -3.5q-61 0 -106.5 12.5t-76.5 39.5t-46.5 69t-15.5 102q0 11 1.5 25.5t3.5 30.5t4.5 32.5t5.5 29.5l88 435h-383l-84 -419q-3 -15 -5.5 -35.5t-2.5 -33.5q0 -40 19 -58.5t60 -18.5q24 0 41 3.5t29.5 8t21.5 8t17 3.5
t13.5 -7.5t5.5 -24.5q0 -19 -4 -43t-10.5 -46.5t-14.5 -41t-17 -27.5t-27 -17t-42.5 -14t-52.5 -9.5t-56 -3.5q-60 0 -105.5 12.5t-76.5 39.5t-46.5 69t-15.5 102q0 11 1 25.5t3.5 30.5t5 32.5t5.5 29.5l87 435h-108q-13 0 -19 8.5t-6 32.5q0 17 3.5 44.5t11.5 54t21 45.5
t31 19h107l40 199q2 10 9.5 18t23 13.5t40 8t61.5 2.5q36 0 60 -2.5t37 -8t17.5 -13.5t2.5 -18l-40 -199h383l49 247q2 10 9.5 18t23 13t40 8t61.5 3q36 0 59.5 -3t37 -8t18 -13t2.5 -18l-49 -247h576q42 0 55 -18t6 -52z" />
    <glyph glyph-name=".notdef" horiz-adv-x="1038" 
d="M992 1294v-1294h-945v1294h945zM885 101v1092h-732v-1092h732zM783 886q0 -54 -16 -104.5t-50 -89.5t-86 -64.5t-124 -31.5l-30 -121q-3 -13 -25.5 -18.5t-59.5 -5.5q-22 0 -37.5 1t-24.5 3.5t-12.5 7t-2.5 12.5l25 167q5 33 22.5 46.5t43.5 13.5h11q47 0 80 15t53 39
t29 53.5t9 59.5q0 20 -6.5 38.5t-21 33t-38 23t-58.5 8.5q-38 0 -67 -6.5t-49.5 -14t-33.5 -14t-19 -6.5q-8 0 -11.5 7t-3.5 21q0 7 2 21t5 29.5t8 29.5t12 21q8 7 27.5 16t47 16.5t60.5 12.5t67 5q69 0 120.5 -17.5t85.5 -48t51 -71t17 -87.5zM474 323q0 -9 -2 -23t-6 -30
t-11 -30.5t-16 -24.5q-14 -13 -35.5 -20t-53.5 -7q-28 0 -45.5 4.5t-27 12.5t-12.5 18.5t-3 22.5q0 11 2 25.5t6.5 30t12 30.5t18.5 25q13 14 33.5 20t53.5 6q26 0 43 -4t26.5 -11.5t13 -18.5t3.5 -26zM0 -397z" />
    <glyph glyph-name="glyph1" horiz-adv-x="0" 
 />
    <glyph glyph-name="glyph1" horiz-adv-x="0" 
 />
    <glyph glyph-name="uni000D" unicode="&#xd;" horiz-adv-x="0" 
 />
    <glyph glyph-name="space" unicode=" " horiz-adv-x="463" 
 />
    <glyph glyph-name="space" unicode="&#xa0;" horiz-adv-x="463" 
 />
    <glyph glyph-name="exclam" unicode="!" horiz-adv-x="667" 
d="M472 424q-2 -10 -9.5 -18t-21.5 -13.5t-35.5 -8.5t-52.5 -3q-32 0 -52.5 3t-31.5 8.5t-15 13.5t-2 18l156 908q2 13 10.5 23t25.5 16.5t44 9.5t66 3q40 0 65.5 -3t40 -9.5t18.5 -16.5t1 -23zM453 194q0 -18 -4 -42t-10.5 -48.5t-16.5 -46t-23 -34.5q-19 -19 -48.5 -28.5
t-75.5 -9.5q-36 0 -59.5 5.5t-37 16.5t-18.5 26.5t-5 35.5q0 16 3 39.5t10 48.5t17 47.5t24 36.5q22 22 51 30.5t71 8.5q39 0 62.5 -6.5t37 -18t18 -27.5t4.5 -34z" />
    <glyph glyph-name="quotedbl" unicode="&#x22;" horiz-adv-x="898" 
d="M796 910q-2 -10 -8 -18t-18 -13t-29.5 -8t-43.5 -3q-27 0 -43.5 3t-26 8t-12 13t-1.5 18l67 447q2 10 9 18t21.5 13.5t37.5 8t55 2.5q65 0 87.5 -10.5t18.5 -31.5zM415 910q-2 -10 -8 -18t-17.5 -13t-29.5 -8t-44 -3q-27 0 -43.5 3t-25.5 8t-12 13t-1 18l67 447
q1 10 8.5 18t22 13.5t37 8t54.5 2.5q66 0 88.5 -10.5t17.5 -31.5z" />
    <glyph glyph-name="numbersign" unicode="#" horiz-adv-x="1020" 
d="M1080 932q0 -10 -3.5 -32t-11 -44.5t-19.5 -39.5t-30 -17h-111l-92 -284h98q14 0 20.5 -10t6.5 -29q0 -11 -3.5 -33.5t-11 -44.5t-19.5 -38.5t-30 -16.5h-117l-99 -312q-6 -20 -31.5 -28.5t-83.5 -8.5q-31 0 -49 2t-27 7t-10.5 11.5t1.5 15.5l101 313h-224l-100 -313
q-3 -9 -9.5 -16t-19.5 -11.5t-32.5 -6.5t-48.5 -2q-31 0 -50 2t-28 7t-11 11.5t0 15.5l101 313h-95q-27 0 -27 43q0 12 3 33.5t10.5 43t18.5 37t28 15.5h117l92 284h-99q-15 0 -21.5 10.5t-6.5 33.5q0 15 4 36.5t11.5 42t18.5 35t26 14.5h121l93 292q3 10 10.5 17t21.5 11.5
t34.5 6.5t49.5 2q31 0 49 -2.5t26.5 -7.5t9.5 -11.5t-1 -14.5l-94 -293h222l94 292q4 19 29 28t84 9q30 0 48.5 -2.5t27.5 -7.5t10.5 -11.5t-0.5 -14.5l-94 -293h95q14 0 20.5 -10.5t6.5 -28.5zM482 799l-93 -284h225l92 284h-224z" />
    <glyph glyph-name="dollar" unicode="$" horiz-adv-x="1038" 
d="M941 441q0 -88 -30.5 -164.5t-94 -134.5t-159.5 -95t-226 -46l-65 -214q-4 -16 -22 -24.5t-69 -8.5q-32 0 -51 3t-28.5 8.5t-11 14.5t1.5 20l63 205q-59 9 -107.5 24.5t-80.5 35.5q-25 16 -33 29.5t-8 37.5q0 7 2 21.5t5 32.5t8.5 36.5t12 34t14.5 25.5t18 10
q13 0 33.5 -13.5t54.5 -30.5t85 -30.5t123 -13.5q83 0 138.5 17.5t89 45t48 62t14.5 68.5q0 38 -20.5 64t-54 47t-76 38.5t-87 37.5t-87 44.5t-76 58.5t-54 81t-20.5 111q0 76 26 146.5t80.5 126.5t138.5 93.5t200 47.5l60 200q3 8 7.5 13.5t14.5 10t26.5 6.5t42.5 2
q31 0 51 -3t30 -8.5t11.5 -14.5t-2.5 -20l-57 -193q51 -9 97 -25.5t73 -37.5q16 -11 21 -21t5 -22q0 -6 -2 -21t-4.5 -33.5t-7.5 -38t-11 -35.5t-13.5 -26.5t-16.5 -10.5q-12 0 -33 12.5t-54 28t-81 28.5t-112 13q-60 0 -101.5 -15t-67.5 -39t-37.5 -55t-11.5 -64
q0 -35 20.5 -61t54.5 -46.5t76.5 -39t87.5 -38.5t88 -45.5t76.5 -60.5t54 -82t20.5 -110z" />
    <glyph glyph-name="percent" unicode="%" horiz-adv-x="1493" 
d="M767 1083q0 -32 -5 -78.5t-18.5 -97t-39 -100t-66 -89t-99.5 -64t-140 -24.5q-66 0 -114 16t-78.5 45t-45 71.5t-14.5 94.5q0 35 5 82t19 97.5t39.5 100t66 88t98 62.5t136.5 24q69 0 118 -16.5t79.5 -46.5t44.5 -72t14 -93zM571 1078q0 46 -16.5 69t-58.5 23
q-30 0 -53 -18.5t-40.5 -48t-29 -65t-18.5 -69.5t-10 -62.5t-3 -44.5q0 -49 18 -70t57 -21q31 0 55 18.5t41 47t28 64t18 69.5t9.5 63t2.5 45zM1418 436q0 -32 -5 -78.5t-18.5 -97t-39 -100t-66 -89t-99.5 -64t-140 -24.5q-66 0 -114 16t-78.5 45t-45 71.5t-14.5 94.5
q0 35 5 82t19 97.5t39.5 100t66 88t98 62.5t136.5 24q69 0 118 -16.5t79.5 -46.5t44.5 -72t14 -93zM1222 431q0 46 -16.5 69t-58.5 23q-30 0 -53 -18.5t-40.5 -48t-29 -65t-18.5 -69.5t-10 -62.5t-3 -44.5q0 -49 18 -70t57 -21q31 0 55 18.5t41 47t28 64t18 69.5t9.5 63
t2.5 45zM294 7q-11 -12 -22.5 -19.5t-27 -12.5t-36 -7t-50.5 -2q-65 0 -78.5 16t12.5 44l1175 1263q11 11 22.5 19t27 13t36.5 7t50 2q33 0 52.5 -4t26.5 -12t3.5 -19t-16.5 -25z" />
    <glyph glyph-name="ampersand" unicode="&#x26;" horiz-adv-x="1443" 
d="M949 111q-93 -60 -208 -97.5t-250 -37.5q-95 0 -175.5 21t-138 62t-90 100.5t-32.5 136.5q0 62 19 121.5t60.5 114.5t107 105.5t159.5 97.5q-25 45 -42 85t-26.5 74t-14 62t-4.5 48q0 34 7.5 73.5t27 79t53 76t85 64.5t122.5 45t167 17q109 0 183.5 -20.5t120 -54t65 -77
t19.5 -88.5q0 -59 -20 -114t-68 -108t-128 -106t-199 -108q26 -39 51.5 -73t51.5 -66t54.5 -63.5t58.5 -63.5q38 48 64 101t36 92.5t12.5 56t8.5 25.5t20 14t37.5 7.5t60.5 2.5q57 0 84.5 -6.5t27.5 -24t-9.5 -60t-24.5 -89t-38.5 -95t-51.5 -92t-61 -77.5
q48 -43 80.5 -63.5t59.5 -20.5q20 0 27 -7t7 -27q0 -10 -3.5 -32.5t-8.5 -45.5t-12 -43.5t-16 -29.5t-30.5 -16t-47.5 -7q-18 0 -42 7.5t-53 23.5t-65 40.5t-78 59.5zM633 835q83 38 133.5 70.5t78.5 62.5t37.5 56.5t9.5 52.5q0 14 -6 29.5t-21 28.5t-40 21t-63 8
q-56 0 -92 -16t-57 -39.5t-29 -51t-8 -50.5q0 -14 3 -31.5t9.5 -39t17.5 -46.5t27 -55zM514 567q-46 -25 -81 -53t-57.5 -57.5t-34 -62.5t-11.5 -68q0 -28 10.5 -54.5t34.5 -47t63 -33t97 -12.5q31 0 63.5 5.5t64 15.5t60 23.5t51.5 30.5q-36 37 -70 74.5t-66.5 76t-63.5 79
t-60 83.5zM0 1294z" />
    <glyph glyph-name="quotesingle" unicode="'" horiz-adv-x="478" 
d="M421 910q-5 -21 -27.5 -31.5t-75.5 -10.5q-26 0 -43 3t-26.5 8t-13 13t-1.5 18l67 447q2 21 31.5 31.5t93.5 10.5q65 0 89 -10.5t19 -31.5z" />
    <glyph glyph-name="parenleft" unicode="(" horiz-adv-x="638" 
d="M720 1368q-106 -168 -179 -336.5t-119 -328.5t-66.5 -308.5t-20.5 -276.5q0 -46 2.5 -99t8 -107t13.5 -106t18 -96q3 -16 1.5 -27.5t-12 -19.5t-33.5 -12t-63 -4q-28 0 -47 2t-31 5.5t-17.5 9t-7.5 12.5q-35 115 -56.5 244t-21.5 274q0 125 19 262t65 287t123.5 311.5
t194.5 335.5q6 9 14.5 15.5t23 10.5t37.5 6t58 2q36 0 58.5 -3.5t34 -10.5t12 -18t-8.5 -24z" />
    <glyph glyph-name="parenright" unicode=")" horiz-adv-x="638" 
d="M-54 -296q105 168 178.5 336t119.5 328.5t67 308.5t21 276q0 47 -3 100t-8.5 107t-13.5 105.5t-19 95.5q-3 16 -1 28t13 20t33.5 11.5t63.5 3.5q28 0 46.5 -1.5t30.5 -5.5t17.5 -9t7.5 -12q35 -115 56.5 -244t21.5 -275q0 -125 -19 -262t-65 -286.5t-123 -311.5
t-194 -335q-7 -9 -15.5 -15.5t-23 -11t-37 -6.5t-58.5 -2q-37 0 -59 4t-33.5 11t-11.5 17.5t8 24.5z" />
    <glyph glyph-name="asterisk" unicode="*" horiz-adv-x="1020" 
d="M999 1227q20 -51 16 -76.5t-24 -32.5l-256 -91l216 -94q18 -6 13.5 -29t-42.5 -72q-38 -51 -59.5 -62t-35.5 3l-168 158l-11 -251q1 -21 -22.5 -32t-80.5 -11q-58 0 -78.5 11t-12.5 32l90 251l-223 -158q-20 -15 -39.5 -0.5t-38.5 63.5q-20 51 -16 76.5t24 31.5l254 93
l-213 88q-10 4 -14.5 12t-2.5 21t12 31.5t29 42.5q20 25 35 39.5t26.5 21t21 4.5t16.5 -10l164 -156l11 251q0 20 23.5 31.5t80.5 11.5q59 0 79 -11.5t12 -31.5l-92 -251l231 161q18 14 37 -1t38 -64z" />
    <glyph glyph-name="plus" unicode="+" horiz-adv-x="1020" 
d="M997 632q0 -7 -1.5 -21t-5 -32t-9 -36t-13 -33t-18 -24.5t-22.5 -9.5h-311l-69 -339q-2 -10 -8.5 -17.5t-19.5 -13t-33.5 -8.5t-50.5 -3t-49.5 3t-30.5 8.5t-15 13t-2 17.5l69 339h-310q-14 0 -22 11t-8 37q0 7 1.5 21t4.5 31t8.5 34t13 31.5t17 23.5t21.5 9h313l68 338
q2 10 9 18.5t20 14t34 8.5t50 3q31 0 50 -3t30 -8.5t14.5 -14t1.5 -18.5l-68 -338h313q14 0 21 -10t7 -32z" />
    <glyph glyph-name="comma" unicode="," horiz-adv-x="528" 
d="M369 221q0 -74 -30.5 -147t-88.5 -137l-172 -192q-18 -20 -46.5 -28.5t-78.5 -8.5q-29 0 -46.5 3t-24.5 8.5t-5 15.5t10 25l176 276l30 148q7 34 18 55t28.5 32t43.5 14.5t64 3.5q36 0 60 -3.5t37.5 -12t19 -21.5t5.5 -31z" />
    <glyph glyph-name="hyphen" unicode="-" horiz-adv-x="627" 
d="M583 561q0 -7 -1.5 -22t-5.5 -33t-10 -36.5t-14 -34.5t-19 -26t-25 -10h-416q-18 0 -25.5 10.5t-7.5 35.5q0 8 1 23.5t4.5 33t9.5 36t14 34t19 24.5t26 9h416q19 0 26.5 -11.5t7.5 -32.5z" />
    <glyph glyph-name="hyphen" unicode="&#x2010;" horiz-adv-x="627" 
d="M583 561q0 -7 -1.5 -22t-5.5 -33t-10 -36.5t-14 -34.5t-19 -26t-25 -10h-416q-18 0 -25.5 10.5t-7.5 35.5q0 8 1 23.5t4.5 33t9.5 36t14 34t19 24.5t26 9h416q19 0 26.5 -11.5t7.5 -32.5z" />
    <glyph glyph-name="hyphen" unicode="&#xad;" horiz-adv-x="627" 
d="M583 561q0 -7 -1.5 -22t-5.5 -33t-10 -36.5t-14 -34.5t-19 -26t-25 -10h-416q-18 0 -25.5 10.5t-7.5 35.5q0 8 1 23.5t4.5 33t9.5 36t14 34t19 24.5t26 9h416q19 0 26.5 -11.5t7.5 -32.5z" />
    <glyph glyph-name="period" unicode="." horiz-adv-x="547" 
d="M362 198q0 -15 -3 -39t-9.5 -49.5t-17 -49t-26 -39t-46 -25t-80.5 -9.5q-37 0 -61.5 6t-39 18t-20.5 30.5t-6 43.5q0 16 3.5 40t10 49.5t17 48.5t26.5 38.5t45 25t81 9.5q39 0 64 -7t39 -19.5t18.5 -31t4.5 -40.5z" />
    <glyph glyph-name="slash" unicode="/" horiz-adv-x="889" 
d="M118 -259q-7 -13 -17.5 -21t-27.5 -13t-40 -7.5t-55 -2.5q-44 0 -70 4t-38.5 12t-12 20.5t8.5 29.5l934 1679q7 13 17 21.5t26.5 13.5t40 7.5t55.5 2.5q43 0 69.5 -4t39 -12t12.5 -20.5t-9 -29.5z" />
    <glyph glyph-name="zero" unicode="0" horiz-adv-x="1038" 
d="M1048 926q0 -51 -6 -117.5t-19.5 -141.5t-34 -153t-49.5 -151.5t-67 -138.5t-85 -112q-62 -61 -149 -98t-209 -37q-100 0 -169.5 27t-113.5 77.5t-64 123.5t-20 165q0 49 6 115.5t19.5 141t34 152.5t50 151.5t67 138.5t85.5 113q30 30 67 55.5t81.5 43t96.5 27t112 9.5
q103 0 173.5 -28t113.5 -79t61.5 -123t18.5 -161zM787 922q0 97 -33 142t-109 45q-42 0 -75 -15t-60 -41q-31 -32 -57 -86t-47 -119.5t-36 -136.5t-25.5 -136.5t-16 -119t-5.5 -83.5q0 -96 33.5 -141t108.5 -45q42 0 75.5 14.5t59.5 40.5q31 31 57 85.5t47 119.5t36.5 136
t26 136.5t15.5 119t5 84.5z" />
    <glyph glyph-name="one" unicode="1" horiz-adv-x="1038" 
d="M878 161q0 -7 -1.5 -22t-5 -33.5t-8.5 -36.5t-12.5 -34t-17.5 -25.5t-21 -9.5h-715q-13 0 -20 11t-7 33q0 7 1.5 21.5t5 32t9 36.5t13 34t17.5 25t23 10h240l166 831l-232 -115q-20 -9 -33 -11.5t-20 1t-9.5 12.5t-2.5 24q0 14 2.5 37.5t9.5 49t18.5 47.5t28.5 31
l317 180q7 4 15 6.5t20.5 4t32.5 2t51 0.5q38 0 61 -1.5t34.5 -5t13.5 -9.5t1 -15l-213 -1069h213q13 0 19 -10.5t6 -31.5z" />
    <glyph glyph-name="two" unicode="2" horiz-adv-x="1038" 
d="M891 163q0 -7 -1.5 -22.5t-5.5 -33.5t-9.5 -37t-13 -34.5t-17 -25.5t-22.5 -10h-744q-20 0 -33 3t-21 10t-11 17t-3 24q0 15 3 40t12 55.5t27.5 62t48.5 58.5l305 267q60 54 104.5 101t75.5 87t50.5 75t30.5 64t14.5 53.5t3.5 43.5t-6 40t-21 38.5t-41.5 29t-67.5 11.5
q-53 0 -101 -15.5t-87 -34t-66.5 -34t-39.5 -15.5q-13 0 -18.5 12t-5.5 33q0 8 1 22t3.5 31t7 35.5t9.5 36t12.5 32t17.5 24.5q12 12 47.5 31t85 36.5t110 30t123.5 12.5q105 0 175 -26.5t111 -68t58 -92t17 -98.5q0 -44 -7.5 -88.5t-26 -92t-51.5 -99t-83.5 -111t-122 -127
t-168.5 -146.5l-184 -155h493q18 0 25 -15t7 -35z" />
    <glyph glyph-name="three" unicode="3" horiz-adv-x="1038" 
d="M934 423q0 -47 -12 -98t-39.5 -100.5t-71 -94.5t-106.5 -79t-147.5 -54t-192.5 -20q-49 0 -93.5 5.5t-85 15t-74.5 23t-61 29.5q-18 11 -25 25t-7 36q0 8 1.5 23t4.5 32.5t7 36t10 34t13.5 25t17.5 9.5q11 0 33 -13t56.5 -29t82.5 -29t111 -13q71 0 122.5 19.5t85.5 51
t50.5 71.5t16.5 81q0 33 -11.5 61t-39 48.5t-72 32.5t-111.5 12h-123q-20 0 -28.5 8.5t-8.5 29.5q0 7 1.5 22t5 32t9.5 35t13.5 32.5t18 24t23.5 9.5h112q67 0 120 18.5t89.5 50t56 73t19.5 88.5q0 55 -34 88.5t-114 33.5q-52 0 -100.5 -16t-88.5 -35t-69 -35t-41 -16
t-17.5 10.5t-5.5 28.5q0 10 2.5 31t8 45.5t15 48t21.5 35.5q13 12 46.5 31t82.5 37t109.5 30.5t125.5 12.5q90 0 156.5 -19.5t110 -55t64.5 -86t21 -112.5q0 -64 -20.5 -124t-59 -109t-94 -85t-125.5 -53v-3q65 -7 109.5 -31.5t72.5 -59t40.5 -75.5t12.5 -81z" />
    <glyph glyph-name="four" unicode="4" horiz-adv-x="1038" 
d="M985 432q0 -9 -2 -24.5t-5.5 -33.5t-9.5 -37t-13.5 -34.5t-17 -25t-20.5 -9.5h-115l-47 -234q-2 -10 -9.5 -17.5t-23 -12.5t-40.5 -7.5t-62 -2.5t-61 2.5t-37 7.5t-17.5 12.5t-2.5 17.5l46 234h-493q-26 0 -35.5 10.5t-9.5 36.5q0 9 2 26t6 38.5t10 45.5t13.5 47.5
t16.5 44.5t20 35l546 713q7 9 21.5 15.5t38 11t58 6.5t81.5 2q51 0 86.5 -2.5t56 -8t29 -13.5t6.5 -19l-156 -779h114q13 0 19.5 -12t6.5 -34zM707 1064h-2l-451 -586h337z" />
    <glyph glyph-name="five" unicode="5" horiz-adv-x="1038" 
d="M941 496q0 -65 -15.5 -129t-47 -121.5t-80.5 -106.5t-114.5 -85t-149 -56.5t-185.5 -20.5q-43 0 -85.5 5t-81 13.5t-72 20t-58.5 24.5q-15 7 -21 17.5t-6 30.5q0 7 1.5 22.5t5 35t8 39.5t11 37t15 28t19.5 11q10 0 30 -12t51.5 -25.5t76.5 -25t105 -11.5q76 0 133.5 21
t97 57.5t59 86.5t19.5 107q0 28 -9.5 53.5t-35 45.5t-68 31.5t-108.5 11.5q-65 0 -116.5 -6t-93.5 -6q-30 0 -39.5 14.5t-1.5 53.5l112 562q8 40 27 57.5t53 17.5h613q15 0 21.5 -11t6.5 -32q0 -10 -2 -27t-6 -37t-10 -41t-14 -38t-18 -28t-23 -11h-460l-55 -277q35 3 61 5
t57 2q105 0 180 -23t122 -63t69 -96t22 -121z" />
    <glyph glyph-name="six" unicode="6" horiz-adv-x="1038" 
d="M977 532q0 -48 -10.5 -108t-34.5 -121.5t-63.5 -120t-100 -104.5t-143 -73.5t-190.5 -27.5q-97 0 -164 26t-109 73.5t-60.5 114.5t-18.5 150q0 35 4 96t16 136t34.5 159t58 167t86.5 158.5t121.5 133t162.5 91.5t208 34q72 0 129.5 -10t100.5 -26q23 -9 31.5 -20.5
t8.5 -30.5q0 -7 -1.5 -20.5t-4 -30.5t-7.5 -35.5t-11.5 -33.5t-15 -25t-19.5 -10q-13 0 -30 6.5t-42.5 14.5t-60 14t-81.5 6q-81 0 -143 -29.5t-107.5 -79.5t-76 -117t-48.5 -141q52 29 118 48t148 19q86 0 145.5 -22.5t97.5 -61.5t55 -90.5t17 -108.5zM715 491q0 28 -8 51
t-24.5 39.5t-43 25t-62.5 8.5q-27 0 -56 -4.5t-56.5 -13.5t-53.5 -21.5t-50 -26.5q-13 -63 -18 -112.5t-5 -88.5q0 -92 35.5 -130.5t103.5 -38.5q42 0 76 15.5t60.5 40.5t45.5 58t31.5 67.5t18.5 68.5t6 62z" />
    <glyph glyph-name="seven" unicode="7" horiz-adv-x="1038" 
d="M1106 1249q0 -14 -3 -39.5t-10.5 -56.5t-20.5 -65t-33 -66l-623 -986q-9 -13 -21 -21t-31 -13t-46.5 -6.5t-66.5 -1.5q-54 0 -85 3.5t-45.5 11.5t-14 19.5t11.5 28.5l659 1009h-537q-14 0 -20 11.5t-6 34.5q0 8 1.5 24.5t5.5 37t10 41.5t14 39t18.5 29t23.5 11h770
q29 0 39 -10.5t10 -34.5z" />
    <glyph glyph-name="eight" unicode="8" horiz-adv-x="1038" 
d="M956 384q0 -36 -9.5 -80.5t-33 -90t-62.5 -88t-98 -76t-140.5 -53t-189.5 -19.5q-100 0 -174.5 21t-123.5 59t-73.5 90.5t-24.5 116.5q0 65 22.5 122t65 106.5t104 92.5t139.5 80q-85 52 -123.5 116t-38.5 141q0 43 11.5 89.5t36 90t63 83t93 69t125.5 46.5t161 17
q107 0 177.5 -24t111.5 -61.5t57.5 -84.5t16.5 -94q0 -67 -22 -124t-61.5 -104t-92.5 -85.5t-114 -68.5q53 -32 90 -64.5t61 -68t35 -74t11 -80.5zM793 1017q0 20 -7 39.5t-23 35t-43 24.5t-66 9q-56 0 -94.5 -17t-63 -43t-35.5 -59t-11 -63q0 -24 4.5 -44.5t18.5 -40.5
t39 -40t66 -44q53 25 93 51.5t67 57t41 63.5t14 71zM692 368q0 24 -7 47t-25 46t-48 46.5t-74 49.5q-73 -34 -121 -65.5t-76 -64t-40 -65.5t-12 -69q0 -25 8.5 -47t28 -39t52 -26.5t81.5 -9.5q61 0 105 16t72.5 43.5t42 63t13.5 74.5z" />
    <glyph glyph-name="nine" unicode="9" horiz-adv-x="1038" 
d="M138 762q0 48 10 108t34 121.5t64 120t100.5 104.5t142.5 73.5t190 27.5q97 0 164 -26t109 -73.5t61 -114.5t19 -150q0 -35 -4 -95.5t-16.5 -136t-35 -160t-59 -167.5t-89.5 -158t-126.5 -133t-169.5 -92t-218 -34q-39 0 -73 3.5t-63 9.5t-54 13.5t-46 15.5
q-23 9 -31.5 20t-8.5 30q0 6 1.5 20t4.5 31.5t7.5 36t11 34t15 25t19.5 9.5q13 0 33 -7t48.5 -15.5t66.5 -15.5t85 -7q85 0 149.5 28.5t111 78.5t77 117t49.5 142q-51 -29 -117 -48t-148 -19q-86 0 -145.5 22.5t-97 61.5t-54.5 90.5t-17 108.5zM399 803q0 -28 8 -51.5
t24.5 -40t43 -25t62.5 -8.5q28 0 56.5 4.5t56 13.5t53.5 21.5t50 26.5q12 63 18 113.5t6 88.5q0 92 -36 131t-104 39q-42 0 -76 -15t-60.5 -40.5t-45.5 -58.5t-31 -68t-18.5 -69t-6.5 -62z" />
    <glyph glyph-name="colon" unicode=":" horiz-adv-x="565" 
d="M506 790q-8 -42 -20.5 -70t-32 -46t-48.5 -26t-69 -8q-41 0 -66.5 8t-38.5 26t-14 46t8 70q8 42 20.5 71.5t32 47.5t48 26t69.5 8q40 0 66 -8t39 -26t14 -47.5t-8 -71.5zM376 137q-8 -42 -20.5 -70.5t-32.5 -46t-49 -25.5t-69 -8q-41 0 -66.5 7.5t-38.5 25t-13.5 46
t7.5 71.5q8 42 20 71t31.5 47t48 26t69.5 8t67 -8t38.5 -26t14 -47t-6.5 -71z" />
    <glyph glyph-name="semicolon" unicode=";" horiz-adv-x="565" 
d="M507 791q-8 -42 -20.5 -70.5t-32 -46t-48.5 -26t-70 -8.5t-66.5 8t-38.5 25.5t-14 46t8 71.5q9 45 21.5 74t32 46.5t48 24.5t69.5 7q42 0 67.5 -8.5t38 -26.5t13.5 -47t-8 -70zM391 221q0 -74 -32.5 -147t-89.5 -137l-171 -188q-9 -10 -19.5 -17t-25 -11.5t-33 -6.5
t-43.5 -2q-30 0 -46.5 2.5t-22.5 8.5t-3 16t11 24l174 273l30 148q7 34 17 55t26.5 32t42 14.5t63.5 3.5q36 0 59.5 -3.5t37.5 -12t19.5 -21.5t5.5 -31z" />
    <glyph glyph-name="less" unicode="&#x3c;" horiz-adv-x="1020" 
d="M1026 1032q0 -26 -6 -57.5t-16.5 -60t-24.5 -50.5t-31 -29l-623 -263l512 -266q31 -16 31 -50q0 -14 -2 -34t-6 -41.5t-10 -41.5t-14.5 -35t-19.5 -21t-23 1l-689 381q-10 5 -15.5 16t-5.5 32q0 18 3.5 45t11.5 53.5t20 48.5t29 29l834 377q24 11 34.5 2.5t10.5 -36.5z
" />
    <glyph glyph-name="equal" unicode="=" horiz-adv-x="1020" 
d="M922 428q0 -7 -1.5 -21t-4.5 -30.5t-8 -34t-13 -31.5t-18.5 -23t-24.5 -9h-762q-15 0 -23.5 10t-8.5 35q0 12 3.5 36.5t11.5 49t21.5 43t33.5 18.5h763q16 0 23.5 -11t7.5 -32zM1003 832q0 -7 -1.5 -21t-4.5 -30.5t-8 -34t-13 -31.5t-19 -23.5t-24 -9.5h-762
q-15 0 -23.5 10.5t-8.5 35.5q0 12 3.5 36t11.5 49t21.5 43t32.5 18h763q17 0 24.5 -10.5t7.5 -31.5z" />
    <glyph glyph-name="greater" unicode="&#x3e;" horiz-adv-x="1020" 
d="M37 121q0 26 5.5 57.5t16 60t25 50.5t31.5 29l623 263l-512 266q-32 16 -32 50q0 14 2 34t6 41.5t10.5 42t15 35t19 21t23.5 -0.5l689 -382q10 -6 15.5 -16.5t5.5 -31.5q0 -17 -3.5 -44.5t-11.5 -54t-20.5 -48.5t-29.5 -29l-834 -377q-24 -11 -34 -2t-10 36z" />
    <glyph glyph-name="question" unicode="?" horiz-adv-x="949" 
d="M973 1049q0 -78 -22.5 -153t-71 -135.5t-124.5 -101.5t-183 -51l-46 -191q-5 -18 -34.5 -27t-82.5 -9q-32 0 -54 1.5t-35 5.5t-17 11t-2 18l37 236q5 32 13.5 52t21.5 32t29.5 16.5t37.5 4.5h8q72 0 121.5 24.5t79.5 61.5t43 81.5t13 84.5q0 37 -11 69t-33.5 55.5
t-56.5 36.5t-80 13q-54 0 -95 -11t-71.5 -24.5t-50 -25t-30.5 -11.5q-10 0 -14.5 10.5t-4.5 34.5q0 10 2.5 31.5t7.5 44.5t12.5 44t18.5 32q12 12 42 25.5t70 24.5t85 18t88 7q76 0 134 -13.5t101 -37.5t72.5 -56t48 -69.5t26 -78t7.5 -80.5zM509 194q0 -18 -4 -42
t-10.5 -48.5t-16.5 -46t-22 -34.5q-20 -19 -49 -28.5t-75 -9.5q-36 0 -60 5.5t-37 16.5t-18 26.5t-5 35.5q0 16 3 39.5t10 48.5t16.5 47.5t23.5 36.5q22 22 51.5 30.5t71.5 8.5q39 0 62.5 -6.5t36.5 -18t17.5 -27.5t4.5 -34z" />
    <glyph glyph-name="at" unicode="@" horiz-adv-x="1840" 
d="M1755 847q0 -58 -10.5 -132t-34 -151.5t-62.5 -151.5t-95.5 -132t-132 -93.5t-173.5 -35.5q-50 0 -89.5 12.5t-67 35t-42.5 54.5t-16 72q-31 -43 -70 -75.5t-81 -54.5t-85.5 -33t-82.5 -11q-48 0 -82.5 11t-59 29t-39.5 42t-23.5 50.5t-11.5 54t-3 52.5q0 50 11 113
t34.5 128.5t59.5 127t86.5 110.5t114.5 78.5t144 29.5q34 0 63 -7t54.5 -22.5t49 -40t46.5 -59.5l24 79q6 18 27 27t73 9q53 0 70.5 -9t11.5 -27l-136 -431q-27 -84 -13.5 -122t66.5 -38q41 0 76 24.5t63.5 65t49.5 92t35 106t21 108t7 97.5q0 68 -20.5 126.5t-71 102.5
t-136.5 69t-216 25q-126 0 -226 -29t-177 -78.5t-133 -114.5t-95 -136.5t-63.5 -145t-38.5 -140.5t-18.5 -122t-4.5 -90q0 -49 7.5 -95.5t27 -86.5t52 -73t83.5 -57t122 -37t166 -13q81 0 145.5 9t111 19.5t76 20t41.5 9.5q15 0 20 -9.5t5 -25.5q0 -14 -4 -35.5t-10 -44
t-14.5 -41.5t-17.5 -29q-9 -9 -43 -20t-85 -20.5t-116 -15.5t-137 -6q-130 0 -228.5 19.5t-170.5 55t-120.5 84.5t-77.5 108.5t-41 127t-12 138.5q0 61 9 138.5t32 163.5t60 176t92.5 174.5t131.5 159.5t176 130.5t225.5 88t280.5 32.5q164 0 284 -35t198 -99.5t116 -156
t38 -203.5zM1071 688q-23 51 -52.5 77t-69.5 26q-39 0 -71 -19t-57.5 -49.5t-44.5 -69.5t-32 -77.5t-19 -75t-6 -62.5q0 -51 17.5 -75.5t55.5 -24.5q29 0 66 20.5t73 56t66 81t45 97.5zM0 1294z" />
    <glyph glyph-name="A" unicode="A" horiz-adv-x="1241" 
d="M1126 98q5 -36 4.5 -57t-14 -31.5t-44.5 -13t-85 -2.5q-38 0 -62 1.5t-37 5.5t-18 12t-6 22l-35 260h-486l-134 -254q-7 -14 -16 -23.5t-26 -14.5t-45.5 -7t-71.5 -2q-46 0 -71.5 3t-34 14.5t-2 32.5t25.5 56l628 1148q10 17 20 27.5t28.5 16t50 7t82.5 1.5
q59 0 93.5 -1.5t53.5 -7t25 -16.5t8 -30zM733 1047h-1l-289 -550h364z" />
    <glyph glyph-name="B" unicode="B" horiz-adv-x="1148" 
d="M1107 1030q0 -59 -16.5 -111.5t-48 -96t-76 -77t-99.5 -53.5q44 -8 81 -28t63.5 -51t41 -73.5t14.5 -95.5q0 -48 -13 -99.5t-41 -100.5t-73 -93.5t-108.5 -78t-146.5 -53t-193 -19.5h-359q-41 0 -59.5 20t-9.5 63l226 1128q8 44 35.5 63.5t63.5 19.5h311q103 0 178 -16
t126 -48.5t77 -82t26 -117.5zM836 981q0 28 -10 49t-30 36t-50.5 23t-77.5 8h-143l-68 -336h148q65 0 108 20.5t70.5 53t40 71.5t12.5 75zM792 431q0 64 -47.5 101t-151.5 37h-175l-73 -368h186q71 0 119.5 20t80 52t46.5 73.5t15 84.5z" />
    <glyph glyph-name="C" unicode="C" horiz-adv-x="1062" 
d="M1145 1169q0 -28 -9.5 -75t-24 -75.5t-32.5 -28.5q-13 0 -31 16.5t-47 35.5t-74 35.5t-112 16.5q-74 0 -135 -29.5t-109 -78t-84 -111.5t-59.5 -131t-35 -135.5t-11.5 -125.5q0 -70 17.5 -123t50.5 -88t81 -52.5t108 -17.5q71 0 121.5 15t86 33t59 33t42.5 15
q13 0 17.5 -9.5t4.5 -26.5q0 -7 -2 -21t-5 -31.5t-7 -38t-9 -38t-11.5 -32t-17.5 -25.5t-43 -28.5t-78 -32.5t-104 -25.5t-124 -10.5q-109 0 -196.5 29t-148.5 88t-94 148t-33 208q0 93 19 193.5t57.5 196.5t97.5 182t139.5 150.5t183 102.5t227.5 38q70 0 132.5 -14.5
t109 -38.5t65 -43.5t18.5 -49.5z" />
    <glyph glyph-name="D" unicode="D" horiz-adv-x="1291" 
d="M1270 826q0 -60 -7.5 -127t-25 -136.5t-47 -138t-73.5 -131t-104.5 -116.5t-139.5 -93.5t-178 -61.5t-236 -22h-329q-16 0 -30.5 4t-24 13.5t-13 25.5t1.5 40l226 1128q8 44 35 63.5t64 19.5h312q154 0 257.5 -30t173 -89t104 -146.5t34.5 -202.5zM994 795q0 63 -17 117
t-55 93t-97.5 61t-159.5 22h-137l-177 -880h138q105 0 176.5 25.5t126 70t93 103t63 123.5t35.5 133t11 132z" />
    <glyph glyph-name="E" unicode="E" horiz-adv-x="999" 
d="M1056 1256q0 -6 -1.5 -21t-4.5 -33.5t-8 -38.5t-12.5 -36.5t-18 -27.5t-22.5 -11h-462l-64 -316h392q14 0 20 -10t6 -28q0 -7 -1.5 -21.5t-4.5 -33t-8 -37.5t-12.5 -35t-17.5 -26t-22 -10h-391l-74 -365h468q12 0 18 -10.5t6 -30.5q0 -7 -1 -22t-4.5 -33.5t-8.5 -37.5
t-12.5 -35.5t-17.5 -26.5t-23 -10h-650q-16 0 -29 4.5t-21.5 15t-11.5 26t1 37.5l226 1128q9 44 36 63.5t60 19.5h644q26 0 26 -38z" />
    <glyph glyph-name="F" unicode="F" horiz-adv-x="940" 
d="M1018 1252q0 -6 -1.5 -21.5t-5 -34.5t-8.5 -39.5t-12.5 -38t-17.5 -28.5t-23 -11h-423l-70 -348h398q14 0 20 -11t6 -29q0 -7 -2 -22.5t-5.5 -34t-9 -39t-13 -37t-17.5 -27.5t-23 -11h-395l-96 -483q-2 -11 -10 -19t-24.5 -13t-42.5 -8t-64 -3q-39 0 -63.5 3t-38.5 8
t-19 13t-2 19l234 1174q9 44 36 63.5t60 19.5h606q17 0 21.5 -11t4.5 -31z" />
    <glyph glyph-name="G" unicode="G" horiz-adv-x="1305" 
d="M1312 1156q0 -10 -1.5 -26t-5 -34.5t-8.5 -37t-12 -33.5t-15.5 -24.5t-17.5 -9.5q-15 0 -42 17t-70 38t-105 38t-147 17t-156 -24.5t-129.5 -67t-103 -100t-75 -123.5t-45.5 -137t-15 -140q0 -77 22 -135t63.5 -97t100.5 -59t132 -20q49 0 97 10t89 30l60 299h-244
q-12 0 -19 9.5t-7 30.5q0 10 2 26t5.5 33.5t8.5 35.5t12.5 32t16.5 23t20 9h437q33 0 47 -22t6 -62l-104 -518q-4 -19 -10 -32.5t-16 -24.5q-11 -12 -51 -28.5t-97.5 -32.5t-128.5 -27t-145 -11q-139 0 -245 32t-177.5 95.5t-108.5 155.5t-37 212q0 108 23.5 212t70 197.5
t115 173t159 137.5t201.5 90.5t243 32.5q73 0 138 -11.5t116.5 -28t86.5 -35.5t46.5 -29.5t15.5 -23.5t4 -32z" />
    <glyph glyph-name="H" unicode="H" horiz-adv-x="1292" 
d="M1064 35q-2 -10 -10 -18t-24 -13t-42 -7.5t-64 -2.5t-63 2.5t-38.5 7.5t-18.5 13t-2 18l104 524h-484l-104 -524q-2 -10 -10 -18t-24.5 -13t-42 -7.5t-63.5 -2.5q-39 0 -63.5 2.5t-38.5 7.5t-19 13t-2 18l245 1224q1 10 9 18t24 13t42 7.5t64 2.5t63 -2.5t39 -7.5
t18.5 -13t2.5 -18l-95 -476h485l94 476q2 10 10 18t24 13t42 7.5t64 2.5t63 -2.5t39 -7.5t18.5 -13t2.5 -18z" />
    <glyph glyph-name="I" unicode="I" horiz-adv-x="546" 
d="M319 35q-2 -10 -10 -18t-24.5 -13t-42.5 -7.5t-64 -2.5q-39 0 -63.5 2.5t-38.5 7.5t-19 13t-2 18l245 1224q1 10 9.5 18t25 13t42 7.5t63.5 2.5t62.5 -2.5t39 -7.5t19 -13t2.5 -18z" />
    <glyph glyph-name="J" unicode="J" horiz-adv-x="678" 
d="M515 344q-17 -82 -46 -149.5t-75.5 -115t-112 -73.5t-154.5 -26q-47 0 -89.5 7t-70 19t-35 22.5t-7.5 29.5q0 8 2 25t6 38t9.5 43.5t12.5 41t15 30t16 11.5q13 0 23 -6t23.5 -13.5t32 -14t47.5 -6.5q30 0 53 8.5t39.5 27t28.5 47.5t20 72l181 898q2 10 9.5 17.5t24 12.5
t42.5 7.5t64 2.5q37 0 61.5 -2t39 -7t20 -12.5t3.5 -18.5z" />
    <glyph glyph-name="K" unicode="K" horiz-adv-x="1120" 
d="M1223 1258q0 -18 -13 -38t-42 -52l-458 -485l272 -577q8 -20 12 -34.5t4 -26.5q0 -14 -6.5 -23.5t-22.5 -15.5t-43.5 -9t-69.5 -3t-68 2.5t-41 7.5t-22 14t-11 21l-274 613l-121 -616q-2 -11 -10 -18.5t-24.5 -13t-42 -8t-63.5 -2.5q-39 0 -63.5 2.5t-38.5 8t-19 13
t-2 18.5l244 1223q1 11 9 18.5t24.5 12.5t42 7.5t64.5 2.5q38 0 62.5 -2.5t38.5 -7.5t19 -12.5t3 -18.5l-110 -553l480 549q10 12 21.5 21t29.5 14t44 7.5t65 2.5q40 0 65.5 -2.5t39.5 -8t19.5 -13t5.5 -18.5z" />
    <glyph glyph-name="L" unicode="L" horiz-adv-x="866" 
d="M788 177q0 -7 -1.5 -22.5t-5 -35.5t-9 -41t-13 -38.5t-17.5 -28.5t-23 -11h-593q-16 0 -29.5 4.5t-22 15t-11.5 26t1 37.5l236 1176q1 10 9 18t24.5 13t42 7.5t64.5 2.5q38 0 63 -2.5t39 -7.5t18.5 -13t2.5 -18l-208 -1042h408q14 0 19.5 -11t5.5 -29z" />
    <glyph glyph-name="M" unicode="M" horiz-adv-x="1790" 
d="M1563 35q-3 -10 -9 -18t-20.5 -13t-39.5 -7.5t-62 -2.5q-39 0 -63 2.5t-37 7.5t-16.5 13t-1.5 18l210 1053h-2l-587 -1052q-12 -25 -46.5 -33.5t-97.5 -8.5q-65 0 -93.5 11.5t-29.5 28.5l-152 1055h-2l-211 -1054q-2 -10 -8.5 -18t-21 -13t-39 -7.5t-62.5 -2.5t-62 2.5
t-37 7.5t-17 13t-1 18l230 1153q5 25 15.5 45t26 33.5t35.5 20.5t43 7h164q44 0 75 -7.5t51 -25.5t30.5 -47t14.5 -70l125 -770h5l444 770q20 39 40 67.5t44.5 47t54.5 27t71 8.5h186q25 0 43 -7t28.5 -20.5t13 -33t-1.5 -44.5z" />
    <glyph glyph-name="N" unicode="N" horiz-adv-x="1344" 
d="M1127 92q-4 -23 -15.5 -41t-27 -30t-34 -17.5t-38.5 -5.5h-112q-36 0 -59 7t-39.5 25t-29.5 49t-27 79l-191 578q-22 67 -40.5 135t-35.5 135h-2q-10 -79 -23 -155.5t-29 -153.5l-132 -661q-2 -10 -9.5 -18t-22.5 -13t-38.5 -8t-58.5 -3t-57.5 3t-34.5 8t-15.5 13
t-0.5 18l233 1164q9 47 41 70.5t72 23.5h137q33 0 56.5 -7.5t40 -24t29 -42.5t23.5 -64l193 -583q19 -56 34.5 -111t32.5 -110h2q11 72 24.5 148.5t27.5 148.5l123 610q2 10 9 17.5t21.5 12t37.5 7t58 2.5t58 -2.5t35 -7t16 -12t2 -17.5z" />
    <glyph glyph-name="O" unicode="O" horiz-adv-x="1369" 
d="M1345 861q0 -88 -16 -188t-51.5 -198.5t-93.5 -188.5t-141 -158.5t-195 -109.5t-255 -41q-121 0 -213.5 27t-156 83t-96 141t-32.5 200q0 94 16.5 196.5t53 201t95.5 187.5t142 157t194 107.5t252 39.5q121 0 213.5 -27.5t155.5 -84t95.5 -142.5t32.5 -202zM1067 836
q0 61 -13.5 110.5t-43.5 83.5t-78.5 52.5t-118.5 18.5q-87 0 -153 -33.5t-115 -87.5t-82 -123.5t-53 -141t-28.5 -139.5t-8.5 -119q0 -62 13.5 -111t44 -82.5t79 -51.5t119.5 -18q86 0 152 33t114.5 86.5t81.5 122.5t53 140t28.5 139t8.5 121z" />
    <glyph glyph-name="P" unicode="P" horiz-adv-x="1090" 
d="M1120 977q0 -56 -12.5 -117t-40.5 -119.5t-72.5 -111t-109 -93t-149.5 -64t-200 -23.5h-135l-83 -414q-2 -10 -10 -18t-25 -13t-43 -7.5t-64 -2.5q-37 0 -61.5 2.5t-38.5 7.5t-19 12.5t-2 18.5l233 1165q9 47 39 70.5t74 23.5h283q52 0 93 -3.5t81 -11.5
q61 -12 109.5 -37t82.5 -62.5t52 -88t18 -114.5zM843 947q0 48 -23 83t-71 49q-21 7 -47 9.5t-58 2.5h-116l-86 -439h120q57 0 97.5 13.5t71 35.5t52 52t35 63t19.5 66.5t6 64.5z" />
    <glyph glyph-name="Q" unicode="Q" horiz-adv-x="1387" 
d="M1304 -53q0 -9 -2 -26t-6 -37t-10 -40.5t-14 -37t-17.5 -27t-21.5 -10.5q-10 0 -32.5 5.5t-53.5 18t-68.5 32.5t-76.5 49t-78 66.5t-73 85.5q-53 -24 -116.5 -36.5t-141.5 -12.5q-121 0 -214 27t-156 83t-95.5 141t-32.5 200q0 94 16.5 196.5t53 201t95 187.5t142 157
t194 107.5t252.5 39.5q120 0 213 -27.5t156 -84t95.5 -142.5t32.5 -202q0 -57 -6.5 -120t-20.5 -127t-36.5 -128.5t-54 -126t-74 -117t-96.5 -104.5q47 -49 87 -76t70.5 -42.5t51 -22.5t27.5 -14t9 -14t2 -22zM1067 836q0 61 -13.5 110.5t-43.5 83.5t-79 52.5t-118 18.5
q-87 0 -153.5 -33.5t-115 -87.5t-81.5 -123.5t-53 -141t-28.5 -139.5t-8.5 -119q0 -62 13.5 -111t44 -82.5t79 -51.5t118.5 -18q86 0 152 33t114.5 86.5t82 122.5t53.5 140t28.5 139t8.5 121z" />
    <glyph glyph-name="R" unicode="R" horiz-adv-x="1153" 
d="M1135 1012q0 -64 -17.5 -127t-55.5 -119t-98.5 -101t-147.5 -72q48 -19 80.5 -75.5t53.5 -154.5l53 -263q4 -22 6.5 -39.5t2.5 -29.5q0 -10 -6.5 -17t-23.5 -11.5t-46.5 -6.5t-74.5 -2q-42 0 -67.5 2.5t-39.5 8t-18.5 14.5t-6.5 21l-50 287q-8 50 -21.5 88t-34.5 63.5
t-51.5 38t-72.5 12.5h-82l-99 -494q-2 -10 -10 -18t-24.5 -13t-42.5 -7.5t-64 -2.5t-62.5 2.5t-38.5 7.5t-19 12.5t-2 18.5l236 1176q8 44 35.5 63.5t63.5 19.5h347q91 0 164.5 -17t125.5 -52t80 -88t28 -125zM853 963q0 28 -9.5 52t-30.5 41.5t-54.5 27t-80.5 9.5h-149
l-73 -367h125q75 0 127 21.5t84 55.5t46.5 75.5t14.5 84.5z" />
    <glyph glyph-name="S" unicode="S" horiz-adv-x="953" 
d="M959 1195q0 -8 -1.5 -23t-4.5 -33t-7.5 -36.5t-11 -34t-14.5 -25.5t-17 -10q-14 0 -35 12.5t-51.5 27t-71.5 27t-93 12.5q-54 0 -91.5 -15t-61.5 -39.5t-35.5 -55t-11.5 -61.5q0 -36 18 -63.5t48 -51t68.5 -45.5t78 -46t78 -52.5t68.5 -66t48 -86t18 -111.5
q0 -94 -38 -174.5t-107.5 -140t-168 -93.5t-218.5 -34q-65 0 -120 10.5t-97.5 25.5t-71.5 31.5t-43 31.5t-14 45q0 8 2 24t5.5 34.5t8.5 38t12 35.5t15.5 26t18.5 10q17 0 40.5 -15.5t58.5 -34t83 -34.5t115 -16q59 0 103.5 15t74.5 41t45.5 60.5t15.5 75.5q0 37 -18 65
t-47.5 51.5t-67 44.5t-76.5 45t-76.5 52t-67 65.5t-47.5 86.5t-18 114q0 90 36 166t100 130.5t153 85t196 30.5q50 0 95 -7.5t82 -19t63 -25.5t36 -23.5t14.5 -20t4.5 -26.5z" />
    <glyph glyph-name="T" unicode="T" horiz-adv-x="1014" 
d="M1155 1252q0 -7 -1.5 -22.5t-5 -34.5t-9 -39.5t-13 -37.5t-18 -28t-22.5 -11h-325l-208 -1043q-3 -10 -11 -18t-24.5 -13t-42 -8t-64.5 -3q-38 0 -63 3t-38.5 8t-18 13t-2.5 18l208 1043h-322q-15 0 -20.5 11t-5.5 30q0 8 1.5 23.5t5 35t9 40t13.5 37.5t18 27.5t22 10.5
h912q12 0 18.5 -11t6.5 -31z" />
    <glyph glyph-name="U" unicode="U" horiz-adv-x="1337" 
d="M1199 477q-25 -124 -78 -217.5t-132 -156.5t-181.5 -94.5t-226.5 -31.5q-132 0 -226.5 32.5t-149.5 96.5t-71 160.5t10 223.5l154 768q2 10 9.5 18t24 13t42 8t64.5 3q38 0 63 -3t39 -8t18.5 -13t2.5 -18l-154 -768q-16 -77 -9 -133t33.5 -92.5t71.5 -54t108 -17.5
q64 0 118.5 19.5t96.5 57t71.5 91.5t43.5 123l155 774q2 10 9.5 18t23 13t41.5 8t64 3t62 -3t38 -8t18.5 -13t2.5 -18z" />
    <glyph glyph-name="V" unicode="V" horiz-adv-x="1211" 
d="M702 46q-9 -17 -19 -27.5t-29 -16t-50.5 -7t-82.5 -1.5q-59 0 -94 1.5t-53 7t-24.5 16.5t-8.5 30l-158 1169q-3 27 -2 43.5t14 25t40.5 11t76.5 2.5t76.5 -2t42 -7.5t18.5 -15.5t6 -26l110 -996h2l503 1000q7 14 16 23.5t25.5 14.5t44 7t72.5 2q48 0 75 -3t36 -14
t2 -32.5t-26 -57.5z" />
    <glyph glyph-name="W" unicode="W" horiz-adv-x="1857" 
d="M1422 65q-10 -24 -23 -38.5t-35 -21.5t-55.5 -9t-84.5 -2q-54 0 -87.5 2t-52 8.5t-25.5 19.5t-8 34l-47 829h-2l-359 -822q-10 -24 -21.5 -38.5t-30.5 -21.5t-52 -9t-85 -2q-60 0 -96 2t-55.5 9t-26 22t-7.5 41l-70 1138q-1 32 1.5 51t16.5 28.5t41.5 12t77.5 2.5
q41 0 69 -2.5t41.5 -9t17 -17.5t3.5 -29l26 -987h2l437 986q8 19 17.5 30.5t26.5 18t44.5 8.5t73.5 2t73 -2t41 -8.5t18 -18.5t5 -32l50 -984h2l425 998q5 14 13.5 23.5t25 14.5t44.5 7t72 2q43 0 67.5 -3.5t33.5 -14.5t3 -32.5t-21 -56.5z" />
    <glyph glyph-name="X" unicode="X" horiz-adv-x="1128" 
d="M794 667l199 -565q11 -36 12.5 -57.5t-12 -33t-45.5 -14.5t-89 -3q-41 0 -65 2t-37.5 6.5t-19 12.5t-9.5 20l-157 470l-332 -470q-9 -12 -18.5 -20t-27 -12.5t-46 -6.5t-73.5 -2q-53 0 -83 3t-39 14t0.5 32t34.5 56l427 570l-181 526q-11 35 -12.5 56t12 32t45.5 14t88 3
q43 0 67.5 -2t38.5 -7t20 -14t10 -23l137 -422l302 427q8 12 17.5 20t25.5 12.5t42.5 6.5t70.5 2q54 0 85 -3t40.5 -14t0.5 -32t-34 -56z" />
    <glyph glyph-name="Y" unicode="Y" horiz-adv-x="1064" 
d="M668 491l-90 -456q-3 -10 -11 -18t-24.5 -13t-42.5 -7.5t-64 -2.5t-63 2.5t-38.5 7.5t-18 13t-2.5 18l90 456l-212 705q-11 35 -13.5 56t9.5 31.5t42 13.5t85 3q42 0 66.5 -1.5t38.5 -6.5t19.5 -14.5t9.5 -24.5l87 -311q15 -56 26.5 -106.5t20.5 -105.5h2q28 54 58 106
t64 104l207 316q8 13 17 21.5t25 13.5t42.5 7t71.5 2q58 0 88.5 -3.5t40 -15t-1 -32t-33.5 -53.5z" />
    <glyph glyph-name="Z" unicode="Z" horiz-adv-x="979" 
d="M996 1294q28 0 45.5 -14t17.5 -42q0 -16 -6 -49.5t-15 -62.5q-3 -12 -8 -24t-14 -26.5t-23 -33.5t-36 -46l-643 -785h532q14 0 19.5 -10t5.5 -30q0 -8 -1 -23.5t-4.5 -35t-8.5 -39t-12 -36t-17.5 -27t-22.5 -10.5h-763q-36 0 -52.5 18t-16.5 45q0 8 1.5 22.5t5 30l7 31
t6.5 25.5q4 11 9 22t14.5 25t23.5 33t36 46l646 787h-486q-32 0 -32 43q0 6 1.5 21.5t4.5 34t8.5 38t13.5 35.5t19.5 26.5t26.5 10.5h718z" />
    <glyph glyph-name="bracketleft" unicode="[" horiz-adv-x="665" 
d="M756 1380q0 -7 -1.5 -20t-4 -29t-7.5 -33.5t-11.5 -31t-14.5 -22.5t-19 -9h-152l-279 -1393h151q12 0 18 -9.5t6 -27.5q0 -7 -1.5 -20t-4.5 -29.5t-8 -33t-11.5 -30t-15 -22t-18.5 -8.5h-311q-16 0 -29 5t-21 15t-11 26t1 38l318 1586q8 44 35 63.5t60 19.5h309
q22 0 22 -35z" />
    <glyph glyph-name="backslash" unicode="\" horiz-adv-x="870" 
d="M720 -218q4 -25 2 -40.5t-14 -22.5t-36.5 -9.5t-67.5 -2.5q-40 0 -64 2t-36.5 6t-17 11.5t-5.5 18.5l-257 1651q-4 26 -2.5 41t14 22t37.5 9.5t68 2.5q40 0 63.5 -2t36 -6t16 -11.5t5.5 -18.5z" />
    <glyph glyph-name="bracketright" unicode="]" horiz-adv-x="665" 
d="M365 -254q-9 -45 -35 -64.5t-59 -19.5h-309q-12 0 -18 9.5t-6 29.5q0 7 1.5 20t4.5 28.5t7.5 32t11 30t15.5 22t20 8.5h150l279 1393h-150q-14 0 -19.5 9.5t-5.5 27.5q0 7 1.5 20.5t4 29.5t7.5 33t11.5 30t15.5 21.5t21 8.5h310q16 0 29 -4.5t21 -15t11 -26.5t-1 -37z
" />
    <glyph glyph-name="asciicircum" unicode="^" horiz-adv-x="1020" 
d="M995 596q6 -28 6 -45t-12 -26t-38 -11.5t-70 -2.5q-39 0 -64.5 2.5t-39.5 8t-21 14t-9 20.5l-112 541l-5 -1l-320 -540q-8 -12 -18.5 -20.5t-28.5 -14t-44 -8t-65 -2.5q-44 0 -68.5 2.5t-33 11.5t-2.5 26t24 45l421 656q8 13 22 22.5t35.5 16t51.5 10t70 3.5t68.5 -3.5
t47.5 -10t29 -16t14 -22.5z" />
    <glyph glyph-name="underscore" unicode="_" horiz-adv-x="1020" 
d="M885 -220q0 -6 -1.5 -19.5t-4.5 -29.5t-8 -33t-12.5 -31t-17 -23t-22.5 -9h-950q-17 0 -23.5 11t-6.5 29q0 7 1.5 20t4.5 29.5t8.5 33.5t12.5 31t17 23t23 9h949q16 0 23 -11t7 -30z" />
    <glyph glyph-name="grave" unicode="`" horiz-adv-x="615" 
d="M654 1135q8 -13 9.5 -23t-7 -16.5t-28.5 -9.5t-55 -3q-29 0 -48 1.5t-31.5 6t-21 11t-16.5 16.5l-183 232q-9 11 -9.5 21t11.5 17.5t39 11.5t73 4q34 0 56 -1.5t37 -6.5t24 -12.5t16 -19.5zM0 960z" />
    <glyph glyph-name="a" unicode="a" horiz-adv-x="1081" 
d="M868 33q-4 -21 -31.5 -30t-88.5 -9q-31 0 -50.5 2t-31.5 6.5t-15.5 12t-1.5 18.5l28 143q-15 -32 -48 -67.5t-78 -64.5t-99.5 -48t-112.5 -19q-80 0 -133 28t-85 75.5t-45.5 108.5t-13.5 128q0 63 12 137.5t37 148.5t64 142.5t93.5 121.5t125 84.5t159.5 31.5
q83 0 147 -34.5t112 -100.5l16 79q4 21 31.5 30t88.5 9q30 0 50 -2.5t31.5 -7t15.5 -12t2 -17.5zM744 659q-35 55 -77.5 82.5t-98.5 27.5q-42 0 -77 -20t-62 -53.5t-47.5 -77.5t-34 -91.5t-20 -96t-6.5 -89.5q0 -30 4.5 -57t16.5 -48t32 -33.5t51 -12.5q44 0 90 26.5t86 72
t70.5 106t44.5 129.5z" />
    <glyph glyph-name="b" unicode="b" horiz-adv-x="1081" 
d="M1024 643q0 -66 -12 -141t-37 -149t-64 -142t-94 -120t-125.5 -83t-157.5 -31q-84 0 -148.5 33t-111.5 100l-15 -76q-4 -21 -31.5 -30.5t-88.5 -9.5q-60 0 -81.5 10t-17.5 30l263 1315q2 10 9 18t23 13.5t40.5 8.5t61.5 3t60 -3t36.5 -8.5t17.5 -13.5t2 -18l-71 -358
q-5 -23 -11 -48.5t-13.5 -50.5t-15 -48.5t-14.5 -41.5q18 32 51.5 64.5t76.5 58.5t92.5 42t99.5 16q57 0 99 -14.5t73 -39.5t51 -59t32 -71.5t16.5 -77.5t4.5 -78zM765 618q0 25 -3.5 52t-15 49t-31.5 36t-53 14q-45 0 -90.5 -26.5t-85.5 -72.5t-71 -107t-44 -130l-28 -135
q35 -55 77.5 -81.5t98.5 -26.5q40 0 74 19.5t61.5 51.5t48 75t34.5 90.5t21 96.5t7 95z" />
    <glyph glyph-name="c" unicode="c" horiz-adv-x="843" 
d="M858 867q0 -23 -5.5 -52t-14.5 -55t-22.5 -43.5t-29.5 -17.5q-15 0 -29 12t-34.5 27t-51.5 27.5t-80 12.5q-52 0 -93 -23t-71.5 -59.5t-50.5 -83t-33 -94t-18.5 -91t-5.5 -75.5q0 -81 35.5 -123t111.5 -42q56 0 96 14.5t68.5 32t49 31.5t37.5 14q10 0 14.5 -9t4.5 -26
t-4 -42.5t-10.5 -51.5t-15 -48.5t-22 -35.5t-42.5 -29.5t-67 -29.5t-82.5 -21t-92.5 -8q-171 0 -256 86.5t-85 255.5q0 61 11.5 134t37.5 146.5t67.5 142.5t101.5 122t139 85t182 32q40 0 78 -6t70 -16.5t56.5 -24.5t36.5 -25.5t15.5 -20.5t3.5 -22z" />
    <glyph glyph-name="d" unicode="d" horiz-adv-x="1081" 
d="M869 33q-4 -21 -31.5 -30t-88.5 -9q-31 0 -50.5 2t-31.5 6.5t-15.5 12t-1.5 18.5l27 143q-15 -32 -48 -67.5t-78 -65t-99.5 -48t-112.5 -18.5q-57 0 -99.5 14.5t-73 39.5t-50.5 59t-32 72t-17 78.5t-5 79.5q0 65 12 139.5t37.5 148t64.5 141.5t93.5 120t125 83t158.5 31
q39 0 74.5 -8.5t65 -23t53.5 -34.5t41 -42l95 471q2 10 9 18t22.5 13.5t40 8.5t61.5 3t60.5 -3t36.5 -8.5t17 -13.5t2 -18zM744 658q-35 55 -77.5 83t-98.5 28q-41 0 -75.5 -19.5t-62 -52t-48 -76t-34 -91.5t-20.5 -96t-7 -91q0 -76 25 -114.5t79 -38.5q44 0 90 26.5t86 71
t70.5 105t44.5 129.5z" />
    <glyph glyph-name="e" unicode="e" horiz-adv-x="1006" 
d="M969 730q0 -72 -32.5 -129.5t-101 -99t-174 -63.5t-251.5 -22h-92q-4 -23 -6 -45.5t-2 -41.5q0 -81 42 -122t135 -41q66 0 118.5 9.5t92 21t65.5 21t38 9.5t17 -7t5 -22q0 -17 -3 -39t-8.5 -43.5t-14 -40.5t-19.5 -29q-12 -12 -44 -24t-77 -22t-101 -16.5t-114 -6.5
q-96 0 -167.5 20t-119.5 61t-72 104.5t-24 150.5q0 67 12.5 143.5t40.5 151t72 142.5t106.5 119.5t144.5 82.5t187 31q91 0 156.5 -21.5t107.5 -57t62.5 -81t20.5 -93.5zM722 711q0 40 -31.5 66.5t-91.5 26.5q-50 0 -89.5 -18t-69.5 -48.5t-51.5 -72t-34.5 -88.5h84
q80 0 134 10.5t87 28.5t48 42.5t15 52.5z" />
    <glyph glyph-name="f" unicode="f" horiz-adv-x="648" 
d="M832 1332q0 -6 -1.5 -19.5t-4 -30.5t-6.5 -35t-9.5 -33.5t-12.5 -25t-15 -9.5q-6 0 -15.5 3t-21.5 6.5t-27.5 6.5t-33.5 3q-32 0 -55.5 -9t-40.5 -28.5t-29 -50.5t-20 -74l-15 -76h162q15 0 21 -9.5t6 -30.5q0 -10 -1.5 -26t-5.5 -34.5t-10 -36.5t-13 -33t-16.5 -24.5
t-20.5 -9.5h-164l-157 -784q-17 -83 -46.5 -146t-74.5 -105.5t-106.5 -64t-139.5 -21.5q-52 0 -87 8t-45 16q-5 6 -7 13t-2 20q0 6 1.5 20t4.5 30.5t7.5 34.5t10 33t12.5 24.5t16 9.5q6 0 12 -1t13 -2.5t16.5 -2.5t24.5 -1q32 0 55.5 9.5t40.5 29.5t29 51.5t21 76.5l151 752
h-112q-12 0 -18.5 8.5t-6.5 32.5q0 10 1.5 26t5 34t8.5 36.5t13 33t17.5 24t22.5 9.5h110l19 99q16 84 47 148t76.5 107t107 64.5t139.5 21.5q26 0 52 -2.5t47 -7t37 -10.5t22 -12q6 -5 8.5 -14t2.5 -22z" />
    <glyph glyph-name="g" unicode="g" horiz-adv-x="1081" 
d="M860 -2q-18 -91 -56 -158.5t-100 -113t-150.5 -68.5t-206.5 -23q-85 0 -152.5 13.5t-112.5 34.5q-16 8 -22 18t-6 28q0 6 1 20t4.5 31t8.5 35.5t12.5 33t16.5 24t21 9.5t29.5 -8.5t46.5 -18.5t72 -18.5t106 -8.5q51 0 91.5 8t70.5 26t48.5 46t26.5 69q13 65 26 109t24 72
q-18 -33 -51.5 -65.5t-76.5 -58.5t-92.5 -41.5t-99.5 -15.5q-77 0 -129.5 26t-85.5 72t-47.5 108t-14.5 134q0 65 12 140t37.5 149t64.5 142t93.5 120.5t125 83.5t158.5 31q83 0 147 -34.5t112 -100.5l16 79q4 21 31.5 30t88.5 9q30 0 50 -2.5t31.5 -7t15.5 -12t2 -17.5z
M744 660q-35 55 -77.5 82.5t-98.5 27.5q-42 0 -76.5 -20t-62 -53.5t-48 -77.5t-34 -92t-20 -96t-6.5 -91q0 -34 6 -62t18.5 -47.5t32 -30t47.5 -10.5q44 0 90 26.5t86 72t70.5 106.5t44.5 130z" />
    <glyph glyph-name="h" unicode="h" 
d="M873 34q-2 -10 -9.5 -17.5t-23 -12.5t-40 -7.5t-62.5 -2.5q-36 0 -59.5 2.5t-36.5 7.5t-17.5 12.5t-2.5 17.5l107 535q4 21 7 47.5t3 47.5q0 22 -4.5 40.5t-14.5 32t-26 21t-38 7.5q-41 0 -85.5 -26t-84 -71t-70.5 -105t-44 -127l-81 -402q-2 -10 -9.5 -17.5t-23 -12.5
t-40.5 -7.5t-61 -2.5q-37 0 -60.5 2.5t-37 7.5t-17.5 12.5t-2 17.5l263 1315q2 10 9 18t23 13.5t40.5 8.5t61.5 3t60.5 -3t36.5 -8.5t17 -13.5t2 -18l-71 -362q-5 -22 -11 -47t-13.5 -49.5t-15 -47.5t-14.5 -41q19 32 52 64t75.5 58t92 42.5t101.5 16.5q68 0 115 -19t77 -53
t43.5 -81t13.5 -103q0 -36 -4 -71.5t-11 -70.5z" />
    <glyph glyph-name="i" unicode="i" horiz-adv-x="503" 
d="M549 1226q-7 -37 -19 -62.5t-32 -41t-49 -22t-72 -6.5q-42 0 -68.5 6.5t-40 22t-15.5 41t6 62.5q7 36 19 61t32 41t49 23t72 7q42 0 68.5 -7t40 -23t15 -41t-5.5 -61zM291 34q-2 -10 -9.5 -17.5t-23 -12.5t-40.5 -7.5t-61 -2.5q-37 0 -60.5 2.5t-37 7.5t-17.5 12.5
t-2 17.5l177 890q2 10 9.5 17.5t23 13t40 8.5t61.5 3t60.5 -3t37 -8.5t17.5 -13t2 -17.5z" />
    <glyph glyph-name="j" unicode="j" horiz-adv-x="523" 
d="M569 1226q-8 -37 -20 -62.5t-31.5 -41t-48.5 -22t-72 -6.5q-42 0 -68.5 6.5t-40 22t-15.5 41t5 62.5q8 36 19.5 61t32 41t49.5 23t71 7t69 -7t40.5 -23t15 -41t-5.5 -61zM300 -13q-17 -85 -44.5 -150.5t-70 -110.5t-101.5 -68t-138 -23q-49 0 -82.5 7.5t-41.5 14.5
q-5 6 -7 13t-2 21q0 7 1.5 21.5t4.5 32t8 36t11 33.5t13.5 24.5t16.5 9.5q6 0 11 -1t10.5 -1.5t13.5 -1.5t20 -1q24 0 44.5 8t36 25.5t27.5 46.5t20 73l186 928q2 10 9.5 17.5t23 13t40.5 8.5t61 3t60 -3t37.5 -8.5t17.5 -13t2 -17.5z" />
    <glyph glyph-name="k" unicode="k" horiz-adv-x="983" 
d="M1015 930q0 -16 -13.5 -37.5t-44.5 -54.5l-315 -297l205 -430q10 -24 14 -42t4 -28q0 -12 -6.5 -21t-22 -15t-42 -8.5t-66.5 -2.5t-64.5 2t-38 7t-20 13t-9.5 20l-211 470l-94 -472q-3 -10 -10.5 -17.5t-23 -12.5t-40.5 -7.5t-61 -2.5q-37 0 -60.5 2.5t-36.5 7t-17.5 12
t-2.5 17.5l264 1316q2 10 9 18t23 13.5t40.5 8.5t61.5 3t60.5 -3t36.5 -8.5t17 -13.5t2 -18l-156 -783l334 357q10 12 21.5 20.5t29.5 13.5t43.5 7t63.5 2q37 0 62 -2t39 -6.5t19.5 -11.5t5.5 -16z" />
    <glyph glyph-name="l" unicode="l" horiz-adv-x="503" 
d="M291 34q-2 -10 -9.5 -17.5t-22.5 -12.5t-40 -7.5t-61 -2.5q-38 0 -61.5 2.5t-36.5 7.5t-17.5 12.5t-2.5 17.5l263 1315q2 10 9 18t23 13.5t40.5 8.5t61.5 3t60.5 -3t36.5 -8.5t17 -13.5t2 -18z" />
    <glyph glyph-name="m" unicode="m" horiz-adv-x="1646" 
d="M1439 34q-2 -10 -9.5 -17.5t-23.5 -12.5t-40.5 -7.5t-61.5 -2.5q-36 0 -60 2.5t-37 7.5t-17.5 12.5t-1.5 17.5l107 535q4 23 7 45.5t3 45.5q0 47 -17.5 76t-62.5 29q-40 0 -83 -26t-82.5 -70.5t-70 -104t-43.5 -126.5l-81 -404q-2 -10 -9.5 -17.5t-23.5 -12.5t-40.5 -7.5
t-61.5 -2.5q-36 0 -59.5 2.5t-36.5 7.5t-17.5 12.5t-2.5 17.5l106 535q6 23 8.5 47.5t2.5 47.5q0 44 -18 72.5t-62 28.5q-40 0 -83 -26t-82.5 -70.5t-70 -104t-43.5 -126.5l-81 -404q-2 -10 -9.5 -17.5t-23 -12.5t-40.5 -7.5t-61 -2.5q-37 0 -60.5 2.5t-37 7.5t-17.5 12.5
t-2 17.5l179 893q2 10 8.5 17.5t20 12t35 7t51.5 2.5q31 0 50.5 -2.5t30.5 -7t14.5 -12t1.5 -17.5l-29 -147q21 35 56 71.5t79.5 65.5t97 47.5t108.5 18.5q58 0 100.5 -15.5t70 -43t42 -64.5t18.5 -80q23 36 58.5 72t80 65t96.5 47.5t107 18.5q70 0 117.5 -19.5t76.5 -54
t42 -81t13 -100.5q0 -35 -4 -70.5t-12 -72.5z" />
    <glyph glyph-name="n" unicode="n" 
d="M999 727q0 -35 -4.5 -70t-11.5 -72l-111 -551q-2 -10 -9.5 -17.5t-23 -12.5t-40 -7.5t-61.5 -2.5t-60.5 2.5t-36.5 7.5t-17.5 12.5t-2.5 17.5l108 535q5 24 7.5 49t2.5 44q0 45 -19 74t-64 29q-41 0 -85.5 -26t-84 -70.5t-70.5 -104t-44 -126.5l-81 -404
q-2 -10 -9.5 -17.5t-23 -12.5t-40.5 -7.5t-61 -2.5q-37 0 -60.5 2.5t-37 7.5t-17.5 12.5t-2 17.5l179 893q2 10 8.5 17.5t20 12t35 7t51.5 2.5q31 0 50.5 -2.5t30.5 -7t14.5 -12t1.5 -17.5l-29 -147q21 35 56 71.5t80.5 65.5t99 47.5t111.5 18.5q70 0 117.5 -20.5t77 -55.5
t42.5 -81.5t13 -98.5z" />
    <glyph glyph-name="o" unicode="o" 
d="M1024 626q0 -72 -13.5 -148t-42.5 -148.5t-74.5 -136t-109 -112t-145.5 -76.5t-185 -28q-101 0 -174.5 23.5t-122.5 69t-73 112t-24 152.5q0 72 13.5 148t42.5 148t74.5 136.5t109 112.5t145.5 76t185 28q101 0 174.5 -23.5t122.5 -69t73 -112t24 -152.5zM764 609
q0 42 -8.5 74.5t-28 55t-50 34.5t-74.5 12q-50 0 -90 -19.5t-71.5 -52.5t-54.5 -76.5t-38 -91.5t-22 -97.5t-7 -94.5q0 -42 8.5 -75t28 -55.5t50 -34.5t74.5 -12q50 0 90 19.5t71.5 53t54.5 77t38 92t22 97.5t7 94z" />
    <glyph glyph-name="p" unicode="p" horiz-adv-x="1081" 
d="M1024 643q0 -65 -12 -140t-37 -149t-64 -142.5t-93.5 -120.5t-125 -83t-158.5 -31q-40 0 -75 8t-64.5 22.5t-53.5 34t-42 41.5l-79 -403q-2 -10 -9.5 -18t-23 -13.5t-40.5 -8.5t-62 -3t-60 3t-36.5 8.5t-17.5 13.5t-2 18l250 1247q4 21 31 30t89 9q31 0 50.5 -2.5t31 -7
t15.5 -12t2 -17.5l-28 -145q15 33 47.5 68.5t78 65t100 48.5t112.5 19q77 0 129.5 -26.5t85 -72.5t47 -108t14.5 -133zM765 621q0 34 -5.5 62t-18 47.5t-32 29.5t-47.5 10q-45 0 -90.5 -26.5t-85.5 -72t-71 -106t-44 -129.5l-28 -136q35 -55 77.5 -82.5t98.5 -27.5
q41 0 75.5 20t62 53.5t48 77.5t34 92t20 96.5t6.5 91.5z" />
    <glyph glyph-name="q" unicode="q" horiz-adv-x="1081" 
d="M798 -320q-2 -10 -9.5 -18t-23 -13.5t-40.5 -8.5t-62 -3q-36 0 -59.5 3t-36.5 8.5t-17.5 13.5t-2.5 18l58 289q5 22 11 47t13.5 50.5t15 48.5t14.5 41q-18 -32 -51.5 -64t-76.5 -57.5t-92.5 -41.5t-99.5 -16q-74 0 -126.5 25t-86 69.5t-49 106.5t-15.5 137q0 63 12 137.5
t36.5 148.5t63.5 143t93.5 122.5t125.5 85t160 31.5q83 0 147 -34.5t112 -100.5l16 79q4 21 31.5 30.5t88.5 9.5q30 0 50 -2.5t31.5 -7.5t15.5 -12.5t2 -17.5zM744 660q-35 55 -77.5 82.5t-98.5 27.5q-43 0 -78.5 -21t-63 -56t-47.5 -79.5t-33 -92.5t-19 -95t-6 -86
q0 -78 26.5 -114t77.5 -36q44 0 90 26.5t86 72t70.5 106.5t44.5 130z" />
    <glyph glyph-name="r" unicode="r" horiz-adv-x="721" 
d="M780 940q0 -7 -2 -25t-6 -42t-10 -49.5t-13.5 -47.5t-17 -36t-20.5 -14q-9 0 -18 3.5t-20 7t-24 7t-30 3.5q-34 0 -72.5 -26t-73.5 -68.5t-62.5 -99t-39.5 -118.5l-80 -401q-2 -10 -9.5 -17.5t-23 -12.5t-40.5 -7.5t-61 -2.5q-37 0 -60.5 2.5t-37 7.5t-17.5 12.5t-2 17.5
l178 893q2 10 9 17.5t20.5 12t35 7t51.5 2.5q31 0 50.5 -2.5t30.5 -7t14.5 -12t1.5 -17.5l-28 -142q24 43 55.5 79t67 62.5t73.5 41.5t75 15q15 0 30.5 -2t29 -5t24 -7.5t16.5 -9.5q6 -6 6 -19z" />
    <glyph glyph-name="s" unicode="s" horiz-adv-x="807" 
d="M775 887q0 -12 -3.5 -35.5t-10.5 -47.5t-16.5 -41.5t-21.5 -17.5q-13 0 -30.5 9.5t-42.5 21t-58.5 20.5t-78.5 9q-35 0 -62.5 -9t-45.5 -24.5t-27.5 -36.5t-9.5 -45q0 -31 25.5 -52t63.5 -39.5t82 -38.5t82 -50t63 -73t25 -108q0 -76 -29 -140.5t-84.5 -111.5t-135 -73.5
t-179.5 -26.5q-48 0 -91.5 7t-78 17t-58.5 23t-36 24q-8 8 -11.5 17t-3.5 23q0 9 1.5 23t5 31t8 34t10.5 31t13 22.5t15 8.5q14 0 31 -12t44 -26.5t66.5 -27t98.5 -12.5q41 0 71.5 9.5t50.5 26.5t29.5 39t9.5 47q0 35 -24.5 57t-61.5 41t-80.5 39t-80.5 49t-61.5 72
t-24.5 108q0 71 27 132t79 106.5t126 71t168 25.5q42 0 81.5 -5.5t71 -14.5t55 -20t33.5 -22q11 -10 11 -34z" />
    <glyph glyph-name="t" unicode="t" horiz-adv-x="710" 
d="M741 917q0 -10 -2 -25.5t-5.5 -33.5t-9.5 -36t-13.5 -32.5t-17 -24t-20.5 -9.5h-195l-84 -419q-3 -15 -5.5 -35.5t-2.5 -33.5q0 -40 19 -58.5t60 -18.5q24 0 41 3.5t29.5 8t21.5 8t17 3.5t13.5 -7.5t5.5 -24.5q0 -19 -4 -43t-10.5 -46.5t-14.5 -41t-17 -27.5t-27 -17
t-42.5 -14t-52.5 -9.5t-56 -3.5q-60 0 -105.5 12.5t-76.5 39.5t-46.5 69t-15.5 102q0 11 1 25.5t3.5 30.5t5 32.5t5.5 29.5l87 435h-108q-13 0 -19 8.5t-6 32.5q0 17 3.5 44.5t11.5 54t21 45.5t31 19h107l40 199q2 10 9.5 18t23 13.5t40 8t61.5 2.5q36 0 60 -2.5t37 -8
t17.5 -13.5t2.5 -18l-40 -199h193q17 0 23 -11t6 -32z" />
    <glyph glyph-name="u" unicode="u" 
d="M867 33q-2 -10 -8.5 -17.5t-20 -12t-34.5 -7t-52 -2.5t-50.5 2.5t-30.5 7t-14.5 12t-0.5 17.5l27 145q-20 -35 -55 -70.5t-80.5 -65t-98.5 -47.5t-109 -18q-70 0 -118.5 19.5t-78 53t-43 80.5t-13.5 102q0 34 4.5 69.5t11.5 72.5l110 553q2 10 9.5 17.5t23 12t40.5 7
t61 2.5q37 0 60.5 -2.5t36.5 -7t17.5 -12t2.5 -17.5l-106 -536q-5 -22 -7.5 -46t-2.5 -46q0 -24 4.5 -43.5t14.5 -33.5t25.5 -21t37.5 -7q41 0 85.5 26.5t84.5 73t71.5 110t47.5 137.5l76 386q1 10 9 17.5t23.5 12t40.5 7t61 2.5q37 0 60.5 -2.5t37 -7t17.5 -12t2 -17.5z
" />
    <glyph glyph-name="v" unicode="v" horiz-adv-x="961" 
d="M997 933q0 -11 -3 -27t-9 -34q-37 -108 -82 -216.5t-99 -214.5t-116.5 -208t-135.5 -197q-10 -14 -24 -22.5t-34 -13t-47 -5.5t-63 -1q-55 0 -87 2.5t-49 8.5t-23 16.5t-7 26.5l-105 802q-1 16 -2 30t-1 26q0 20 4.5 30.5t18 17t39 9.5t68.5 3q40 0 63 -2t35.5 -7
t16.5 -13.5t5 -20.5l76 -655v-25l5 9q51 77 92.5 155t77 160t66.5 170t61 186q3 13 11 21t24.5 13t42 7t63.5 2q37 0 60.5 -2t36 -6t17 -10t4.5 -15z" />
    <glyph glyph-name="w" unicode="w" horiz-adv-x="1526" 
d="M1558 933q0 -15 -4 -32t-8 -29q-37 -108 -81.5 -216.5t-97 -214.5t-112.5 -208t-128 -197q-9 -14 -23.5 -22.5t-35 -13t-46.5 -5.5t-60 -1q-42 0 -69 2.5t-41.5 8.5t-20 16.5t-6.5 26.5l-46 550l-246 -548q-8 -17 -17.5 -28t-28 -17t-49 -8.5t-79.5 -2.5q-48 0 -78.5 2.5
t-47 8.5t-23 16.5t-7.5 26.5l-77 807q-1 10 -1.5 23t-0.5 23q0 19 4 31t18 19.5t40.5 11t72.5 3.5q39 0 62 -2t35.5 -7t16.5 -13.5t4 -20.5l43 -656l-1 -12l6 12l294 656q5 12 12.5 20.5t22 13.5t38 7t58.5 2q37 0 60 -2.5t36 -7t18 -12t6 -17.5l52 -658l1 -11l6 11
q37 64 74.5 142t73.5 163t68 174t58 175q2 13 10 21t24 13t41 7t64 2q37 0 60 -2t35.5 -6t16.5 -10t4 -15z" />
    <glyph glyph-name="x" unicode="x" horiz-adv-x="941" 
d="M660 496l160 -444q5 -17 2 -28t-18.5 -18t-44.5 -9.5t-75 -2.5q-42 0 -66 2t-37 6t-17.5 11t-6.5 16l-108 315l-226 -316q-6 -9 -13.5 -15.5t-25 -10.5t-46 -6t-76.5 -2q-43 0 -69 2.5t-38 9t-10.5 17t12.5 27.5l339 444l-149 412q-6 18 -4 29.5t15.5 18.5t42 9.5
t75.5 2.5q41 0 64.5 -1.5t36 -4.5t17 -9.5t7.5 -16.5l104 -298l215 298q6 8 13 14t22 10t39 6t65 2q46 0 73.5 -2t40.5 -8t11.5 -16.5t-14.5 -28.5z" />
    <glyph glyph-name="y" unicode="y" horiz-adv-x="963" 
d="M998 929q0 -13 -3 -29t-9 -33q-34 -92 -73.5 -190t-90.5 -202t-116 -215t-149 -230l-244 -346q-9 -13 -22.5 -21.5t-34 -14t-49.5 -8.5t-67 -3q-43 0 -69.5 3.5t-38.5 11.5t-11 20t14 29l227 299l-147 858q-2 13 -4 27t-2 24q0 18 6.5 29t22 17t41.5 8.5t63 2.5
q41 0 64.5 -1.5t35.5 -6.5t16.5 -15t6.5 -25l92 -625h2q50 75 91 152t75 156.5t62.5 161t52.5 164.5q2 10 9 17.5t23.5 12t43.5 7t70 2.5q64 0 88 -8t24 -29z" />
    <glyph glyph-name="z" unicode="z" horiz-adv-x="814" 
d="M812 924q0 -7 -2 -22t-5 -32t-6.5 -33t-5.5 -25q-7 -26 -20 -47t-36 -48l-422 -515h340q15 0 21.5 -10t6.5 -32q0 -8 -1.5 -23.5t-5 -33.5t-9 -36t-13 -33t-17.5 -24.5t-22 -9.5h-589q-19 0 -29 11.5t-10 35.5q0 8 2 21.5t5 28t6 28t6 21.5q3 11 6.5 21t10 21t16 24
t24.5 30l426 516h-304q-14 0 -21.5 10t-7.5 35q0 10 1.5 25.5t5 32.5t9 35t13.5 32t18 23t22 9h551q21 0 28.5 -9.5t7.5 -26.5z" />
    <glyph glyph-name="braceleft" unicode="{" horiz-adv-x="704" 
d="M813 1386q0 -17 -4.5 -41t-13 -46.5t-20.5 -38t-28 -15.5h-30q-27 0 -47 -8.5t-35 -30.5t-27 -58.5t-23 -93.5l-33 -169q-12 -59 -33.5 -111.5t-54.5 -94.5t-78 -72t-104 -43q42 -10 71 -32.5t47 -52t26 -64t8 -68.5q0 -24 -2.5 -50t-7.5 -49l-43 -213q-6 -33 -9.5 -60.5
t-3.5 -48.5q0 -39 13.5 -55.5t40.5 -16.5h39q22 0 30 -10t8 -27q0 -8 -3 -26.5t-8 -39.5t-12 -40t-16 -28q-5 -5 -15.5 -9t-25 -7t-33 -4.5t-39.5 -1.5q-61 0 -102 15.5t-66 44t-36 69.5t-11 93q0 31 4.5 74.5t14.5 95.5l41 203q4 17 6.5 37.5t2.5 37.5q0 28 -6 51.5
t-18.5 42t-33 31t-48.5 18.5q-16 4 -21 15t-5 29q0 13 2.5 32.5t7.5 40t12 38t15 25.5q8 9 22 12t32 7.5t39 14.5t43 33q28 27 47 70t29 95l38 192q19 90 45 157.5t66 113t96 67.5t134 22q17 0 33.5 -1t31.5 -3.5t26 -6t15 -7.5q6 -6 8 -15.5t2 -18.5z" />
    <glyph glyph-name="bar" unicode="|" horiz-adv-x="973" 
d="M446 -323q-2 -10 -9.5 -18t-22 -13.5t-38 -8t-57.5 -2.5q-35 0 -57 2.5t-34 8t-16.5 13.5t-1.5 18l345 1726q2 10 9.5 18t22.5 13.5t38 8.5t58 3q34 0 56 -3t34.5 -8.5t16.5 -13.5t2 -18z" />
    <glyph glyph-name="braceright" unicode="}" horiz-adv-x="704" 
d="M-40 -286q0 16 4.5 40t12.5 46t20 38t28 16h30q27 0 47 8.5t35.5 30t27 59t22.5 93.5l42 213q12 59 33.5 111t54 94.5t78 72t104.5 42.5q-43 10 -72 32.5t-46.5 52t-25.5 64t-8 69.5q0 25 2.5 50.5t7.5 48.5l34 170q7 32 10 59.5t3 48.5q0 39 -13 55.5t-40 16.5h-39
q-23 0 -30.5 10t-7.5 27q0 8 2.5 27t7.5 39.5t12.5 39.5t16.5 28q5 5 15 9t25 7t33 4.5t39 1.5q60 0 101.5 -15.5t67 -44t36 -69.5t10.5 -92q0 -31 -4.5 -75t-14.5 -96l-33 -159q-3 -17 -5.5 -38t-2.5 -38q0 -27 6 -50.5t18.5 -42.5t32.5 -31.5t49 -18.5q16 -3 21.5 -14.5
t5.5 -29.5q0 -12 -3 -32t-8 -40t-12 -38t-15 -26t-22 -11.5t-31.5 -8t-39 -14.5t-43.5 -33q-27 -27 -47 -69.5t-30 -94.5l-46 -235q-19 -91 -45 -158.5t-65.5 -112.5t-95.5 -67.5t-134 -22.5q-18 0 -34.5 1.5t-31 3.5t-25.5 5.5t-15 8.5q-6 5 -8 15t-2 19z" />
    <glyph glyph-name="asciitilde" unicode="~" horiz-adv-x="1020" 
d="M1077 1106q0 -78 -23 -142.5t-62.5 -110t-93.5 -70.5t-117 -25q-60 0 -100.5 15t-69 37t-49 48.5t-39 49t-39.5 37.5t-51 15q-25 0 -44.5 -10.5t-32.5 -30t-21 -46t-10 -58.5q-1 -19 -24 -27t-70 -8q-53 0 -70.5 10.5t-17.5 28.5q0 77 20.5 141.5t60 110t94 70.5
t122.5 25q58 0 98.5 -15t70 -37t50.5 -48t40 -48.5t39.5 -37.5t48.5 -15q25 0 43.5 10.5t32.5 29.5t21.5 46t9.5 62q1 17 25 24.5t68 7.5q28 0 45 -2.5t27 -7.5t14 -12.5t4 -16.5z" />
    <glyph glyph-name="exclamdown" unicode="&#xa1;" horiz-adv-x="667" 
d="M246.058 767.052q2 9.99902 9.49902 17.998t21.4971 13.498t35.4961 8.49902q21.4971 3 52.4932 3q31.9961 0 52.4941 -3q20.4971 -3 31.4961 -8.49902q10.998 -5.49902 14.998 -13.498q3.99902 -7.99902 2 -17.998l-155.981 -907.89q-2 -12.998 -10.499 -22.9971
q-8.49902 -9.99805 -25.4961 -16.498q-16.998 -6.49902 -43.9951 -9.49805q-26.9971 -3 -65.9922 -3q-39.9951 0 -65.4922 3q-25.4961 2.99902 -39.9951 9.49805q-14.498 6.5 -18.4971 16.498q-4 9.99902 -1 22.9971zM265.056 997.023q0 17.998 3.99902 41.9951
q4 23.9971 10.499 48.4941t16.498 45.9941t22.9971 34.4961q18.998 18.9971 48.4941 28.4961t75.4902 9.49902q35.9961 0 59.4932 -5.49902t36.9951 -16.498q13.499 -10.999 18.498 -26.4971t4.99902 -35.4951q0 -15.998 -2.99902 -39.4951q-3 -23.498 -9.99902 -48.4941
q-6.99902 -24.9971 -16.998 -47.4941q-9.99902 -22.498 -23.9971 -36.4961q-21.9971 -21.9971 -50.9941 -30.4961q-28.9961 -8.49902 -70.9912 -8.49902q-38.9951 0 -62.4922 6.49902t-36.9951 17.998q-13.498 11.498 -17.998 27.4961q-4.49902 15.998 -4.49902 33.9961z
" />
    <glyph glyph-name="cent" unicode="&#xa2;" horiz-adv-x="1020" 
d="M1008 1017q0 -8 -2 -22.5t-5.5 -32t-8.5 -37t-12.5 -35t-18 -25.5t-23.5 -10q-14 0 -29.5 13t-38 29t-55.5 29.5t-81 13.5q-55 0 -98 -22.5t-74.5 -58t-53 -81t-34.5 -92t-19 -90.5t-6 -75q0 -39 8.5 -71t27.5 -54t49.5 -34t75.5 -12q51 0 89 14.5t68 32t52.5 32
t42.5 14.5q9 0 13.5 -9.5t4.5 -27.5q0 -11 -3 -35.5t-8.5 -51.5t-15 -52t-20.5 -37q-14 -13 -34.5 -25.5t-45.5 -22.5t-52.5 -18t-55.5 -13l-27 -136q-4 -21 -28 -30.5t-84 -9.5q-30 0 -49.5 2.5t-30.5 7.5t-15 12.5t-1 17.5l29 137q-68 14 -116 45t-78 76t-43.5 101
t-13.5 121q0 48 8.5 110t28.5 127.5t53 131t82.5 120t116.5 94t156 54.5l26 134q2 10 8.5 18t19.5 13.5t33.5 8t50.5 2.5t49.5 -2.5t30 -8t14 -13.5t1.5 -18l-27 -134q42 -7 76.5 -22.5t64.5 -39.5q14 -12 21 -23t7 -30z" />
    <glyph glyph-name="sterling" unicode="&#xa3;" horiz-adv-x="1038" 
d="M893 163q0 -6 -1.5 -21t-5 -33t-8.5 -37t-12.5 -35t-17.5 -26.5t-22 -10.5h-802q-12 0 -20 10.5t-8 33.5q0 8 2 23t6 33t10 36t13 33t16.5 24.5t19.5 9.5h107l71 356h-106q-14 0 -20.5 11t-6.5 30q0 6 1.5 20.5t5 32t8.5 36t12.5 33.5t17 25t21.5 10h106l23 115
q24 118 66 202t102.5 137.5t139.5 78.5t176 25q38 0 77 -5.5t73.5 -16.5t62.5 -26t47 -34q9 -9 14 -20t5 -26q0 -6 -1.5 -20.5t-4 -32.5t-7.5 -37.5t-11.5 -35t-16 -25.5t-20.5 -10q-16 0 -32 12.5t-39 28.5t-55.5 28.5t-81.5 12.5q-97 0 -155 -66t-83 -194l-18 -91h269
q15 0 21 -12.5t6 -29.5q0 -7 -1.5 -21.5t-5 -32t-9 -35.5t-13 -33t-16.5 -24.5t-21 -9.5h-269l-72 -356h436q15 0 21 -11.5t6 -28.5z" />
    <glyph glyph-name="currency" unicode="&#xa4;" horiz-adv-x="1020" 
d="M906 853q12 -19 19.5 -40.5t11.5 -42t5 -40.5t1 -36q0 -55 -9 -109t-28.5 -105t-49 -97.5t-69.5 -85.5l98 -200q12 -27 14.5 -44t-9 -27t-37.5 -13.5t-70 -3.5q-39 0 -61.5 2t-35.5 6t-18 10.5t-8 17.5l-60 159q-30 -13 -68.5 -21t-83.5 -8q-40 0 -73.5 5.5t-54.5 16.5
l-122 -159q-7 -10 -16 -17t-24 -11t-39.5 -5.5t-62.5 -1.5q-44 0 -69.5 4.5t-34 15.5t-0.5 29t30 44l177 200q-20 32 -31 74.5t-11 93.5q0 55 10.5 110.5t30 107.5t48 97.5t64.5 80.5l-98 204q-12 26 -13.5 43t9.5 27t37.5 13.5t70.5 3.5q38 0 60.5 -1.5t35.5 -5.5t18 -10.5
t8 -17.5l60 -160q28 13 70 21t87 8q42 0 76 -6.5t58 -20.5l122 160q8 10 16.5 17t24.5 11t40 5.5t62 1.5q44 0 70 -4.5t34 -16t0.5 -29.5t-30.5 -44zM715 658q0 30 -7.5 57t-23.5 47.5t-42 32t-62 11.5q-46 0 -80.5 -15t-60.5 -40t-44 -57t-28.5 -65.5t-15.5 -66.5t-5 -60
q0 -71 35.5 -109t105.5 -38q63 0 106 29t70.5 73.5t39.5 98t12 102.5z" />
    <glyph glyph-name="yen" unicode="&#xa5;" horiz-adv-x="1038" 
d="M686 642l-7 -35h249q12 0 17.5 -10t5.5 -26q0 -7 -1.5 -19.5t-5 -27.5t-8 -31.5t-11 -29t-14.5 -21t-18 -8.5h-249l-24 -126h249q12 0 17 -10t5 -24q0 -6 -1.5 -18.5t-4.5 -28.5t-7.5 -32t-10.5 -29.5t-14.5 -22.5t-18.5 -9h-250l-19 -102q-2 -10 -10 -17.5t-24 -12
t-42 -6.5t-64 -2q-39 0 -64 2t-39 6.5t-18.5 12t-2.5 17.5l20 102h-250q-11 0 -16.5 10t-5.5 28q0 8 3.5 30.5t10.5 46t17.5 41.5t25.5 18h250l24 126h-250q-11 0 -15.5 9.5t-4.5 28.5q0 6 1.5 18.5t4.5 27.5t7.5 31t10.5 29t14 21t17 8h250l8 35l-212 554q-14 35 -18 56
t7.5 32t41.5 13.5t84 2.5q43 0 68.5 -1.5t39 -5.5t19 -12t9.5 -22l135 -398l291 398q10 14 20.5 22.5t28 12t45.5 5t73 1.5q48 0 75 -2.5t34 -12.5t-5 -31.5t-41 -57.5z" />
    <glyph glyph-name="brokenbar" unicode="&#xa6;" horiz-adv-x="1020" 
d="M688 771q-3 -10 -10 -18t-21 -13.5t-37.5 -8.5t-57.5 -3t-56.5 3t-35 8.5t-16.5 13.5t-2 18l129 643q2 10 9.5 18t22 13t38 8t57.5 3t56.5 -3t34.5 -8t16 -13t2 -18zM466 -339q-3 -10 -10 -18t-21.5 -13t-37.5 -8t-58 -3q-34 0 -56.5 3t-34.5 8t-16.5 13t-1.5 18l130 648
q2 10 9 17.5t21.5 13.5t38 8.5t57.5 2.5t56.5 -2.5t34.5 -8.5t16 -13.5t2 -17.5z" />
    <glyph glyph-name="section" unicode="&#xa7;" horiz-adv-x="1020" 
d="M958 1253q0 -6 -1.5 -18.5t-4 -28.5t-7 -33t-10.5 -31.5t-14 -23.5t-17 -9q-11 0 -27.5 10.5t-42 23t-60.5 23.5t-83 11q-35 0 -62 -10t-46 -26.5t-29 -39t-10 -48.5q0 -31 18 -54.5t47 -42.5t66.5 -36t76.5 -36.5t76.5 -42.5t66.5 -54.5t47 -72.5t18 -97
q0 -53 -16.5 -102.5t-47.5 -92.5t-74 -79t-95 -62q24 -31 36 -67t12 -67q0 -32 -8.5 -71t-28 -78.5t-52 -76.5t-81 -65.5t-114 -46t-152.5 -17.5q-49 0 -89 6t-72 16t-57 23t-43 25q-11 8 -16 18.5t-5 28.5q0 7 1.5 20.5t4.5 29.5t7.5 33t11 30.5t15 22t18.5 8.5
q14 0 33 -12.5t47.5 -28t68 -28t94.5 -12.5q43 0 74.5 11t51.5 30t30 43t10 52q0 29 -18 50.5t-47.5 40t-67 36t-76 37t-76 43.5t-67 55.5t-47.5 72.5t-18 96q0 58 18.5 109t51 93.5t75.5 76t92 57.5q-24 30 -34.5 62t-10.5 71q0 37 8.5 77.5t27.5 79t50.5 73t77 60.5
t106 41.5t138.5 15.5q43 0 81.5 -6t70 -14.5t53.5 -19.5t33 -22q13 -13 13 -40zM716 578q0 26 -10 44.5t-27.5 33t-40.5 26.5t-48 23t-50.5 22.5t-48.5 26.5q-30 -12 -55.5 -30t-44 -41t-28.5 -49.5t-10 -56.5q0 -25 10 -44t27.5 -33.5t40 -26t47.5 -23t51 -23.5t49 -27
q29 12 54.5 29.5t44 40.5t29 49.5t10.5 58.5z" />
    <glyph glyph-name="dieresis" unicode="&#xa8;" horiz-adv-x="849" 
d="M900 1225q-7 -37 -18.5 -61t-29 -38t-43 -19t-60.5 -5q-34 0 -57 5t-35.5 19t-15 38t4.5 61q6 37 17.5 61t29.5 38t43 19t59 5q35 0 58 -5t36 -19t15.5 -38t-4.5 -61zM509 1225q-7 -37 -18 -61t-29 -38t-43.5 -19t-59.5 -5q-35 0 -58 5t-35.5 19t-15 38t4.5 61
q6 37 17.5 61t29.5 38t43 19t60 5q34 0 57 -5t36 -19t15.5 -38t-4.5 -61zM0 960z" />
    <glyph glyph-name="copyright" unicode="&#xa9;" horiz-adv-x="1709" 
d="M813 135q101 0 181 21.5t142.5 58t108.5 85.5t79 106t54 117.5t32.5 120t16 115t4.5 101.5q0 52 -7.5 100.5t-26.5 91t-51.5 77.5t-82.5 60t-118.5 39t-159.5 14q-105 0 -187 -22.5t-145 -61t-109 -89.5t-77.5 -109t-51.5 -119t-30.5 -119t-14.5 -109.5t-4 -90.5
q0 -52 7 -101t25.5 -92t50.5 -78.5t81.5 -61.5t119 -40t163.5 -14zM1612 879q0 -59 -7 -128.5t-24.5 -144t-47 -150t-74.5 -146t-107 -131t-144.5 -106t-187 -71t-234.5 -25.5q-117 0 -207 19.5t-156.5 54t-111.5 83t-73 106t-40 122t-12 133.5q0 58 7 128.5t24 145
t46.5 150.5t73.5 146t106.5 131t145 106.5t187.5 71.5t236 26q114 0 202.5 -19t155 -53t112.5 -81.5t75 -105t42 -124t13 -138.5zM1232 1018q0 -20 -4.5 -44.5t-13 -46t-20 -36t-25.5 -14.5q-13 0 -26.5 11t-32.5 24t-47 24t-71 11q-48 0 -85.5 -20t-64.5 -52t-45.5 -73
t-29.5 -82t-16 -80t-5 -66q0 -72 32 -108.5t100 -36.5q51 0 86 12.5t61 27t43.5 27t32.5 12.5q10 0 14.5 -7t4.5 -22q0 -14 -3 -35t-8.5 -43t-13.5 -41t-17 -27q-15 -14 -40.5 -28.5t-58.5 -26t-72.5 -18.5t-82.5 -7q-150 0 -225 75t-75 220q0 51 9.5 114t31.5 126.5
t57.5 122.5t87.5 105t121.5 74t159.5 28q76 0 130.5 -17t88.5 -42q12 -10 17 -19t5 -22z" />
    <glyph glyph-name="ordfeminine" unicode="&#xaa;" horiz-adv-x="903" 
d="M782 461q0 -9 -3 -31.5t-10.5 -45.5t-20 -40.5t-31.5 -17.5h-586q-18 0 -24 9t-6 29q0 10 3 32t10 45t20 40t32 17h586q17 0 23.5 -9t6.5 -28zM808 650q-4 -16 -27.5 -23.5t-79.5 -7.5q-26 0 -43 2t-26.5 5.5t-13 9.5t-1.5 14l15 94q-11 -22 -35 -46.5t-57.5 -44.5
t-73.5 -32.5t-84 -12.5q-59 0 -99 19.5t-64.5 53.5t-35 78.5t-10.5 95.5q0 45 8.5 96.5t27 102.5t47.5 97.5t70 82.5t93 57t119 21q60 0 108 -22.5t83 -69.5l10 50q3 16 28.5 22.5t78.5 6.5q52 0 70.5 -6.5t15.5 -22.5zM676 1074q-23 33 -52 51.5t-66 18.5q-28 0 -51 -12.5
t-41 -33.5t-31.5 -49t-22 -59t-13 -63t-4.5 -61q0 -18 3 -34t10.5 -28t21 -19t34.5 -7q27 0 58 18.5t59.5 51.5t51 76t32.5 92z" />
    <glyph glyph-name="guillemotleft" unicode="&#xab;" horiz-adv-x="1103" 
d="M111 484q-11 26 -9.5 48t20.5 43l283 347q7 9 15.5 15.5t22 10t33.5 5.5t49 2q37 0 59.5 -3.5t33 -11t10 -17.5t-10.5 -23l-278 -388l123 -370q3 -13 1.5 -23.5t-12.5 -17.5t-33.5 -11t-59.5 -4q-29 0 -46.5 2t-27 5.5t-14.5 10t-8 15.5zM524 484q-12 26 -10 46.5
t21 43.5l270 328q8 8 16.5 14.5t22 10t33 5t48.5 1.5q36 0 59 -3.5t33 -10t10 -16t-9 -22.5l-270 -368l127 -356q3 -12 1.5 -20.5t-12.5 -14.5t-33 -9t-59 -3q-29 0 -46 1t-26.5 4.5t-14.5 8.5t-8 14z" />
    <glyph glyph-name="logicalnot" unicode="&#xac;" horiz-adv-x="1020" 
d="M896 277q-2 -10 -8 -18.5t-19 -14t-33.5 -8.5t-49.5 -3q-28 0 -47 3t-30 8.5t-14.5 14t-1.5 18.5l44 214h-646q-13 0 -20 9.5t-7 31.5q0 7 1.5 21t5 31t9 35t13 32t17.5 23.5t23 9.5h758q45 0 62.5 -20t7.5 -68z" />
    <glyph glyph-name="registered" unicode="&#xae;" horiz-adv-x="1038" 
d="M1043 1053q0 -98 -37.5 -180t-100 -140.5t-142.5 -91.5t-166 -33q-91 0 -163 29.5t-121 79.5t-75 116t-26 139q0 99 37.5 182t100 142t143.5 92t167 33q90 0 161 -28.5t120.5 -78t75.5 -116.5t26 -145zM924 1042q0 60 -17 110.5t-51.5 87.5t-85.5 57.5t-119 20.5
q-65 0 -123.5 -25t-102 -68.5t-69 -104.5t-25.5 -133q0 -64 18.5 -115t54.5 -86.5t87 -55t116 -19.5t123 24.5t101 68.5t68 105t25 133zM788 857q2 -13 0.5 -21.5t-8.5 -13t-22.5 -5.5t-40.5 -1q-40 0 -52.5 6t-13.5 20l-5 64q-4 32 -14.5 46t-33.5 14h-26l-25 -128
q-2 -13 -16 -17.5t-51 -4.5q-39 0 -50 5t-9 17l68 343q6 27 22 42t45 15h113q40 0 71 -6.5t51.5 -20t31 -34t10.5 -49.5q0 -26 -9 -47.5t-25 -37t-37 -26.5t-44 -17q23 -8 38.5 -26t21.5 -52zM697 1113q0 7 -2.5 13t-8 11t-16 7.5t-26.5 2.5h-36l-19 -94h33q22 0 37 5
t23.5 13.5t11.5 19.5t3 22z" />
    <glyph glyph-name="macron" unicode="&#xaf;" horiz-adv-x="799" 
d="M857 1284q0 -7 -1.5 -20t-4.5 -28.5t-7.5 -32.5t-12 -31t-17 -23t-22.5 -9h-511q-17 0 -25 9t-8 30q0 10 3 33.5t10.5 48.5t21 43.5t35.5 18.5h511q16 0 22 -10.5t6 -28.5zM0 960z" />
    <glyph glyph-name="macron" unicode="&#x2c9;" horiz-adv-x="799" 
d="M857 1284q0 -7 -1.5 -20t-4.5 -28.5t-7.5 -32.5t-12 -31t-17 -23t-22.5 -9h-511q-17 0 -25 9t-8 30q0 10 3 33.5t10.5 48.5t21 43.5t35.5 18.5h511q16 0 22 -10.5t6 -28.5zM0 960z" />
    <glyph glyph-name="degree" unicode="&#xb0;" horiz-adv-x="701" 
d="M758 1145q0 -63 -22.5 -115t-62.5 -89.5t-93.5 -58t-114.5 -20.5q-63 0 -111.5 18.5t-82 50.5t-51 75.5t-17.5 92.5q0 62 23 114.5t63 90t94 58t114 20.5q62 0 110.5 -18.5t82 -51t51 -75.5t17.5 -92zM586 1134q0 42 -26 71t-75 29q-22 0 -42 -9t-35 -24.5t-24 -38.5
t-9 -50q0 -44 26 -73.5t74 -29.5q22 0 42 9t35.5 25t24.5 39t9 52zM0 1294z" />
    <glyph glyph-name="plusminus" unicode="&#xb1;" horiz-adv-x="1020" 
d="M1015 808q0 -8 -2 -22.5t-5.5 -30.5t-9 -33t-12.5 -30t-16.5 -22t-21.5 -9h-300l-66 -328q-3 -9 -9 -16.5t-18 -12.5t-31.5 -8t-48.5 -3q-28 0 -46.5 3t-29.5 8t-14.5 12.5t-1.5 16.5l66 328h-301q-13 0 -20 12.5t-7 35.5q0 7 1.5 21t5 29.5t8 31.5t12 29t17 21.5
t20.5 8.5h302l66 329q2 10 9 17t19.5 12.5t32.5 8.5t48 3t46.5 -3t28.5 -8.5t13 -12.5t1 -17l-66 -329h305q13 0 19 -10t6 -32zM869 155q0 -17 -4.5 -43t-12.5 -51t-20.5 -43t-29.5 -18h-769q-11 0 -20 10.5t-9 31.5q0 18 4 43.5t12 49.5t20 41.5t28 17.5h774q14 0 20.5 -10
t6.5 -29z" />
    <glyph glyph-name="uni00B2" unicode="&#xb2;" horiz-adv-x="692" 
d="M707 838q0 -9 -2.5 -29t-8 -41t-14.5 -37t-23 -16h-486q-31 0 -41 8.5t-10 29.5q0 12 3 31t10.5 40.5t20.5 43.5t35 40l178 146q42 35 71.5 65.5t46.5 57t24.5 49.5t7.5 44q0 28 -16.5 46t-54.5 18q-34 0 -62 -9t-50.5 -19.5t-39 -19.5t-28.5 -9q-10 0 -14.5 6t-4.5 24
q0 10 2.5 28.5t7.5 39t11.5 38t14.5 25.5q13 13 40.5 25.5t62 22.5t72.5 16.5t72 6.5q69 0 115.5 -16t75 -42t40 -58.5t11.5 -65.5q0 -44 -14 -87t-47 -89.5t-87.5 -98t-134.5 -111.5l-90 -70h287q9 0 14 -9t5 -24z" />
    <glyph glyph-name="uni00B3" unicode="&#xb3;" horiz-adv-x="688" 
d="M722 967q0 -52 -22.5 -100.5t-68.5 -86t-118 -60t-169 -22.5q-57 0 -110 9.5t-91 29.5q-12 6 -17.5 14t-5.5 25q0 8 3 27t8.5 39t13.5 35.5t19 15.5q9 0 21 -6.5t31.5 -14.5t47 -14t67.5 -6q35 0 63.5 7.5t49 21.5t31 34t10.5 46q0 16 -6.5 30.5t-23 25t-44.5 16.5t-71 6
h-61q-14 0 -19.5 7.5t-5.5 21.5q0 11 3 30t9.5 37t16 32t22.5 14h61q40 0 70.5 7.5t52 21.5t32.5 35t11 48q0 11 -3 22.5t-12 20.5t-25.5 14.5t-41.5 5.5q-33 0 -62 -8t-53.5 -19t-43 -19t-29.5 -8q-15 0 -15 26q0 8 2.5 24t7 34t11 34t15.5 24q9 10 32 21.5t55 21.5
t71.5 16t81.5 6q66 0 111.5 -14.5t73.5 -38t40.5 -54.5t12.5 -64q0 -47 -15 -84t-40.5 -65t-59 -46t-71.5 -27v-2q39 -5 66.5 -19.5t45.5 -35t26.5 -45t8.5 -47.5z" />
    <glyph glyph-name="acute" unicode="&#xb4;" horiz-adv-x="616" 
d="M459 1118q-8 -10 -16 -16.5t-21 -10.5t-32 -6t-48 -2q-35 0 -55 3t-28 9.5t-5.5 16.5t11.5 23l152 229q8 11 18 19t25.5 12.5t38.5 6.5t56 2q46 0 72 -4.5t37.5 -12t9.5 -17t-11 -20.5zM0 960z" />
    <glyph glyph-name="mu" unicode="&#xb5;" horiz-adv-x="1134" 
d="M1059 179q0 -6 -2.5 -28.5t-8.5 -49t-15.5 -52.5t-23.5 -41q-7 -6 -20.5 -11.5t-31.5 -9.5t-38 -6.5t-40 -2.5q-101 0 -150 51.5t-41 147.5q-21 -36 -56 -71t-76.5 -62t-87 -44t-88.5 -17q-22 0 -40 4t-31 11.5t-22 16.5t-13 19l-24 -200l-30 -154q-2 -10 -9 -18
t-23 -13.5t-40.5 -8.5t-61.5 -3t-60.5 3t-36.5 8.5t-17.5 13.5t-2.5 18l249 1247q2 10 9.5 17.5t23 12t40.5 7t62 2.5q36 0 60 -2.5t37 -7t17 -12t2 -17.5l-109 -542q-8 -43 -9.5 -78t6.5 -60t26.5 -38.5t50.5 -13.5q41 0 85.5 26t84.5 71.5t71.5 107.5t46.5 134l78 393
q2 10 9.5 17.5t23.5 12t40.5 7t61.5 2.5t60.5 -2.5t36.5 -7t17.5 -12t2.5 -17.5l-124 -616q-7 -34 -8 -57t4 -37.5t17.5 -21t31.5 -6.5q26 0 42.5 4.5t28.5 4.5q7 0 11 -4t4 -15z" />
    <glyph glyph-name="paragraph" unicode="&#xb6;" horiz-adv-x="1224" 
d="M934 -203q-2 -8 -8 -14t-18 -10.5t-30.5 -6.5t-46.5 -2q-55 0 -73 8.5t-15 24.5l265 1322h-176l-264 -1322q-2 -8 -7.5 -14t-17.5 -10.5t-31 -6.5t-46 -2q-55 0 -73.5 8.5t-15.5 24.5l142 708q-89 0 -156 22t-111.5 63t-66.5 99.5t-22 130.5q0 55 12 111.5t38.5 109.5
t68.5 99t101 80.5t136.5 54t175.5 19.5h478q29 0 41.5 -17t6.5 -46z" />
    <glyph glyph-name="periodcentered" unicode="&#xb7;" horiz-adv-x="548" 
d="M455 658q0 -22 -4 -47.5t-11.5 -50t-18 -46.5t-24.5 -36q-21 -21 -55 -29t-73 -8q-36 0 -60.5 5.5t-39 17.5t-20.5 28.5t-6 38.5q0 20 4.5 45.5t12 51.5t17.5 47.5t23 33.5q18 18 48 29t82 11q36 0 60.5 -5.5t39 -17t20 -28.5t5.5 -40z" />
    <glyph glyph-name="periodcentered" unicode="&#x2219;" horiz-adv-x="548" 
d="M455 658q0 -22 -4 -47.5t-11.5 -50t-18 -46.5t-24.5 -36q-21 -21 -55 -29t-73 -8q-36 0 -60.5 5.5t-39 17.5t-20.5 28.5t-6 38.5q0 20 4.5 45.5t12 51.5t17.5 47.5t23 33.5q18 18 48 29t82 11q36 0 60.5 -5.5t39 -17t20 -28.5t5.5 -40z" />
    <glyph glyph-name="cedilla" unicode="&#xb8;" horiz-adv-x="621" 
d="M390 -157q0 -54 -18 -93.5t-49.5 -65t-76.5 -37.5t-99 -12q-28 0 -55.5 2t-50.5 6.5t-41.5 10t-29.5 10.5q-11 6 -15.5 12.5t-4.5 19.5q0 10 2.5 28t8.5 36t16.5 31.5t27.5 13.5h114q14 0 26.5 3.5t22.5 10t15.5 17.5t5.5 25q0 10 -1.5 23t-4.5 26l-23 90h199l16 -66
q7 -25 11 -47t4 -44z" />
    <glyph glyph-name="uni00B9" unicode="&#xb9;" horiz-adv-x="517" 
d="M461 737q-1 -7 -6.5 -12.5t-17.5 -9t-32 -5t-51 -1.5q-29 0 -48.5 1.5t-30.5 5t-14.5 9t-2.5 12.5l113 562l-130 -56q-31 -12 -40 -5t-9 26q0 11 2 29.5t7.5 37t13.5 34t20 22.5l196 105q6 4 12.5 6t17 3t25.5 1.5t40 0.5q29 0 46.5 -1.5t26 -4.5t10 -7.5t1.5 -9.5z" />
    <glyph glyph-name="ordmasculine" unicode="&#xba;" horiz-adv-x="891" 
d="M903 1060q0 -53 -10 -107t-31.5 -104.5t-55.5 -94.5t-81.5 -76.5t-110 -51t-140.5 -18.5q-90 0 -148 23t-92 59t-47 81.5t-13 91.5q0 45 8 96t27.5 101.5t51.5 96.5t80 81t113.5 56t151.5 21q87 0 144.5 -22.5t91.5 -59t47.5 -82.5t13.5 -91zM677 1042q0 23 -5 42.5
t-16.5 33.5t-31 22.5t-48.5 8.5q-35 0 -62 -14t-47 -37.5t-32.5 -53t-20.5 -59t-11 -57.5t-3 -47q0 -23 4.5 -42t16 -33.5t31 -23t48.5 -8.5q35 0 61.5 13t46 35.5t33 50.5t21.5 57.5t11.5 58.5t3.5 53zM758 461q0 -9 -3 -31.5t-10 -45.5t-19.5 -40.5t-31.5 -17.5h-553
q-17 0 -23.5 9t-6.5 29q0 10 3 32t10.5 45t20 40t32.5 17h552q17 0 23 -9t6 -28z" />
    <glyph glyph-name="guillemotright" unicode="&#xbb;" horiz-adv-x="1103" 
d="M1011 556q11 -25 9 -47t-20 -44l-283 -346q-7 -9 -16 -15.5t-22.5 -10t-33 -5.5t-48.5 -2q-38 0 -60 3.5t-32.5 11t-10 17.5t9.5 23l278 388l-122 370q-4 13 -2 23.5t13.5 17.5t33.5 11t59 4q29 0 46 -2t27 -5.5t14.5 -10t8.5 -15.5zM598 556q11 -25 9.5 -45.5
t-20.5 -43.5l-271 -328q-7 -9 -16 -15t-22.5 -9.5t-32.5 -5t-48 -1.5q-37 0 -59 3t-32.5 9.5t-10.5 16.5t9 23l270 368l-127 356q-4 12 -2.5 20.5t13 14.5t33 9t58.5 3q29 0 46.5 -1t27 -4.5t14 -9t8.5 -13.5z" />
    <glyph glyph-name="onequarter" unicode="&#xbc;" horiz-adv-x="1347" 
d="M1235 220q0 -7 -2.5 -24.5t-7.5 -35t-13.5 -31t-20.5 -13.5h-63l-20 -97q-1 -6 -7 -11t-19 -8t-33.5 -4.5t-48.5 -1.5q-29 0 -46.5 1.5t-27.5 4.5t-13.5 8t-2.5 11l20 97h-277q-18 0 -24.5 6.5t-6.5 25.5q0 11 3 31t9.5 42.5t15.5 44.5t22 37l273 328q8 10 42 16t105 6
q40 0 67 -2t43 -6t22.5 -9t5.5 -11l-75 -375h63q9 0 13 -8t4 -22zM1006 500h-2l-208 -250h160zM202 7q-11 -12 -22.5 -19.5t-27 -12.5t-36 -7t-50.5 -2q-65 0 -78.5 16t12.5 44l1175 1263q11 11 22.5 19t27 13t36.5 7t50 2q33 0 52.5 -4t26.5 -12t3.5 -19t-16.5 -25z
M477 667q-1 -7 -6 -11.5t-17.5 -8t-32.5 -5t-51 -1.5q-30 0 -50 1.5t-31 4.5t-15 8t-2 12l91 453l-133 -57q-30 -11 -39.5 -5t-9.5 26q0 12 2.5 29.5t8.5 34.5t14.5 31.5t20.5 20.5l192 98q4 2 10.5 3.5t17.5 2.5t27.5 1.5t42.5 0.5q30 0 47.5 -1t26 -3t10.5 -5t1 -8z" />
    <glyph glyph-name="onehalf" unicode="&#xbd;" horiz-adv-x="1415" 
d="M477 667q-1 -7 -6 -11.5t-17.5 -8t-32.5 -5t-51 -1.5q-30 0 -50 1.5t-31 4.5t-15 8t-2 12l91 453l-133 -57q-30 -11 -39.5 -5t-9.5 26q0 12 2.5 29.5t8.5 34.5t14.5 31.5t20.5 20.5l192 98q4 2 10.5 3.5t17.5 2.5t27.5 1.5t42.5 0.5q30 0 47.5 -1t26 -3t10.5 -5t1 -8z
M1270 111q0 -10 -2.5 -28.5t-8 -36.5t-13.5 -32t-20 -14h-444q-30 0 -41.5 8t-11.5 31q0 11 2.5 28.5t9 36t18 36t28.5 31.5l159 119q37 30 62.5 53t42 43.5t23.5 38.5t7 38q0 9 -3.5 17.5t-11.5 15.5t-21.5 11.5t-30.5 4.5q-29 0 -53.5 -7t-44.5 -15.5t-35.5 -16
t-24.5 -7.5t-14.5 8t-5.5 25q0 10 2 27t7 34.5t13.5 33t20.5 21.5q47 24 103 36.5t112 12.5q66 0 110 -14.5t70 -38t36.5 -52t10.5 -56.5q0 -44 -14 -80.5t-44.5 -72.5t-79.5 -74t-119 -83l-69 -50h256q11 0 15 -9.5t4 -22.5zM202 7q-11 -12 -22.5 -19.5t-27 -12.5t-36 -7
t-50.5 -2q-65 0 -78.5 16t12.5 44l1175 1263q11 11 22.5 19t27 13t36.5 7t50 2q33 0 52.5 -4t26.5 -12t3.5 -19t-16.5 -25z" />
    <glyph glyph-name="threequarters" unicode="&#xbe;" horiz-adv-x="1437" 
d="M678 855q0 -28 -8 -55.5t-25.5 -52.5t-44.5 -46.5t-65.5 -37.5t-89 -24.5t-113.5 -8.5q-59 0 -109.5 9.5t-88.5 27.5q-15 6 -21 14.5t-6 25.5q0 8 2 24.5t6.5 33t11 29t16.5 12.5q7 0 19.5 -6t32.5 -14t48 -14.5t67 -6.5q33 0 58 6t41.5 17.5t25 28t8.5 37.5
q0 14 -5 24.5t-19.5 18.5t-39.5 12.5t-64 4.5h-64q-14 0 -20 6t-6 19q0 7 2.5 23.5t7.5 33t13.5 29t21.5 12.5h67q69 0 108 25t39 65q0 9 -3 17.5t-11.5 15.5t-24 12t-40.5 5q-32 0 -59 -7.5t-49 -16t-38 -16t-25 -7.5q-8 0 -13 6t-5 23q0 12 2.5 27t7 29t11 25.5t13.5 16.5
q16 11 39 21t52.5 17t63.5 11.5t72 4.5q60 0 104.5 -11t73 -31.5t42 -49t13.5 -63.5q0 -31 -10.5 -59.5t-32 -51t-53 -39.5t-73.5 -26q39 -3 65.5 -15.5t42 -30t22.5 -38.5t7 -41zM290 7q-11 -12 -22.5 -19.5t-27 -12.5t-36 -7t-50.5 -2q-65 0 -78.5 16t12.5 44l1175 1263
q11 11 22.5 19t27 13t36.5 7t50 2q33 0 52.5 -4t26.5 -12t3.5 -19t-16.5 -25zM1325 220q0 -7 -2.5 -24.5t-7.5 -35t-13.5 -31t-20.5 -13.5h-63l-20 -97q-1 -6 -7 -11t-19 -8t-33.5 -4.5t-48.5 -1.5q-29 0 -46.5 1.5t-27.5 4.5t-13.5 8t-2.5 11l20 97h-277q-18 0 -24.5 6.5
t-6.5 25.5q0 11 3 31t9.5 42.5t15.5 44.5t22 37l273 328q8 10 42 16t105 6q40 0 67 -2t43 -6t22.5 -9t5.5 -11l-75 -375h63q9 0 13 -8t4 -22zM1096 500h-2l-208 -250h160z" />
    <glyph glyph-name="questiondown" unicode="&#xbf;" horiz-adv-x="949" 
d="M27.1191 143.128q0 77.9902 22.4971 152.981t70.9912 135.483q48.4941 60.4932 124.484 101.487q75.9912 40.9951 182.979 50.9941l45.9941 190.977q4.99902 17.998 34.4951 26.9971q29.4971 8.99902 82.4902 8.99902q31.9961 0 53.9932 -1.5q21.998 -1.5 34.9961 -5.5
q12.998 -3.99902 16.998 -10.998q3.99902 -6.99902 2 -17.998l-36.9961 -235.971q-4.99902 -31.9961 -13.498 -51.9941q-8.49902 -19.9971 -21.4971 -31.9961q-12.999 -11.998 -29.4971 -16.498q-16.498 -4.49902 -37.4951 -4.49902h-7.99902q-71.9912 0 -121.485 -24.4971
t-79.4902 -61.4922q-29.9961 -36.9961 -42.9951 -81.4902q-12.998 -44.4951 -12.998 -84.4902q0 -36.9951 10.999 -68.9912q10.998 -31.9961 33.4961 -55.4932q22.4971 -23.4971 56.4932 -36.4961q33.9951 -12.998 79.9902 -12.998q53.9932 0 94.9883 10.999
q40.9941 10.998 71.4912 24.4971q30.4961 13.498 49.9932 24.9961q19.498 11.499 30.4971 11.499q9.99805 0 14.498 -10.499q4.49902 -10.498 4.49902 -34.4951q0 -9.99902 -2.49902 -31.4961q-2.5 -21.498 -7.49902 -44.4951q-5 -22.9971 -12.499 -43.9941
q-7.49902 -20.998 -18.498 -31.9961q-11.998 -11.999 -41.9941 -25.4971q-29.9971 -13.499 -69.9922 -24.4971q-39.9951 -10.999 -84.9893 -17.998t-87.9893 -6.99902q-75.9912 0 -133.983 13.498q-57.9932 13.499 -100.988 37.4961q-42.9941 23.9971 -72.4912 55.9932
q-29.4961 31.9961 -47.9941 69.4912q-18.4971 37.4951 -25.9961 77.9902t-7.49902 80.4902zM491.062 998.023q0 17.998 3.99902 41.9951q4 23.9971 10.499 48.4941t16.498 45.9941q9.99805 21.4971 21.9971 34.4961q19.9971 18.9971 48.9941 28.4961
q28.9961 9.49902 74.9912 9.49902q35.9951 0 59.9922 -5.49902t36.9951 -16.498q12.999 -10.999 17.998 -26.4971t4.99902 -35.4951q0 -15.998 -2.99902 -39.4951q-3 -23.498 -9.99902 -48.4941q-6.99902 -24.9971 -16.498 -47.4941q-9.49902 -22.498 -23.4971 -36.4961
q-21.9971 -21.9971 -51.4932 -30.4961q-29.4971 -8.49902 -71.4922 -8.49902q-38.9951 0 -62.4922 6.49902t-36.4951 17.998q-12.999 11.498 -17.498 27.4961t-4.49902 33.9961z" />
    <glyph glyph-name="Agrave" unicode="&#xc0;" horiz-adv-x="1241" 
d="M1126 98q5 -36 4.5 -57t-14 -31.5t-44.5 -13t-85 -2.5q-38 0 -62 1.5t-37 5.5t-18 12t-6 22l-35 260h-486l-134 -254q-7 -14 -16 -23.5t-26 -14.5t-45.5 -7t-71.5 -2q-46 0 -71.5 3t-34 14.5t-2 32.5t25.5 56l628 1148q10 17 20 27.5t28.5 16t50 7t82.5 1.5
q59 0 93.5 -1.5t53.5 -7t25 -16.5t8 -30zM733 1047h-1l-289 -550h364zM891 1439q11 -14 13.5 -24t-7 -16.5t-30 -9.5t-53.5 -3q-31 0 -52 2t-35.5 6.5t-25 11t-20.5 15.5l-214 200q-14 13 -18 25t6 21.5t36 15.5t71 6q37 0 61.5 -1.5t42.5 -6.5t30 -14t24 -24zM126 1294z
" />
    <glyph glyph-name="Aacute" unicode="&#xc1;" horiz-adv-x="1241" 
d="M1126 98q5 -36 4.5 -57t-14 -31.5t-44.5 -13t-85 -2.5q-38 0 -62 1.5t-37 5.5t-18 12t-6 22l-35 260h-486l-134 -254q-7 -14 -16 -23.5t-26 -14.5t-45.5 -7t-71.5 -2q-46 0 -71.5 3t-34 14.5t-2 32.5t25.5 56l628 1148q10 17 20 27.5t28.5 16t50 7t82.5 1.5
q59 0 93.5 -1.5t53.5 -7t25 -16.5t8 -30zM733 1047h-1l-289 -550h364zM919 1421q-11 -9 -21.5 -15.5t-25 -10.5t-36 -6.5t-52.5 -2.5q-68 0 -83.5 13t10.5 40l189 204q13 14 26 23t31 14t43 7t61 2q47 0 72 -6t34 -15.5t3.5 -21.5t-20.5 -25zM383 1294z" />
    <glyph glyph-name="Acircumflex" unicode="&#xc2;" horiz-adv-x="1241" 
d="M1126 98q5 -36 4.5 -57t-14 -31.5t-44.5 -13t-85 -2.5q-38 0 -62 1.5t-37 5.5t-18 12t-6 22l-35 260h-486l-134 -254q-7 -14 -16 -23.5t-26 -14.5t-45.5 -7t-71.5 -2q-46 0 -71.5 3t-34 14.5t-2 32.5t25.5 56l628 1148q10 17 20 27.5t28.5 16t50 7t82.5 1.5
q59 0 93.5 -1.5t53.5 -7t25 -16.5t8 -30zM733 1047h-1l-289 -550h364zM1165 1434q9 -14 10 -23.5t-9 -15t-31 -7.5t-55 -2q-42 0 -66.5 1.5t-39 5t-21 9.5t-12.5 15l-90 137l-149 -134q-11 -11 -21.5 -17.5t-27.5 -10t-43.5 -5t-67.5 -1.5q-34 0 -54 2.5t-27.5 8t-3 14.5
t19.5 23l238 214q13 13 27.5 21t32.5 12.5t42 6t58 1.5q32 0 53.5 -1t36 -5t25 -12.5t20.5 -22.5zM166 1294z" />
    <glyph glyph-name="Atilde" unicode="&#xc3;" horiz-adv-x="1241" 
d="M1126 98q5 -36 4.5 -57t-14 -31.5t-44.5 -13t-85 -2.5q-38 0 -62 1.5t-37 5.5t-18 12t-6 22l-35 260h-486l-134 -254q-7 -14 -16 -23.5t-26 -14.5t-45.5 -7t-71.5 -2q-46 0 -71.5 3t-34 14.5t-2 32.5t25.5 56l628 1148q10 17 20 27.5t28.5 16t50 7t82.5 1.5
q59 0 93.5 -1.5t53.5 -7t25 -16.5t8 -30zM733 1047h-1l-289 -550h364zM1048 1636q1 8 5.5 13t14 8t25 4t37.5 1q44 0 58 -6.5t14 -19.5q0 -5 -2 -25t-9.5 -47.5t-22 -58t-41 -56.5t-66 -43t-97.5 -17q-53 0 -91.5 15.5t-69.5 34t-57.5 34t-56.5 15.5q-34 0 -51 -19t-20 -54
q-2 -8 -6.5 -13t-14 -7.5t-24.5 -4t-37 -1.5q-44 0 -59 6t-15 22q0 9 2.5 31t11.5 49t25 56t42.5 53.5t65 40t93.5 15.5q53 0 91.5 -15.5t69 -34.5t57.5 -34.5t56 -15.5q30 0 48.5 16.5t23.5 57.5zM163 1294z" />
    <glyph glyph-name="Adieresis" unicode="&#xc4;" horiz-adv-x="1241" 
d="M1126 98q5 -36 4.5 -57t-14 -31.5t-44.5 -13t-85 -2.5q-38 0 -62 1.5t-37 5.5t-18 12t-6 22l-35 260h-486l-134 -254q-7 -14 -16 -23.5t-26 -14.5t-45.5 -7t-71.5 -2q-46 0 -71.5 3t-34 14.5t-2 32.5t25.5 56l628 1148q10 17 20 27.5t28.5 16t50 7t82.5 1.5
q59 0 93.5 -1.5t53.5 -7t25 -16.5t8 -30zM733 1047h-1l-289 -550h364zM1186 1528q-6 -35 -17.5 -58t-30 -37t-44.5 -19.5t-62 -5.5q-38 0 -61.5 5.5t-36.5 19.5t-15 37t4 58q7 37 17.5 62t28.5 39.5t44 20.5t64 6q36 0 60 -6t37 -20.5t15.5 -39.5t-3.5 -62zM749 1528
q-6 -35 -17 -58t-29.5 -37t-45 -19.5t-61.5 -5.5q-38 0 -62 5.5t-37 19.5t-15 37t5 58q6 37 17 62t28.5 39.5t44 20.5t64.5 6q36 0 59.5 -6t37 -20.5t16 -39.5t-4.5 -62zM171 1294z" />
    <glyph glyph-name="Aring" unicode="&#xc5;" horiz-adv-x="1241" 
d="M1126 98q5 -36 4.5 -57t-14 -31.5t-44.5 -13t-85 -2.5q-38 0 -62 1.5t-37 5.5t-18 12t-6 22l-35 260h-486l-134 -254q-7 -14 -16 -23.5t-26 -14.5t-45.5 -7t-71.5 -2q-46 0 -71.5 3t-34 14.5t-2 32.5t25.5 56l628 1148q10 17 20 27.5t28.5 16t50 7t82.5 1.5
q59 0 93.5 -1.5t53.5 -7t25 -16.5t8 -30zM733 1047h-1l-289 -550h364zM1081 1586q0 -44 -14.5 -85.5t-47 -74t-83.5 -52t-123 -19.5q-58 0 -98 12.5t-65.5 34.5t-37 52t-11.5 65q0 27 6 55.5t19.5 54t34 48.5t50.5 40t69 26.5t89 9.5q58 0 98.5 -13t65.5 -36t36.5 -53.5
t11.5 -64.5zM927 1568q0 14 -4 27t-13 23t-24 16t-37 6q-25 0 -42.5 -8.5t-28.5 -23t-16.5 -33.5t-5.5 -38q0 -14 4 -26.5t12.5 -22t23 -15.5t36.5 -6q24 0 42 8t29.5 21.5t17.5 32t6 39.5zM283 1294z" />
    <glyph glyph-name="AE" unicode="&#xc6;" horiz-adv-x="1588" 
d="M1429 164q0 -7 -2 -22t-5.5 -33.5t-8.5 -37.5t-12.5 -35t-17 -26t-20.5 -10h-641q-17 0 -30.5 4.5t-21.5 15t-11 26t1 37.5l40 198h-389l-167 -240q-9 -14 -19.5 -23.5t-29 -14.5t-47 -7t-73.5 -2t-70 3t-32 14.5t2.5 32.5t31.5 56l796 1140q11 18 22.5 28.5t31 16.5
t51 7.5t82.5 1.5h726q26 0 26 -39q0 -8 -1.5 -23t-4.5 -33.5t-8.5 -38t-13 -35.5t-17.5 -26.5t-22 -10.5h-454l-63 -317h383q13 0 19.5 -10t6.5 -31q0 -8 -2 -23t-5 -33t-8.5 -37t-13 -34.5t-17 -25t-21.5 -9.5h-384l-72 -362h458q14 0 20.5 -11t6.5 -31zM860 1088h-3
l-424 -606h307z" />
    <glyph glyph-name="Ccedilla" unicode="&#xc7;" horiz-adv-x="1062" 
d="M436 -8q-121 24 -195 89t-108.5 158t-34.5 213q0 93 19 193.5t57.5 196.5t97.5 182t139.5 150.5t183 102.5t227.5 38q70 0 132.5 -14.5t109 -38.5t64.5 -43.5t18 -49.5q0 -28 -9 -75t-23.5 -75.5t-32.5 -28.5q-13 0 -31 16.5t-47 35.5t-74 35.5t-112 16.5
q-74 0 -135 -29.5t-109 -78t-84 -111.5t-59.5 -131t-35 -135.5t-11.5 -125.5q0 -70 17.5 -123t50.5 -88t81 -52.5t108 -17.5q71 0 121.5 15t86 33t60 33t39.5 15q14 0 19 -9.5t5 -26.5q0 -7 -2 -21t-5 -31.5t-7 -38t-9 -38t-11.5 -32t-17.5 -25.5t-45.5 -30t-95.5 -38
t-141 -26l13 -48q6 -25 10 -47t4 -44q0 -54 -17.5 -93.5t-49.5 -65t-76.5 -37.5t-98.5 -12q-29 0 -56 2t-50.5 6.5t-41.5 10t-30 10.5q-11 6 -15 12.5t-4 19.5q0 10 2.5 28t8.5 36t16.5 31.5t26.5 13.5h114q14 0 27 3.5t22.5 10t15 17.5t5.5 25q0 10 -1.5 23t-4.5 26z" />
    <glyph glyph-name="Egrave" unicode="&#xc8;" horiz-adv-x="999" 
d="M1056 1256q0 -6 -1.5 -21t-4.5 -33.5t-8 -38.5t-12.5 -36.5t-18 -27.5t-22.5 -11h-462l-64 -316h392q14 0 20 -10t6 -28q0 -7 -1.5 -21.5t-4.5 -33t-8 -37.5t-12.5 -35t-17.5 -26t-22 -10h-391l-74 -365h468q12 0 18 -10.5t6 -30.5q0 -7 -1 -22t-4.5 -33.5t-8.5 -37.5
t-12.5 -35.5t-17.5 -26.5t-23 -10h-650q-16 0 -29 4.5t-21.5 15t-11.5 26t1 37.5l226 1128q9 44 36 63.5t60 19.5h644q26 0 26 -38zM802 1439q11 -14 13.5 -24t-7 -16.5t-30 -9.5t-53.5 -3q-31 0 -52 2t-35.5 6.5t-25 11t-20.5 15.5l-214 200q-14 13 -18 25t6 21.5t36 15.5
t71 6q37 0 61.5 -1.5t42.5 -6.5t30 -14t24 -24zM37 1294z" />
    <glyph glyph-name="Eacute" unicode="&#xc9;" horiz-adv-x="999" 
d="M1056 1256q0 -6 -1.5 -21t-4.5 -33.5t-8 -38.5t-12.5 -36.5t-18 -27.5t-22.5 -11h-462l-64 -316h392q14 0 20 -10t6 -28q0 -7 -1.5 -21.5t-4.5 -33t-8 -37.5t-12.5 -35t-17.5 -26t-22 -10h-391l-74 -365h468q12 0 18 -10.5t6 -30.5q0 -7 -1 -22t-4.5 -33.5t-8.5 -37.5
t-12.5 -35.5t-17.5 -26.5t-23 -10h-650q-16 0 -29 4.5t-21.5 15t-11.5 26t1 37.5l226 1128q9 44 36 63.5t60 19.5h644q26 0 26 -38zM816 1421q-11 -9 -21.5 -15.5t-25 -10.5t-36 -6.5t-52.5 -2.5q-68 0 -83.5 13t10.5 40l189 204q13 14 26 23t31 14t43 7t61 2q47 0 72 -6
t34 -15.5t3.5 -21.5t-20.5 -25zM280 1294z" />
    <glyph glyph-name="Ecircumflex" unicode="&#xca;" horiz-adv-x="999" 
d="M1056 1256q0 -6 -1.5 -21t-4.5 -33.5t-8 -38.5t-12.5 -36.5t-18 -27.5t-22.5 -11h-462l-64 -316h392q14 0 20 -10t6 -28q0 -7 -1.5 -21.5t-4.5 -33t-8 -37.5t-12.5 -35t-17.5 -26t-22 -10h-391l-74 -365h468q12 0 18 -10.5t6 -30.5q0 -7 -1 -22t-4.5 -33.5t-8.5 -37.5
t-12.5 -35.5t-17.5 -26.5t-23 -10h-650q-16 0 -29 4.5t-21.5 15t-11.5 26t1 37.5l226 1128q9 44 36 63.5t60 19.5h644q26 0 26 -38zM1056 1434q9 -14 10 -23.5t-9 -15t-31 -7.5t-55 -2q-42 0 -66.5 1.5t-39 5t-21 9.5t-12.5 15l-90 137l-149 -134q-11 -11 -21.5 -17.5
t-27.5 -10t-43.5 -5t-67.5 -1.5q-34 0 -54 2.5t-27.5 8t-3 14.5t19.5 23l238 214q13 13 27.5 21t32.5 12.5t42 6t58 1.5q32 0 53.5 -1t36 -5t25 -12.5t20.5 -22.5zM57 1294z" />
    <glyph glyph-name="Edieresis" unicode="&#xcb;" horiz-adv-x="999" 
d="M1056 1256q0 -6 -1.5 -21t-4.5 -33.5t-8 -38.5t-12.5 -36.5t-18 -27.5t-22.5 -11h-462l-64 -316h392q14 0 20 -10t6 -28q0 -7 -1.5 -21.5t-4.5 -33t-8 -37.5t-12.5 -35t-17.5 -26t-22 -10h-391l-74 -365h468q12 0 18 -10.5t6 -30.5q0 -7 -1 -22t-4.5 -33.5t-8.5 -37.5
t-12.5 -35.5t-17.5 -26.5t-23 -10h-650q-16 0 -29 4.5t-21.5 15t-11.5 26t1 37.5l226 1128q9 44 36 63.5t60 19.5h644q26 0 26 -38zM1078 1528q-6 -35 -17.5 -58t-30 -37t-44.5 -19.5t-62 -5.5q-38 0 -61.5 5.5t-36.5 19.5t-15 37t4 58q7 37 17.5 62t28.5 39.5t44 20.5t64 6
q36 0 60 -6t37 -20.5t15.5 -39.5t-3.5 -62zM641 1528q-6 -35 -17 -58t-29.5 -37t-45 -19.5t-61.5 -5.5q-38 0 -62 5.5t-37 19.5t-15 37t5 58q6 37 17 62t28.5 39.5t44 20.5t64.5 6q36 0 59.5 -6t37 -20.5t16 -39.5t-4.5 -62zM63 1294z" />
    <glyph glyph-name="Igrave" unicode="&#xcc;" horiz-adv-x="546" 
d="M319 35q-2 -10 -10 -18t-24.5 -13t-42.5 -7.5t-64 -2.5q-39 0 -63.5 2.5t-38.5 7.5t-19 13t-2 18l245 1224q1 10 9.5 18t25 13t42 7.5t63.5 2.5t62.5 -2.5t39 -7.5t19 -13t2.5 -18zM552 1439q11 -14 13.5 -24t-7 -16.5t-30 -9.5t-53.5 -3q-31 0 -52 2t-35.5 6.5t-25 11
t-20.5 15.5l-214 200q-14 13 -18 25t6 21.5t36 15.5t71 6q37 0 61.5 -1.5t42.5 -6.5t30 -14t24 -24zM-213 1294z" />
    <glyph glyph-name="Iacute" unicode="&#xcd;" horiz-adv-x="546" 
d="M319 35q-2 -10 -10 -18t-24.5 -13t-42.5 -7.5t-64 -2.5q-39 0 -63.5 2.5t-38.5 7.5t-19 13t-2 18l245 1224q1 10 9.5 18t25 13t42 7.5t63.5 2.5t62.5 -2.5t39 -7.5t19 -13t2.5 -18zM564 1421q-11 -9 -21.5 -15.5t-25 -10.5t-36 -6.5t-52.5 -2.5q-68 0 -83.5 13t10.5 40
l189 204q13 14 26 23t31 14t43 7t61 2q47 0 72 -6t34 -15.5t3.5 -21.5t-20.5 -25zM28 1294z" />
    <glyph glyph-name="Icircumflex" unicode="&#xce;" horiz-adv-x="546" 
d="M319 35q-2 -10 -10 -18t-24.5 -13t-42.5 -7.5t-64 -2.5q-39 0 -63.5 2.5t-38.5 7.5t-19 13t-2 18l245 1224q1 10 9.5 18t25 13t42 7.5t63.5 2.5t62.5 -2.5t39 -7.5t19 -13t2.5 -18zM811 1434q9 -14 10 -23.5t-9 -15t-31 -7.5t-55 -2q-42 0 -66.5 1.5t-39 5t-21 9.5
t-12.5 15l-90 137l-149 -134q-11 -11 -21.5 -17.5t-27.5 -10t-43.5 -5t-67.5 -1.5q-34 0 -54 2.5t-27.5 8t-3 14.5t19.5 23l238 214q13 13 27.5 21t32.5 12.5t42 6t58 1.5q32 0 53.5 -1t36 -5t25 -12.5t20.5 -22.5zM-188 1294z" />
    <glyph glyph-name="Idieresis" unicode="&#xcf;" horiz-adv-x="546" 
d="M319 35q-2 -10 -10 -18t-24.5 -13t-42.5 -7.5t-64 -2.5q-39 0 -63.5 2.5t-38.5 7.5t-19 13t-2 18l245 1224q1 10 9.5 18t25 13t42 7.5t63.5 2.5t62.5 -2.5t39 -7.5t19 -13t2.5 -18zM835 1528q-6 -35 -17.5 -58t-30 -37t-44.5 -19.5t-62 -5.5q-38 0 -61.5 5.5t-36.5 19.5
t-15 37t4 58q7 37 17.5 62t28.5 39.5t44 20.5t64 6q36 0 60 -6t37 -20.5t15.5 -39.5t-3.5 -62zM398 1528q-6 -35 -17 -58t-29.5 -37t-45 -19.5t-61.5 -5.5q-38 0 -62 5.5t-37 19.5t-15 37t5 58q6 37 17 62t28.5 39.5t44 20.5t64.5 6q36 0 59.5 -6t37 -20.5t16 -39.5
t-4.5 -62zM-180 1294z" />
    <glyph glyph-name="Eth" unicode="&#xd0;" horiz-adv-x="1309" 
d="M1289 826q0 -88 -15.5 -183.5t-52 -187t-96 -174.5t-148 -145.5t-208 -99t-290.5 -36.5h-333q-35 0 -53.5 19.5t-9.5 63.5l97 485h-106q-14 0 -20.5 9.5t-6.5 30.5q0 8 1.5 23.5t5 34t8.5 37t12.5 33.5t17 25t21.5 10h107l89 440q8 44 34 63.5t63 19.5h314
q153 0 257 -30.5t173 -90t104 -147t35 -200.5zM1013 795q0 64 -17.5 118t-55.5 93t-98 60.5t-159 21.5h-138l-63 -317h196q17 0 22 -11t5 -30q0 -9 -1.5 -24.5t-5 -33.5t-9 -37t-13 -34t-17 -24t-20.5 -9h-197l-72 -360h137q105 0 177 26t126.5 70t93 103t63 124t35.5 133
t11 131z" />
    <glyph glyph-name="Ntilde" unicode="&#xd1;" horiz-adv-x="1344" 
d="M1127 92q-4 -23 -15.5 -41t-27 -30t-34 -17.5t-38.5 -5.5h-112q-36 0 -59 7t-39.5 25t-29.5 49t-27 79l-191 578q-22 67 -40.5 135t-35.5 135h-2q-10 -79 -23 -155.5t-29 -153.5l-132 -661q-2 -10 -9.5 -18t-22.5 -13t-38.5 -8t-58.5 -3t-57.5 3t-34.5 8t-15.5 13
t-0.5 18l233 1164q9 47 41 70.5t72 23.5h137q33 0 56.5 -7.5t40 -24t29 -42.5t23.5 -64l193 -583q19 -56 34.5 -111t32.5 -110h2q11 72 24.5 148.5t27.5 148.5l123 610q2 10 9 17.5t21.5 12t37.5 7t58 2.5t58 -2.5t35 -7t16 -12t2 -17.5zM1093 1636q1 8 5.5 13t14 8t25 4
t37.5 1q44 0 58 -6.5t14 -19.5q0 -5 -2 -25t-9.5 -47.5t-22 -58t-41 -56.5t-66 -43t-97.5 -17q-53 0 -91.5 15.5t-69.5 34t-57.5 34t-56.5 15.5q-34 0 -51 -19t-20 -54q-2 -8 -6.5 -13t-14 -7.5t-24.5 -4t-37 -1.5q-44 0 -59 6t-15 22q0 9 2.5 31t11.5 49t25 56t42.5 53.5
t65 40t93.5 15.5q53 0 91.5 -15.5t69 -34.5t57.5 -34.5t56 -15.5q30 0 48.5 16.5t23.5 57.5zM208 1294z" />
    <glyph glyph-name="Ograve" unicode="&#xd2;" horiz-adv-x="1369" 
d="M1345 861q0 -88 -16 -188t-51.5 -198.5t-93.5 -188.5t-141 -158.5t-195 -109.5t-255 -41q-121 0 -213.5 27t-156 83t-96 141t-32.5 200q0 94 16.5 196.5t53 201t95.5 187.5t142 157t194 107.5t252 39.5q121 0 213.5 -27.5t155.5 -84t95.5 -142.5t32.5 -202zM1067 836
q0 61 -13.5 110.5t-43.5 83.5t-78.5 52.5t-118.5 18.5q-87 0 -153 -33.5t-115 -87.5t-82 -123.5t-53 -141t-28.5 -139.5t-8.5 -119q0 -62 13.5 -111t44 -82.5t79 -51.5t119.5 -18q86 0 152 33t114.5 86.5t81.5 122.5t53 140t28.5 139t8.5 121zM959 1439q11 -14 13.5 -24
t-7 -16.5t-30 -9.5t-53.5 -3q-31 0 -52 2t-35.5 6.5t-25 11t-20.5 15.5l-214 200q-14 13 -18 25t6 21.5t36 15.5t71 6q37 0 61.5 -1.5t42.5 -6.5t30 -14t24 -24zM194 1294z" />
    <glyph glyph-name="Oacute" unicode="&#xd3;" horiz-adv-x="1369" 
d="M1345 861q0 -88 -16 -188t-51.5 -198.5t-93.5 -188.5t-141 -158.5t-195 -109.5t-255 -41q-121 0 -213.5 27t-156 83t-96 141t-32.5 200q0 94 16.5 196.5t53 201t95.5 187.5t142 157t194 107.5t252 39.5q121 0 213.5 -27.5t155.5 -84t95.5 -142.5t32.5 -202zM1067 836
q0 61 -13.5 110.5t-43.5 83.5t-78.5 52.5t-118.5 18.5q-87 0 -153 -33.5t-115 -87.5t-82 -123.5t-53 -141t-28.5 -139.5t-8.5 -119q0 -62 13.5 -111t44 -82.5t79 -51.5t119.5 -18q86 0 152 33t114.5 86.5t81.5 122.5t53 140t28.5 139t8.5 121zM954 1421q-11 -9 -21.5 -15.5
t-25 -10.5t-36 -6.5t-52.5 -2.5q-68 0 -83.5 13t10.5 40l189 204q13 14 26 23t31 14t43 7t61 2q47 0 72 -6t34 -15.5t3.5 -21.5t-20.5 -25zM418 1294z" />
    <glyph glyph-name="Ocircumflex" unicode="&#xd4;" horiz-adv-x="1369" 
d="M1345 861q0 -88 -16 -188t-51.5 -198.5t-93.5 -188.5t-141 -158.5t-195 -109.5t-255 -41q-121 0 -213.5 27t-156 83t-96 141t-32.5 200q0 94 16.5 196.5t53 201t95.5 187.5t142 157t194 107.5t252 39.5q121 0 213.5 -27.5t155.5 -84t95.5 -142.5t32.5 -202zM1067 836
q0 61 -13.5 110.5t-43.5 83.5t-78.5 52.5t-118.5 18.5q-87 0 -153 -33.5t-115 -87.5t-82 -123.5t-53 -141t-28.5 -139.5t-8.5 -119q0 -62 13.5 -111t44 -82.5t79 -51.5t119.5 -18q86 0 152 33t114.5 86.5t81.5 122.5t53 140t28.5 139t8.5 121zM1217 1434q9 -14 10 -23.5
t-9 -15t-31 -7.5t-55 -2q-42 0 -66.5 1.5t-39 5t-21 9.5t-12.5 15l-90 137l-149 -134q-11 -11 -21.5 -17.5t-27.5 -10t-43.5 -5t-67.5 -1.5q-34 0 -54 2.5t-27.5 8t-3 14.5t19.5 23l238 214q13 13 27.5 21t32.5 12.5t42 6t58 1.5q32 0 53.5 -1t36 -5t25 -12.5t20.5 -22.5z
M218 1294z" />
    <glyph glyph-name="Otilde" unicode="&#xd5;" horiz-adv-x="1369" 
d="M1345 861q0 -88 -16 -188t-51.5 -198.5t-93.5 -188.5t-141 -158.5t-195 -109.5t-255 -41q-121 0 -213.5 27t-156 83t-96 141t-32.5 200q0 94 16.5 196.5t53 201t95.5 187.5t142 157t194 107.5t252 39.5q121 0 213.5 -27.5t155.5 -84t95.5 -142.5t32.5 -202zM1067 836
q0 61 -13.5 110.5t-43.5 83.5t-78.5 52.5t-118.5 18.5q-87 0 -153 -33.5t-115 -87.5t-82 -123.5t-53 -141t-28.5 -139.5t-8.5 -119q0 -62 13.5 -111t44 -82.5t79 -51.5t119.5 -18q86 0 152 33t114.5 86.5t81.5 122.5t53 140t28.5 139t8.5 121zM1109 1636q1 8 5.5 13t14 8
t25 4t37.5 1q44 0 58 -6.5t14 -19.5q0 -5 -2 -25t-9.5 -47.5t-22 -58t-41 -56.5t-66 -43t-97.5 -17q-53 0 -91.5 15.5t-69.5 34t-57.5 34t-56.5 15.5q-34 0 -51 -19t-20 -54q-2 -8 -6.5 -13t-14 -7.5t-24.5 -4t-37 -1.5q-44 0 -59 6t-15 22q0 9 2.5 31t11.5 49t25 56
t42.5 53.5t65 40t93.5 15.5q53 0 91.5 -15.5t69 -34.5t57.5 -34.5t56 -15.5q30 0 48.5 16.5t23.5 57.5zM224 1294z" />
    <glyph glyph-name="Odieresis" unicode="&#xd6;" horiz-adv-x="1369" 
d="M1345 861q0 -88 -16 -188t-51.5 -198.5t-93.5 -188.5t-141 -158.5t-195 -109.5t-255 -41q-121 0 -213.5 27t-156 83t-96 141t-32.5 200q0 94 16.5 196.5t53 201t95.5 187.5t142 157t194 107.5t252 39.5q121 0 213.5 -27.5t155.5 -84t95.5 -142.5t32.5 -202zM1067 836
q0 61 -13.5 110.5t-43.5 83.5t-78.5 52.5t-118.5 18.5q-87 0 -153 -33.5t-115 -87.5t-82 -123.5t-53 -141t-28.5 -139.5t-8.5 -119q0 -62 13.5 -111t44 -82.5t79 -51.5t119.5 -18q86 0 152 33t114.5 86.5t81.5 122.5t53 140t28.5 139t8.5 121zM1252 1528q-6 -35 -17.5 -58
t-30 -37t-44.5 -19.5t-62 -5.5q-38 0 -61.5 5.5t-36.5 19.5t-15 37t4 58q7 37 17.5 62t28.5 39.5t44 20.5t64 6q36 0 60 -6t37 -20.5t15.5 -39.5t-3.5 -62zM815 1528q-6 -35 -17 -58t-29.5 -37t-45 -19.5t-61.5 -5.5q-38 0 -62 5.5t-37 19.5t-15 37t5 58q6 37 17 62
t28.5 39.5t44 20.5t64.5 6q36 0 59.5 -6t37 -20.5t16 -39.5t-4.5 -62zM237 1294z" />
    <glyph glyph-name="multiply" unicode="&#xd7;" horiz-adv-x="1020" 
d="M666 573l220 -277q13 -15 4 -38.5t-51 -58.5q-22 -19 -39 -30t-29.5 -15t-21 -1.5t-15.5 10.5l-221 280l-332 -275q-10 -8 -22 -11.5t-25.5 -0.5t-28 12t-28.5 26q-15 19 -23 35.5t-9 30.5t3.5 24.5t14.5 18.5l337 279l-222 277q-6 7 -7 17t4 22t17 26.5t33 31.5
q22 19 39 30t29.5 15t20.5 1t15 -11l223 -280l331 276q10 8 22 11t26 0.5t28 -11.5t28 -26q31 -38 32.5 -65t-17.5 -44z" />
    <glyph glyph-name="Oslash" unicode="&#xd8;" horiz-adv-x="1387" 
d="M227 85q-63 55 -97.5 139.5t-34.5 203.5q0 81 13.5 177.5t46.5 195.5t89 192t141 165t202.5 115.5t274.5 43.5q52 0 102 -7.5t89 -21.5l131 191q12 17 40.5 24t85.5 7q38 0 60 -4.5t31.5 -12t8 -18t-10.5 -23.5l-169 -245q64 -54 98.5 -139t34.5 -202q0 -80 -13.5 -177
t-47 -196t-89.5 -192t-141 -165t-202.5 -115.5t-272.5 -43.5q-61 0 -108.5 6.5t-83.5 20.5l-135 -196q-10 -17 -39.5 -24t-83.5 -7q-39 0 -61.5 4.5t-32.5 12t-9 18t10 23.5zM532 204q21 -9 47.5 -14t56.5 -5q97 0 168.5 37t122.5 96t84 133t51.5 148t25.5 139.5t7 109.5
q0 36 -7 69t-25 58zM926 1090q-22 10 -48.5 14.5t-56.5 4.5q-72 0 -130.5 -21t-104.5 -57.5t-80 -85t-59 -102.5t-41.5 -110.5t-26 -109t-13.5 -98.5t-4 -78q0 -37 7.5 -70t24.5 -58z" />
    <glyph glyph-name="Ugrave" unicode="&#xd9;" horiz-adv-x="1337" 
d="M1199 477q-25 -124 -78 -217.5t-132 -156.5t-181.5 -94.5t-226.5 -31.5q-132 0 -226.5 32.5t-149.5 96.5t-71 160.5t10 223.5l154 768q2 10 9.5 18t24 13t42 8t64.5 3q38 0 63 -3t39 -8t18.5 -13t2.5 -18l-154 -768q-16 -77 -9 -133t33.5 -92.5t71.5 -54t108 -17.5
q64 0 118.5 19.5t96.5 57t71.5 91.5t43.5 123l155 774q2 10 9.5 18t23 13t41.5 8t64 3t62 -3t38 -8t18.5 -13t2.5 -18zM922 1439q11 -14 13.5 -24t-7 -16.5t-30 -9.5t-53.5 -3q-31 0 -52 2t-35.5 6.5t-25 11t-20.5 15.5l-214 200q-14 13 -18 25t6 21.5t36 15.5t71 6
q37 0 61.5 -1.5t42.5 -6.5t30 -14t24 -24zM157 1294z" />
    <glyph glyph-name="Uacute" unicode="&#xda;" horiz-adv-x="1337" 
d="M1199 477q-25 -124 -78 -217.5t-132 -156.5t-181.5 -94.5t-226.5 -31.5q-132 0 -226.5 32.5t-149.5 96.5t-71 160.5t10 223.5l154 768q2 10 9.5 18t24 13t42 8t64.5 3q38 0 63 -3t39 -8t18.5 -13t2.5 -18l-154 -768q-16 -77 -9 -133t33.5 -92.5t71.5 -54t108 -17.5
q64 0 118.5 19.5t96.5 57t71.5 91.5t43.5 123l155 774q2 10 9.5 18t23 13t41.5 8t64 3t62 -3t38 -8t18.5 -13t2.5 -18zM957 1421q-11 -9 -21.5 -15.5t-25 -10.5t-36 -6.5t-52.5 -2.5q-68 0 -83.5 13t10.5 40l189 204q13 14 26 23t31 14t43 7t61 2q47 0 72 -6t34 -15.5
t3.5 -21.5t-20.5 -25zM421 1294z" />
    <glyph glyph-name="Ucircumflex" unicode="&#xdb;" horiz-adv-x="1337" 
d="M1199 477q-25 -124 -78 -217.5t-132 -156.5t-181.5 -94.5t-226.5 -31.5q-132 0 -226.5 32.5t-149.5 96.5t-71 160.5t10 223.5l154 768q2 10 9.5 18t24 13t42 8t64.5 3q38 0 63 -3t39 -8t18.5 -13t2.5 -18l-154 -768q-16 -77 -9 -133t33.5 -92.5t71.5 -54t108 -17.5
q64 0 118.5 19.5t96.5 57t71.5 91.5t43.5 123l155 774q2 10 9.5 18t23 13t41.5 8t64 3t62 -3t38 -8t18.5 -13t2.5 -18zM1193 1434q9 -14 10 -23.5t-9 -15t-31 -7.5t-55 -2q-42 0 -66.5 1.5t-39 5t-21 9.5t-12.5 15l-90 137l-149 -134q-11 -11 -21.5 -17.5t-27.5 -10
t-43.5 -5t-67.5 -1.5q-34 0 -54 2.5t-27.5 8t-3 14.5t19.5 23l238 214q13 13 27.5 21t32.5 12.5t42 6t58 1.5q32 0 53.5 -1t36 -5t25 -12.5t20.5 -22.5zM194 1294z" />
    <glyph glyph-name="Udieresis" unicode="&#xdc;" horiz-adv-x="1337" 
d="M1199 477q-25 -124 -78 -217.5t-132 -156.5t-181.5 -94.5t-226.5 -31.5q-132 0 -226.5 32.5t-149.5 96.5t-71 160.5t10 223.5l154 768q2 10 9.5 18t24 13t42 8t64.5 3q38 0 63 -3t39 -8t18.5 -13t2.5 -18l-154 -768q-16 -77 -9 -133t33.5 -92.5t71.5 -54t108 -17.5
q64 0 118.5 19.5t96.5 57t71.5 91.5t43.5 123l155 774q2 10 9.5 18t23 13t41.5 8t64 3t62 -3t38 -8t18.5 -13t2.5 -18zM1220 1528q-6 -35 -17.5 -58t-30 -37t-44.5 -19.5t-62 -5.5q-38 0 -61.5 5.5t-36.5 19.5t-15 37t4 58q7 37 17.5 62t28.5 39.5t44 20.5t64 6q36 0 60 -6
t37 -20.5t15.5 -39.5t-3.5 -62zM783 1528q-6 -35 -17 -58t-29.5 -37t-45 -19.5t-61.5 -5.5q-38 0 -62 5.5t-37 19.5t-15 37t5 58q6 37 17 62t28.5 39.5t44 20.5t64.5 6q36 0 59.5 -6t37 -20.5t16 -39.5t-4.5 -62zM205 1294z" />
    <glyph glyph-name="Yacute" unicode="&#xdd;" horiz-adv-x="1064" 
d="M668 491l-90 -456q-3 -10 -11 -18t-24.5 -13t-42.5 -7.5t-64 -2.5t-63 2.5t-38.5 7.5t-18 13t-2.5 18l90 456l-212 705q-11 35 -13.5 56t9.5 31.5t42 13.5t85 3q42 0 66.5 -1.5t38.5 -6.5t19.5 -14.5t9.5 -24.5l87 -311q15 -56 26.5 -106.5t20.5 -105.5h2q28 54 58 106
t64 104l207 316q8 13 17 21.5t25 13.5t42.5 7t71.5 2q58 0 88.5 -3.5t40 -15t-1 -32t-33.5 -53.5zM867 1421q-11 -9 -21.5 -15.5t-25 -10.5t-36 -6.5t-52.5 -2.5q-68 0 -83.5 13t10.5 40l189 204q13 14 26 23t31 14t43 7t61 2q47 0 72 -6t34 -15.5t3.5 -21.5t-20.5 -25z
M331 1294z" />
    <glyph glyph-name="Thorn" unicode="&#xde;" horiz-adv-x="1090" 
d="M1079 778q0 -59 -12.5 -121.5t-40.5 -122t-73 -112.5t-109.5 -93t-150.5 -63.5t-204 -23.5h-130l-43 -212q-2 -10 -10 -17.5t-24.5 -12.5t-42 -7t-63.5 -2q-39 0 -63.5 2t-38.5 7t-18.5 12.5t-2.5 17.5l247 1232q1 10 9 17.5t24 12.5t41.5 7.5t64.5 2.5q38 0 63 -2.5
t39 -7.5t19 -12.5t3 -17.5l-34 -175h115q53 0 94.5 -3.5t80.5 -11.5q68 -13 117.5 -42t81 -68.5t46.5 -86.5t15 -97zM801 734q0 25 -5.5 47t-17 40t-29.5 31t-43 21q-22 7 -49.5 9.5t-62.5 2.5h-106l-88 -439h124q84 0 136 30.5t83 74.5t44.5 94t13.5 89z" />
    <glyph glyph-name="germandbls" unicode="&#xdf;" horiz-adv-x="1136" 
d="M231 992q19 95 58.5 170.5t100 128t143 81t188.5 28.5q102 0 173 -23.5t116 -62t65 -87.5t20 -101q0 -71 -21.5 -119t-54.5 -81.5t-71 -57.5t-71 -47.5t-54.5 -50.5t-21.5 -67q0 -28 18 -51t46 -45t60 -46t60 -56t46 -74t18 -99q0 -81 -30.5 -147t-85 -112t-128 -71
t-159.5 -25q-36 0 -68.5 3.5t-58.5 10.5t-45.5 16t-29.5 20q-6 7 -10.5 16t-4.5 23q0 9 2 23.5t5.5 31.5t9 33.5t12 31t14.5 23t18 8.5t22 -7.5t30 -16t43.5 -16t64.5 -7.5q29 0 55 8.5t45 25t29.5 40.5t10.5 54q0 36 -18 61.5t-45 47t-59.5 43.5t-59.5 51t-45 68t-18 97
q0 50 12 87.5t32.5 67t46.5 51.5t53.5 41t53.5 37t46.5 38t33 44.5t12.5 56.5q0 20 -7 40.5t-23 36.5t-42 26.5t-63 10.5q-49 0 -86 -16.5t-63.5 -47t-44 -73.5t-27.5 -94l-198 -995q-16 -80 -41.5 -143.5t-67 -108t-102 -67.5t-144.5 -23q-22 0 -42 2t-36 5t-27 6.5
t-16 8.5q-8 7 -8 29q0 12 3.5 38t10.5 53t17 47t24 20q12 0 23 -2.5t38 -2.5q25 0 43.5 7.5t32.5 24t24 44t18 66.5z" />
    <glyph glyph-name="agrave" unicode="&#xe0;" horiz-adv-x="1081" 
d="M868 33q-4 -21 -31.5 -30t-88.5 -9q-31 0 -50.5 2t-31.5 6.5t-15.5 12t-1.5 18.5l28 143q-15 -32 -48 -67.5t-78 -64.5t-99.5 -48t-112.5 -19q-80 0 -133 28t-85 75.5t-45.5 108.5t-13.5 128q0 63 12 137.5t37 148.5t64 142.5t93.5 121.5t125 84.5t159.5 31.5
q83 0 147 -34.5t112 -100.5l16 79q4 21 31.5 30t88.5 9q30 0 50 -2.5t31.5 -7t15.5 -12t2 -17.5zM744 659q-35 55 -77.5 82.5t-98.5 27.5q-42 0 -77 -20t-62 -53.5t-47.5 -77.5t-34 -91.5t-20 -96t-6.5 -89.5q0 -30 4.5 -57t16.5 -48t32 -33.5t51 -12.5q44 0 90 26.5t86 72
t70.5 106t44.5 129.5zM779 1135q8 -13 9.5 -23t-7 -16.5t-28.5 -9.5t-55 -3q-29 0 -48 1.5t-31.5 6t-21 11t-16.5 16.5l-183 232q-9 11 -9.5 21t11.5 17.5t39 11.5t73 4q34 0 56 -1.5t37 -6.5t24 -12.5t16 -19.5zM125 960z" />
    <glyph glyph-name="aacute" unicode="&#xe1;" horiz-adv-x="1081" 
d="M868 33q-4 -21 -31.5 -30t-88.5 -9q-31 0 -50.5 2t-31.5 6.5t-15.5 12t-1.5 18.5l28 143q-15 -32 -48 -67.5t-78 -64.5t-99.5 -48t-112.5 -19q-80 0 -133 28t-85 75.5t-45.5 108.5t-13.5 128q0 63 12 137.5t37 148.5t64 142.5t93.5 121.5t125 84.5t159.5 31.5
q83 0 147 -34.5t112 -100.5l16 79q4 21 31.5 30t88.5 9q30 0 50 -2.5t31.5 -7t15.5 -12t2 -17.5zM744 659q-35 55 -77.5 82.5t-98.5 27.5q-42 0 -77 -20t-62 -53.5t-47.5 -77.5t-34 -91.5t-20 -96t-6.5 -89.5q0 -30 4.5 -57t16.5 -48t32 -33.5t51 -12.5q44 0 90 26.5t86 72
t70.5 106t44.5 129.5zM757 1118q-8 -10 -16 -16.5t-21 -10.5t-32 -6t-48 -2q-35 0 -55 3t-28 9.5t-5.5 16.5t11.5 23l152 229q8 11 18 19t25.5 12.5t38.5 6.5t56 2q46 0 72 -4.5t37.5 -12t9.5 -17t-11 -20.5zM298 960z" />
    <glyph glyph-name="acircumflex" unicode="&#xe2;" horiz-adv-x="1081" 
d="M868 33q-4 -21 -31.5 -30t-88.5 -9q-31 0 -50.5 2t-31.5 6.5t-15.5 12t-1.5 18.5l28 143q-15 -32 -48 -67.5t-78 -64.5t-99.5 -48t-112.5 -19q-80 0 -133 28t-85 75.5t-45.5 108.5t-13.5 128q0 63 12 137.5t37 148.5t64 142.5t93.5 121.5t125 84.5t159.5 31.5
q83 0 147 -34.5t112 -100.5l16 79q4 21 31.5 30t88.5 9q30 0 50 -2.5t31.5 -7t15.5 -12t2 -17.5zM744 659q-35 55 -77.5 82.5t-98.5 27.5q-42 0 -77 -20t-62 -53.5t-47.5 -77.5t-34 -91.5t-20 -96t-6.5 -89.5q0 -30 4.5 -57t16.5 -48t32 -33.5t51 -12.5q44 0 90 26.5t86 72
t70.5 106t44.5 129.5zM985 1149q10 -19 13 -31.5t-5.5 -20t-29.5 -11t-60 -3.5q-32 0 -50 1.5t-28 5.5t-14.5 10.5t-9.5 17.5l-74 150l-134 -150q-9 -11 -18 -18t-22 -10.5t-33 -5t-49 -1.5q-40 0 -61 3.5t-26.5 11t1.5 20.5t25 31l202 223q8 10 19 15.5t27 9.5t38.5 5.5
t53.5 1.5q32 0 53 -2t35 -6t22 -10t13 -14zM150 960z" />
    <glyph glyph-name="atilde" unicode="&#xe3;" horiz-adv-x="1081" 
d="M868 33q-4 -21 -31.5 -30t-88.5 -9q-31 0 -50.5 2t-31.5 6.5t-15.5 12t-1.5 18.5l28 143q-15 -32 -48 -67.5t-78 -64.5t-99.5 -48t-112.5 -19q-80 0 -133 28t-85 75.5t-45.5 108.5t-13.5 128q0 63 12 137.5t37 148.5t64 142.5t93.5 121.5t125 84.5t159.5 31.5
q83 0 147 -34.5t112 -100.5l16 79q4 21 31.5 30t88.5 9q30 0 50 -2.5t31.5 -7t15.5 -12t2 -17.5zM744 659q-35 55 -77.5 82.5t-98.5 27.5q-42 0 -77 -20t-62 -53.5t-47.5 -77.5t-34 -91.5t-20 -96t-6.5 -89.5q0 -30 4.5 -57t16.5 -48t32 -33.5t51 -12.5q44 0 90 26.5t86 72
t70.5 106t44.5 129.5zM1062 1347q0 -6 -2 -27.5t-9.5 -50.5t-23 -61.5t-41.5 -59.5t-64.5 -44.5t-93.5 -17.5q-39 0 -68.5 8t-53.5 21t-43.5 27.5t-37 27t-35 21t-37.5 8.5q-33 0 -49.5 -23.5t-21.5 -61.5q-2 -9 -5.5 -14.5t-12.5 -8.5t-24.5 -4t-39.5 -1q-22 0 -36 1.5
t-21.5 5t-10 9t-2.5 13.5q0 6 2 27.5t9.5 50.5t22.5 61t41 59t65 45t94 18q37 0 67 -8t54 -21t43.5 -27.5t37.5 -27.5t35.5 -21t36.5 -8q30 0 48.5 21.5t23.5 63.5q1 17 17.5 22.5t61.5 5.5q46 0 59.5 -6.5t13.5 -22.5zM89 960z" />
    <glyph glyph-name="adieresis" unicode="&#xe4;" horiz-adv-x="1081" 
d="M868 33q-4 -21 -31.5 -30t-88.5 -9q-31 0 -50.5 2t-31.5 6.5t-15.5 12t-1.5 18.5l28 143q-15 -32 -48 -67.5t-78 -64.5t-99.5 -48t-112.5 -19q-80 0 -133 28t-85 75.5t-45.5 108.5t-13.5 128q0 63 12 137.5t37 148.5t64 142.5t93.5 121.5t125 84.5t159.5 31.5
q83 0 147 -34.5t112 -100.5l16 79q4 21 31.5 30t88.5 9q30 0 50 -2.5t31.5 -7t15.5 -12t2 -17.5zM744 659q-35 55 -77.5 82.5t-98.5 27.5q-42 0 -77 -20t-62 -53.5t-47.5 -77.5t-34 -91.5t-20 -96t-6.5 -89.5q0 -30 4.5 -57t16.5 -48t32 -33.5t51 -12.5q44 0 90 26.5t86 72
t70.5 106t44.5 129.5zM1016 1225q-7 -37 -18.5 -61t-29 -38t-43 -19t-60.5 -5q-34 0 -57 5t-35.5 19t-15 38t4.5 61q6 37 17.5 61t29.5 38t43 19t59 5q35 0 58 -5t36 -19t15.5 -38t-4.5 -61zM625 1225q-7 -37 -18 -61t-29 -38t-43.5 -19t-59.5 -5q-35 0 -58 5t-35.5 19
t-15 38t4.5 61q6 37 17.5 61t29.5 38t43 19t60 5q34 0 57 -5t36 -19t15.5 -38t-4.5 -61zM116 960z" />
    <glyph glyph-name="aring" unicode="&#xe5;" horiz-adv-x="1081" 
d="M868 33q-4 -21 -31.5 -30t-88.5 -9q-31 0 -50.5 2t-31.5 6.5t-15.5 12t-1.5 18.5l28 143q-15 -32 -48 -67.5t-78 -64.5t-99.5 -48t-112.5 -19q-80 0 -133 28t-85 75.5t-45.5 108.5t-13.5 128q0 63 12 137.5t37 148.5t64 142.5t93.5 121.5t125 84.5t159.5 31.5
q83 0 147 -34.5t112 -100.5l16 79q4 21 31.5 30t88.5 9q30 0 50 -2.5t31.5 -7t15.5 -12t2 -17.5zM744 659q-35 55 -77.5 82.5t-98.5 27.5q-42 0 -77 -20t-62 -53.5t-47.5 -77.5t-34 -91.5t-20 -96t-6.5 -89.5q0 -30 4.5 -57t16.5 -48t32 -33.5t51 -12.5q44 0 90 26.5t86 72
t70.5 106t44.5 129.5zM935 1296q0 -48 -15.5 -89.5t-47.5 -72.5t-82 -49t-120 -18q-57 0 -97 12t-64.5 33.5t-35.5 51t-11 64.5q0 46 14.5 87.5t46.5 73t82 50t120 18.5q58 0 98 -12.5t65 -34t36 -51t11 -63.5zM782 1279q0 13 -4 25.5t-12.5 22t-23.5 15t-36 5.5
q-44 0 -68 -26.5t-24 -76.5q0 -13 3.5 -25t12.5 -21.5t23.5 -15t36.5 -5.5q42 0 67 25.5t25 76.5zM203 960z" />
    <glyph glyph-name="ae" unicode="&#xe6;" horiz-adv-x="1564" 
d="M1180 983q92 0 157.5 -21.5t107.5 -57t62 -81t20 -94.5q0 -71 -32 -129t-99.5 -99.5t-173 -64t-254.5 -22.5h-92q-4 -24 -6 -45t-2 -40q0 -80 42.5 -121.5t137.5 -41.5q63 0 115 9.5t92 21t66 21t38 9.5q22 0 22 -25q0 -20 -3 -43.5t-9.5 -45.5t-14.5 -39.5t-18 -27.5
q-11 -11 -43 -23t-77.5 -22.5t-100.5 -17t-111 -6.5q-65 0 -117.5 10.5t-93 31t-70.5 49.5t-49 66q-43 -42 -86.5 -71.5t-89 -48.5t-92 -28t-94.5 -9q-74 0 -127.5 19t-88.5 51.5t-51.5 75.5t-16.5 92q0 65 18.5 117t52.5 92t81 68.5t104.5 47t123 27t134.5 8.5h118l12 52
q9 42 7 73t-18 52t-48 31t-83 10q-62 0 -114 -14.5t-92 -32t-67.5 -32t-41.5 -14.5q-16 0 -24 15.5t-8 44.5q0 13 2 30.5t6.5 35.5t11.5 33.5t16 24.5q17 18 55.5 35.5t88 31.5t105 23t107.5 9q61 0 108 -9t81.5 -26t58 -41t37.5 -53q30 29 66.5 53.5t77.5 41t85.5 25.5
t90.5 9zM620 278q-2 7 -2.5 16t-0.5 18q0 25 2.5 52t7.5 50h-99q-71 0 -119.5 -13.5t-77.5 -36.5t-41.5 -53t-12.5 -63q0 -44 28.5 -68t78.5 -24q29 0 57 6.5t57 21t59 38t63 56.5zM1280 711q0 20 -7 36.5t-22 29.5t-38.5 20t-55.5 7q-50 0 -90.5 -18t-71.5 -49t-52.5 -72.5
t-33.5 -88.5h88q81 0 135.5 10.5t87.5 29t46.5 43.5t13.5 52z" />
    <glyph glyph-name="ccedilla" unicode="&#xe7;" horiz-adv-x="843" 
d="M275 -7q-103 26 -159.5 107.5t-56.5 219.5q0 61 11.5 134t37.5 146.5t67.5 142.5t101.5 122t139 85t182 32q40 0 78 -6t70 -16.5t56.5 -24.5t36.5 -25.5t15.5 -20.5t3.5 -22q0 -23 -5.5 -52t-14.5 -55t-22.5 -43.5t-29.5 -17.5q-15 0 -29 12t-34.5 27t-51.5 27.5
t-80 12.5q-52 0 -93 -23t-71.5 -59.5t-50.5 -83t-33 -94t-18.5 -91t-5.5 -75.5q0 -81 35.5 -123t111.5 -42q56 0 96 14.5t68.5 32t49 31.5t37.5 14q10 0 14.5 -9t4.5 -26t-4 -42.5t-10.5 -51.5t-15 -48.5t-22 -35.5t-44.5 -31t-74 -32t-90 -19l12 -50q7 -25 11 -47t4 -44
q0 -54 -17.5 -93.5t-49.5 -65t-76.5 -37.5t-98.5 -12q-29 0 -56.5 2t-50.5 6.5t-41 10t-30 10.5q-11 6 -15 12.5t-4 19.5q0 10 2.5 28t8.5 36t16.5 31.5t26.5 13.5h114q14 0 27 3.5t22.5 10t15 17.5t5.5 25q0 10 -1.5 23t-4.5 26z" />
    <glyph glyph-name="egrave" unicode="&#xe8;" horiz-adv-x="1006" 
d="M969 730q0 -72 -32.5 -129.5t-101 -99t-174 -63.5t-251.5 -22h-92q-4 -23 -6 -45.5t-2 -41.5q0 -81 42 -122t135 -41q66 0 118.5 9.5t92 21t65.5 21t38 9.5t17 -7t5 -22q0 -17 -3 -39t-8.5 -43.5t-14 -40.5t-19.5 -29q-12 -12 -44 -24t-77 -22t-101 -16.5t-114 -6.5
q-96 0 -167.5 20t-119.5 61t-72 104.5t-24 150.5q0 67 12.5 143.5t40.5 151t72 142.5t106.5 119.5t144.5 82.5t187 31q91 0 156.5 -21.5t107.5 -57t62.5 -81t20.5 -93.5zM722 711q0 40 -31.5 66.5t-91.5 26.5q-50 0 -89.5 -18t-69.5 -48.5t-51.5 -72t-34.5 -88.5h84
q80 0 134 10.5t87 28.5t48 42.5t15 52.5zM758 1135q8 -13 9.5 -23t-7 -16.5t-28.5 -9.5t-55 -3q-29 0 -48 1.5t-31.5 6t-21 11t-16.5 16.5l-183 232q-9 11 -9.5 21t11.5 17.5t39 11.5t73 4q34 0 56 -1.5t37 -6.5t24 -12.5t16 -19.5zM104 960z" />
    <glyph glyph-name="eacute" unicode="&#xe9;" horiz-adv-x="1006" 
d="M969 730q0 -72 -32.5 -129.5t-101 -99t-174 -63.5t-251.5 -22h-92q-4 -23 -6 -45.5t-2 -41.5q0 -81 42 -122t135 -41q66 0 118.5 9.5t92 21t65.5 21t38 9.5t17 -7t5 -22q0 -17 -3 -39t-8.5 -43.5t-14 -40.5t-19.5 -29q-12 -12 -44 -24t-77 -22t-101 -16.5t-114 -6.5
q-96 0 -167.5 20t-119.5 61t-72 104.5t-24 150.5q0 67 12.5 143.5t40.5 151t72 142.5t106.5 119.5t144.5 82.5t187 31q91 0 156.5 -21.5t107.5 -57t62.5 -81t20.5 -93.5zM722 711q0 40 -31.5 66.5t-91.5 26.5q-50 0 -89.5 -18t-69.5 -48.5t-51.5 -72t-34.5 -88.5h84
q80 0 134 10.5t87 28.5t48 42.5t15 52.5zM736 1118q-8 -10 -16 -16.5t-21 -10.5t-32 -6t-48 -2q-35 0 -55 3t-28 9.5t-5.5 16.5t11.5 23l152 229q8 11 18 19t25.5 12.5t38.5 6.5t56 2q46 0 72 -4.5t37.5 -12t9.5 -17t-11 -20.5zM277 960z" />
    <glyph glyph-name="ecircumflex" unicode="&#xea;" horiz-adv-x="1006" 
d="M969 730q0 -72 -32.5 -129.5t-101 -99t-174 -63.5t-251.5 -22h-92q-4 -23 -6 -45.5t-2 -41.5q0 -81 42 -122t135 -41q66 0 118.5 9.5t92 21t65.5 21t38 9.5t17 -7t5 -22q0 -17 -3 -39t-8.5 -43.5t-14 -40.5t-19.5 -29q-12 -12 -44 -24t-77 -22t-101 -16.5t-114 -6.5
q-96 0 -167.5 20t-119.5 61t-72 104.5t-24 150.5q0 67 12.5 143.5t40.5 151t72 142.5t106.5 119.5t144.5 82.5t187 31q91 0 156.5 -21.5t107.5 -57t62.5 -81t20.5 -93.5zM722 711q0 40 -31.5 66.5t-91.5 26.5q-50 0 -89.5 -18t-69.5 -48.5t-51.5 -72t-34.5 -88.5h84
q80 0 134 10.5t87 28.5t48 42.5t15 52.5zM932 1149q10 -19 13 -31.5t-5.5 -20t-29.5 -11t-60 -3.5q-32 0 -50 1.5t-28 5.5t-14.5 10.5t-9.5 17.5l-74 150l-134 -150q-9 -11 -18 -18t-22 -10.5t-33 -5t-49 -1.5q-40 0 -61 3.5t-26.5 11t1.5 20.5t25 31l202 223q8 10 19 15.5
t27 9.5t38.5 5.5t53.5 1.5q32 0 53 -2t35 -6t22 -10t13 -14zM97 960z" />
    <glyph glyph-name="edieresis" unicode="&#xeb;" horiz-adv-x="1006" 
d="M969 730q0 -72 -32.5 -129.5t-101 -99t-174 -63.5t-251.5 -22h-92q-4 -23 -6 -45.5t-2 -41.5q0 -81 42 -122t135 -41q66 0 118.5 9.5t92 21t65.5 21t38 9.5t17 -7t5 -22q0 -17 -3 -39t-8.5 -43.5t-14 -40.5t-19.5 -29q-12 -12 -44 -24t-77 -22t-101 -16.5t-114 -6.5
q-96 0 -167.5 20t-119.5 61t-72 104.5t-24 150.5q0 67 12.5 143.5t40.5 151t72 142.5t106.5 119.5t144.5 82.5t187 31q91 0 156.5 -21.5t107.5 -57t62.5 -81t20.5 -93.5zM722 711q0 40 -31.5 66.5t-91.5 26.5q-50 0 -89.5 -18t-69.5 -48.5t-51.5 -72t-34.5 -88.5h84
q80 0 134 10.5t87 28.5t48 42.5t15 52.5zM978 1225q-7 -37 -18.5 -61t-29 -38t-43 -19t-60.5 -5q-34 0 -57 5t-35.5 19t-15 38t4.5 61q6 37 17.5 61t29.5 38t43 19t59 5q35 0 58 -5t36 -19t15.5 -38t-4.5 -61zM587 1225q-7 -37 -18 -61t-29 -38t-43.5 -19t-59.5 -5
q-35 0 -58 5t-35.5 19t-15 38t4.5 61q6 37 17.5 61t29.5 38t43 19t60 5q34 0 57 -5t36 -19t15.5 -38t-4.5 -61zM78 960z" />
    <glyph glyph-name="igrave" unicode="&#xec;" horiz-adv-x="503" 
d="M291 34q-2 -10 -9.5 -17.5t-23 -12.5t-40.5 -7.5t-61 -2.5q-37 0 -60.5 2.5t-37 7.5t-17.5 12.5t-2 17.5l178 892q2 10 9.5 17.5t23 12.5t40 7.5t61.5 2.5t60.5 -2.5t37 -7.5t17.5 -12.5t2 -17.5zM466 1135q8 -13 9.5 -23t-7 -16.5t-28.5 -9.5t-55 -3q-29 0 -48 1.5
t-31.5 6t-21 11t-16.5 16.5l-183 232q-9 11 -9.5 21t11.5 17.5t39 11.5t73 4q34 0 56 -1.5t37 -6.5t24 -12.5t16 -19.5zM-188 960z" />
    <glyph glyph-name="iacute" unicode="&#xed;" horiz-adv-x="503" 
d="M291 34q-2 -10 -9.5 -17.5t-23 -12.5t-40.5 -7.5t-61 -2.5q-37 0 -60.5 2.5t-37 7.5t-17.5 12.5t-2 17.5l178 892q2 10 9.5 17.5t23 12.5t40 7.5t61.5 2.5t60.5 -2.5t37 -7.5t17.5 -12.5t2 -17.5zM465 1118q-8 -10 -16 -16.5t-21 -10.5t-32 -6t-48 -2q-35 0 -55 3
t-28 9.5t-5.5 16.5t11.5 23l152 229q8 11 18 19t25.5 12.5t38.5 6.5t56 2q46 0 72 -4.5t37.5 -12t9.5 -17t-11 -20.5zM6 960z" />
    <glyph glyph-name="icircumflex" unicode="&#xee;" horiz-adv-x="503" 
d="M291 34q-2 -10 -9.5 -17.5t-23 -12.5t-40.5 -7.5t-61 -2.5q-37 0 -60.5 2.5t-37 7.5t-17.5 12.5t-2 17.5l178 892q2 10 9.5 17.5t23 12.5t40 7.5t61.5 2.5t60.5 -2.5t37 -7.5t17.5 -12.5t2 -17.5zM669 1149q10 -19 13 -31.5t-5.5 -20t-29.5 -11t-60 -3.5q-32 0 -50 1.5
t-28 5.5t-14.5 10.5t-9.5 17.5l-74 150l-134 -150q-9 -11 -18 -18t-22 -10.5t-33 -5t-49 -1.5q-40 0 -61 3.5t-26.5 11t1.5 20.5t25 31l202 223q8 10 19 15.5t27 9.5t38.5 5.5t53.5 1.5q32 0 53 -2t35 -6t22 -10t13 -14zM-166 960z" />
    <glyph glyph-name="idieresis" unicode="&#xef;" horiz-adv-x="503" 
d="M291 34q-2 -10 -9.5 -17.5t-23 -12.5t-40.5 -7.5t-61 -2.5q-37 0 -60.5 2.5t-37 7.5t-17.5 12.5t-2 17.5l178 892q2 10 9.5 17.5t23 12.5t40 7.5t61.5 2.5t60.5 -2.5t37 -7.5t17.5 -12.5t2 -17.5zM110 1225q7 37 18.5 61t29.5 38t42 19t57 5t54.5 -5t33 -19t13 -38
t-6.5 -61q-7 -37 -18 -61t-28 -38t-41 -19t-56 -5q-34 0 -56 5t-34 19t-14 38t6 61zM446 1225q7 37 19 61t29.5 38t42 19t56.5 5q33 0 55 -5t33 -19t12.5 -38t-5.5 -61q-8 -37 -19 -61t-28.5 -38t-41 -19t-56.5 -5t-55 5t-34 19t-14 38t6 61zM-144 960z" />
    <glyph glyph-name="eth" unicode="&#xf0;" horiz-adv-x="1099" 
d="M408 1054q-22 -5 -29.5 1t-7.5 25q0 12 3 32.5t10 41.5t19 37.5t30 20.5l161 37l-65 93q-8 11 -9.5 20.5t10 16.5t39 11t77.5 4q37 0 63 -2t44.5 -7t30.5 -12t20 -17l33 -52l262 60q25 6 34.5 -3.5t9.5 -27.5q0 -11 -2.5 -30t-9.5 -38.5t-18 -35.5t-29 -20l-159 -37
q26 -49 45.5 -98t32 -97t18 -95.5t5.5 -92.5q0 -61 -5.5 -129t-19 -136.5t-36.5 -135.5t-56 -128t-78.5 -113t-105 -90t-133.5 -59t-166 -21q-102 0 -171.5 24.5t-112.5 70t-62 108.5t-19 140q0 65 12 139.5t37 148t64 141.5t93.5 120t125.5 83t160 31q35 0 67 -6
t60.5 -19.5t52.5 -36t45 -54.5q-8 26 -16 55.5t-18.5 61t-25.5 65t-37 68.5zM738 566q0 47 -10.5 85t-31 64t-50.5 40t-70 14q-44 0 -80 -19t-64 -50.5t-49 -73t-34.5 -87t-20.5 -91t-7 -84.5q0 -89 34.5 -131.5t101.5 -42.5q50 0 91 18.5t72 48.5t53 69.5t37 81t21.5 83
t6.5 75.5z" />
    <glyph glyph-name="ntilde" unicode="&#xf1;" 
d="M999 727q0 -35 -4.5 -70t-11.5 -72l-111 -551q-2 -10 -9.5 -17.5t-23 -12.5t-40 -7.5t-61.5 -2.5t-60.5 2.5t-36.5 7.5t-17.5 12.5t-2.5 17.5l108 535q5 24 7.5 49t2.5 44q0 45 -19 74t-64 29q-41 0 -85.5 -26t-84 -70.5t-70.5 -104t-44 -126.5l-81 -404
q-2 -10 -9.5 -17.5t-23 -12.5t-40.5 -7.5t-61 -2.5q-37 0 -60.5 2.5t-37 7.5t-17.5 12.5t-2 17.5l179 893q2 10 8.5 17.5t20 12t35 7t51.5 2.5q31 0 50.5 -2.5t30.5 -7t14.5 -12t1.5 -17.5l-29 -147q21 35 56 71.5t80.5 65.5t99 47.5t111.5 18.5q70 0 117.5 -20.5t77 -55.5
t42.5 -81.5t13 -98.5zM1035 1347q0 -6 -2 -27.5t-9.5 -50.5t-23 -61.5t-41.5 -59.5t-64.5 -44.5t-93.5 -17.5q-39 0 -68.5 8t-53.5 21t-43.5 27.5t-37 27t-35 21t-37.5 8.5q-33 0 -49.5 -23.5t-21.5 -61.5q-2 -9 -5.5 -14.5t-12.5 -8.5t-24.5 -4t-39.5 -1q-22 0 -36 1.5
t-21.5 5t-10 9t-2.5 13.5q0 6 2 27.5t9.5 50.5t22.5 61t41 59t65 45t94 18q37 0 67 -8t54 -21t43.5 -27.5t37.5 -27.5t35.5 -21t36.5 -8q30 0 48.5 21.5t23.5 63.5q1 17 17.5 22.5t61.5 5.5q46 0 59.5 -6.5t13.5 -22.5zM62 960z" />
    <glyph glyph-name="ograve" unicode="&#xf2;" 
d="M1024 626q0 -72 -13.5 -148t-42.5 -148.5t-74.5 -136t-109 -112t-145.5 -76.5t-185 -28q-101 0 -174.5 23.5t-122.5 69t-73 112t-24 152.5q0 72 13.5 148t42.5 148t74.5 136.5t109 112.5t145.5 76t185 28q101 0 174.5 -23.5t122.5 -69t73 -112t24 -152.5zM764 609
q0 42 -8.5 74.5t-28 55t-50 34.5t-74.5 12q-50 0 -90 -19.5t-71.5 -52.5t-54.5 -76.5t-38 -91.5t-22 -97.5t-7 -94.5q0 -42 8.5 -75t28 -55.5t50 -34.5t74.5 -12q50 0 90 19.5t71.5 53t54.5 77t38 92t22 97.5t7 94zM759 1135q8 -13 9.5 -23t-7 -16.5t-28.5 -9.5t-55 -3
q-29 0 -48 1.5t-31.5 6t-21 11t-16.5 16.5l-183 232q-9 11 -9.5 21t11.5 17.5t39 11.5t73 4q34 0 56 -1.5t37 -6.5t24 -12.5t16 -19.5zM105 960z" />
    <glyph glyph-name="oacute" unicode="&#xf3;" 
d="M1024 626q0 -72 -13.5 -148t-42.5 -148.5t-74.5 -136t-109 -112t-145.5 -76.5t-185 -28q-101 0 -174.5 23.5t-122.5 69t-73 112t-24 152.5q0 72 13.5 148t42.5 148t74.5 136.5t109 112.5t145.5 76t185 28q101 0 174.5 -23.5t122.5 -69t73 -112t24 -152.5zM764 609
q0 42 -8.5 74.5t-28 55t-50 34.5t-74.5 12q-50 0 -90 -19.5t-71.5 -52.5t-54.5 -76.5t-38 -91.5t-22 -97.5t-7 -94.5q0 -42 8.5 -75t28 -55.5t50 -34.5t74.5 -12q50 0 90 19.5t71.5 53t54.5 77t38 92t22 97.5t7 94zM769 1118q-8 -10 -16 -16.5t-21 -10.5t-32 -6t-48 -2
q-35 0 -55 3t-28 9.5t-5.5 16.5t11.5 23l152 229q8 11 18 19t25.5 12.5t38.5 6.5t56 2q46 0 72 -4.5t37.5 -12t9.5 -17t-11 -20.5zM310 960z" />
    <glyph glyph-name="ocircumflex" unicode="&#xf4;" 
d="M1024 626q0 -72 -13.5 -148t-42.5 -148.5t-74.5 -136t-109 -112t-145.5 -76.5t-185 -28q-101 0 -174.5 23.5t-122.5 69t-73 112t-24 152.5q0 72 13.5 148t42.5 148t74.5 136.5t109 112.5t145.5 76t185 28q101 0 174.5 -23.5t122.5 -69t73 -112t24 -152.5zM764 609
q0 42 -8.5 74.5t-28 55t-50 34.5t-74.5 12q-50 0 -90 -19.5t-71.5 -52.5t-54.5 -76.5t-38 -91.5t-22 -97.5t-7 -94.5q0 -42 8.5 -75t28 -55.5t50 -34.5t74.5 -12q50 0 90 19.5t71.5 53t54.5 77t38 92t22 97.5t7 94zM958 1149q10 -19 13 -31.5t-5.5 -20t-29.5 -11t-60 -3.5
q-32 0 -50 1.5t-28 5.5t-14.5 10.5t-9.5 17.5l-74 150l-134 -150q-9 -11 -18 -18t-22 -10.5t-33 -5t-49 -1.5q-40 0 -61 3.5t-26.5 11t1.5 20.5t25 31l202 223q8 10 19 15.5t27 9.5t38.5 5.5t53.5 1.5q32 0 53 -2t35 -6t22 -10t13 -14zM123 960z" />
    <glyph glyph-name="otilde" unicode="&#xf5;" 
d="M1024 626q0 -72 -13.5 -148t-42.5 -148.5t-74.5 -136t-109 -112t-145.5 -76.5t-185 -28q-101 0 -174.5 23.5t-122.5 69t-73 112t-24 152.5q0 72 13.5 148t42.5 148t74.5 136.5t109 112.5t145.5 76t185 28q101 0 174.5 -23.5t122.5 -69t73 -112t24 -152.5zM764 609
q0 42 -8.5 74.5t-28 55t-50 34.5t-74.5 12q-50 0 -90 -19.5t-71.5 -52.5t-54.5 -76.5t-38 -91.5t-22 -97.5t-7 -94.5q0 -42 8.5 -75t28 -55.5t50 -34.5t74.5 -12q50 0 90 19.5t71.5 53t54.5 77t38 92t22 97.5t7 94zM1045 1347q0 -6 -2 -27.5t-9.5 -50.5t-23 -61.5
t-41.5 -59.5t-64.5 -44.5t-93.5 -17.5q-39 0 -68.5 8t-53.5 21t-43.5 27.5t-37 27t-35 21t-37.5 8.5q-33 0 -49.5 -23.5t-21.5 -61.5q-2 -9 -5.5 -14.5t-12.5 -8.5t-24.5 -4t-39.5 -1q-22 0 -36 1.5t-21.5 5t-10 9t-2.5 13.5q0 6 2 27.5t9.5 50.5t22.5 61t41 59t65 45t94 18
q37 0 67 -8t54 -21t43.5 -27.5t37.5 -27.5t35.5 -21t36.5 -8q30 0 48.5 21.5t23.5 63.5q1 17 17.5 22.5t61.5 5.5q46 0 59.5 -6.5t13.5 -22.5zM72 960z" />
    <glyph glyph-name="odieresis" unicode="&#xf6;" 
d="M1024 626q0 -72 -13.5 -148t-42.5 -148.5t-74.5 -136t-109 -112t-145.5 -76.5t-185 -28q-101 0 -174.5 23.5t-122.5 69t-73 112t-24 152.5q0 72 13.5 148t42.5 148t74.5 136.5t109 112.5t145.5 76t185 28q101 0 174.5 -23.5t122.5 -69t73 -112t24 -152.5zM764 609
q0 42 -8.5 74.5t-28 55t-50 34.5t-74.5 12q-50 0 -90 -19.5t-71.5 -52.5t-54.5 -76.5t-38 -91.5t-22 -97.5t-7 -94.5q0 -42 8.5 -75t28 -55.5t50 -34.5t74.5 -12q50 0 90 19.5t71.5 53t54.5 77t38 92t22 97.5t7 94zM1009 1225q-7 -37 -18.5 -61t-29 -38t-43 -19t-60.5 -5
q-34 0 -57 5t-35.5 19t-15 38t4.5 61q6 37 17.5 61t29.5 38t43 19t59 5q35 0 58 -5t36 -19t15.5 -38t-4.5 -61zM618 1225q-7 -37 -18 -61t-29 -38t-43.5 -19t-59.5 -5q-35 0 -58 5t-35.5 19t-15 38t4.5 61q6 37 17.5 61t29.5 38t43 19t60 5q34 0 57 -5t36 -19t15.5 -38
t-4.5 -61zM109 960z" />
    <glyph glyph-name="divide" unicode="&#xf7;" horiz-adv-x="1020" 
d="M747 954q-8 -42 -21 -70t-33.5 -46t-50 -26t-70.5 -8q-42 0 -68.5 8t-39.5 26t-14 46t7 70q9 42 22 72t33.5 48t49.5 26t72 8q41 0 67.5 -8t39.5 -26t14 -48t-8 -72zM1005 631q0 -7 -1.5 -21t-5 -31t-8.5 -34.5t-12 -32t-16 -24t-20 -9.5h-869q-25 0 -25 39q0 7 1.5 21.5
t5 31.5t9 35t12.5 32.5t15.5 24t19.5 9.5h869q25 0 25 -41zM596 192q-9 -41 -21.5 -69.5t-33.5 -46t-50.5 -25.5t-70.5 -8q-42 0 -68.5 8t-39.5 25.5t-14 46t7 69.5q9 43 21.5 72.5t33 47.5t50 26t71.5 8q41 0 67.5 -8t39.5 -26t14.5 -47.5t-6.5 -72.5z" />
    <glyph glyph-name="oslash" unicode="&#xf8;" horiz-adv-x="1114" 
d="M944 904q60 -48 87.5 -117t27.5 -161q0 -72 -13.5 -148t-43 -148.5t-75.5 -136t-111.5 -112t-150.5 -76.5t-193 -28q-23 0 -43.5 1t-39 3.5t-34.5 5t-27 6.5l-94 -139q-11 -16 -37.5 -22.5t-70.5 -6.5q-61 0 -78.5 12t-1.5 35l127 185q-58 46 -85.5 116t-27.5 161
q0 72 13.5 148t43.5 148t76 136.5t111.5 112.5t150.5 76t193 28q34 0 70 -3t71 -13l91 134q10 15 36 22t71 7q60 0 77.5 -12t1.5 -36zM820 601q0 24 -5.5 47t-19.5 42l-354 -522q12 -4 28.5 -6.5t37.5 -2.5q58 0 104 21.5t81 57t59 81.5t39.5 95t22.5 97t7 90zM677 793
q-13 4 -31 6t-34 2q-58 0 -103 -21.5t-80 -57t-59.5 -81t-40 -94.5t-23 -98t-7.5 -90q0 -30 6.5 -52t18.5 -35z" />
    <glyph glyph-name="ugrave" unicode="&#xf9;" 
d="M867 33q-2 -10 -8.5 -17.5t-20 -12t-34.5 -7t-52 -2.5t-50.5 2.5t-30.5 7t-14.5 12t-0.5 17.5l27 145q-20 -35 -55 -70.5t-80.5 -65t-98.5 -47.5t-109 -18q-70 0 -118.5 19.5t-78 53t-43 80.5t-13.5 102q0 34 4.5 69.5t11.5 72.5l110 553q2 10 9.5 17.5t23 12t40.5 7
t61 2.5q37 0 60.5 -2.5t36.5 -7t17.5 -12t2.5 -17.5l-106 -536q-5 -22 -7.5 -46t-2.5 -46q0 -24 4.5 -43.5t14.5 -33.5t25.5 -21t37.5 -7q41 0 85.5 26.5t84.5 73t71.5 110t47.5 137.5l76 386q1 10 9 17.5t23.5 12t40.5 7t61 2.5q37 0 60.5 -2.5t37 -7t17.5 -12t2 -17.5z
M730 1135q8 -13 9.5 -23t-7 -16.5t-28.5 -9.5t-55 -3q-29 0 -48 1.5t-31.5 6t-21 11t-16.5 16.5l-183 232q-9 11 -9.5 21t11.5 17.5t39 11.5t73 4q34 0 56 -1.5t37 -6.5t24 -12.5t16 -19.5zM76 960z" />
    <glyph glyph-name="uacute" unicode="&#xfa;" 
d="M867 33q-2 -10 -8.5 -17.5t-20 -12t-34.5 -7t-52 -2.5t-50.5 2.5t-30.5 7t-14.5 12t-0.5 17.5l27 145q-20 -35 -55 -70.5t-80.5 -65t-98.5 -47.5t-109 -18q-70 0 -118.5 19.5t-78 53t-43 80.5t-13.5 102q0 34 4.5 69.5t11.5 72.5l110 553q2 10 9.5 17.5t23 12t40.5 7
t61 2.5q37 0 60.5 -2.5t36.5 -7t17.5 -12t2.5 -17.5l-106 -536q-5 -22 -7.5 -46t-2.5 -46q0 -24 4.5 -43.5t14.5 -33.5t25.5 -21t37.5 -7q41 0 85.5 26.5t84.5 73t71.5 110t47.5 137.5l76 386q1 10 9 17.5t23.5 12t40.5 7t61 2.5q37 0 60.5 -2.5t37 -7t17.5 -12t2 -17.5z
M764 1118q-8 -10 -16 -16.5t-21 -10.5t-32 -6t-48 -2q-35 0 -55 3t-28 9.5t-5.5 16.5t11.5 23l152 229q8 11 18 19t25.5 12.5t38.5 6.5t56 2q46 0 72 -4.5t37.5 -12t9.5 -17t-11 -20.5zM305 960z" />
    <glyph glyph-name="ucircumflex" unicode="&#xfb;" 
d="M867 33q-2 -10 -8.5 -17.5t-20 -12t-34.5 -7t-52 -2.5t-50.5 2.5t-30.5 7t-14.5 12t-0.5 17.5l27 145q-20 -35 -55 -70.5t-80.5 -65t-98.5 -47.5t-109 -18q-70 0 -118.5 19.5t-78 53t-43 80.5t-13.5 102q0 34 4.5 69.5t11.5 72.5l110 553q2 10 9.5 17.5t23 12t40.5 7
t61 2.5q37 0 60.5 -2.5t36.5 -7t17.5 -12t2.5 -17.5l-106 -536q-5 -22 -7.5 -46t-2.5 -46q0 -24 4.5 -43.5t14.5 -33.5t25.5 -21t37.5 -7q41 0 85.5 26.5t84.5 73t71.5 110t47.5 137.5l76 386q1 10 9 17.5t23.5 12t40.5 7t61 2.5q37 0 60.5 -2.5t37 -7t17.5 -12t2 -17.5z
M953 1149q10 -19 13 -31.5t-5.5 -20t-29.5 -11t-60 -3.5q-32 0 -50 1.5t-28 5.5t-14.5 10.5t-9.5 17.5l-74 150l-134 -150q-9 -11 -18 -18t-22 -10.5t-33 -5t-49 -1.5q-40 0 -61 3.5t-26.5 11t1.5 20.5t25 31l202 223q8 10 19 15.5t27 9.5t38.5 5.5t53.5 1.5q32 0 53 -2
t35 -6t22 -10t13 -14zM118 960z" />
    <glyph glyph-name="udieresis" unicode="&#xfc;" 
d="M867 33q-2 -10 -8.5 -17.5t-20 -12t-34.5 -7t-52 -2.5t-50.5 2.5t-30.5 7t-14.5 12t-0.5 17.5l27 145q-20 -35 -55 -70.5t-80.5 -65t-98.5 -47.5t-109 -18q-70 0 -118.5 19.5t-78 53t-43 80.5t-13.5 102q0 34 4.5 69.5t11.5 72.5l110 553q2 10 9.5 17.5t23 12t40.5 7
t61 2.5q37 0 60.5 -2.5t36.5 -7t17.5 -12t2.5 -17.5l-106 -536q-5 -22 -7.5 -46t-2.5 -46q0 -24 4.5 -43.5t14.5 -33.5t25.5 -21t37.5 -7q41 0 85.5 26.5t84.5 73t71.5 110t47.5 137.5l76 386q1 10 9 17.5t23.5 12t40.5 7t61 2.5q37 0 60.5 -2.5t37 -7t17.5 -12t2 -17.5z
M995 1225q-7 -37 -18.5 -61t-29 -38t-43 -19t-60.5 -5q-34 0 -57 5t-35.5 19t-15 38t4.5 61q6 37 17.5 61t29.5 38t43 19t59 5q35 0 58 -5t36 -19t15.5 -38t-4.5 -61zM604 1225q-7 -37 -18 -61t-29 -38t-43.5 -19t-59.5 -5q-35 0 -58 5t-35.5 19t-15 38t4.5 61q6 37 17.5 61
t29.5 38t43 19t60 5q34 0 57 -5t36 -19t15.5 -38t-4.5 -61zM95 960z" />
    <glyph glyph-name="yacute" unicode="&#xfd;" horiz-adv-x="963" 
d="M998 929q0 -13 -3 -29t-9 -33q-34 -92 -73.5 -190t-90.5 -202t-116 -215t-149 -230l-244 -346q-9 -13 -22.5 -21.5t-34 -14t-49.5 -8.5t-67 -3q-43 0 -69.5 3.5t-38.5 11.5t-11 20t14 29l227 299l-147 858q-2 13 -4 27t-2 24q0 18 6.5 29t22 17t41.5 8.5t63 2.5
q41 0 64.5 -1.5t35.5 -6.5t16.5 -15t6.5 -25l92 -625h2q50 75 91 152t75 156.5t62.5 161t52.5 164.5q2 10 9 17.5t23.5 12t43.5 7t70 2.5q64 0 88 -8t24 -29zM686 1118q-8 -10 -16 -16.5t-21 -10.5t-32 -6t-48 -2q-35 0 -55 3t-28 9.5t-5.5 16.5t11.5 23l152 229q8 11 18 19
t25.5 12.5t38.5 6.5t56 2q46 0 72 -4.5t37.5 -12t9.5 -17t-11 -20.5zM227 960z" />
    <glyph glyph-name="thorn" unicode="&#xfe;" horiz-adv-x="1081" 
d="M1024 643q0 -65 -12 -140t-37 -149t-64 -142.5t-93.5 -120.5t-125 -83t-158.5 -31q-40 0 -75 8t-64.5 22.5t-53.5 34t-42 41.5l-79 -403q-2 -10 -9.5 -18t-23 -13.5t-40.5 -8.5t-62 -3t-60 3t-36.5 8.5t-17.5 13.5t-2 18l334 1669q2 10 10 18t23.5 13.5t40 8.5t60.5 3
q38 0 61.5 -3t36.5 -9t16.5 -14.5t1.5 -17.5l-71 -357q-5 -21 -10.5 -44t-12 -47t-14.5 -49t-17 -49q17 30 49 62t74.5 58.5t93 43.5t103.5 17q77 0 129.5 -26.5t85 -72.5t47 -108t14.5 -133zM765 621q0 34 -5.5 62t-18 47.5t-32 29.5t-47.5 10q-45 0 -90.5 -27t-86 -73
t-71 -106.5t-43.5 -127.5l-28 -136q35 -55 77.5 -82.5t98.5 -27.5q41 0 75.5 20t62 53.5t48 77.5t34 92t20 96.5t6.5 91.5z" />
    <glyph glyph-name="ydieresis" unicode="&#xff;" horiz-adv-x="963" 
d="M998 929q0 -13 -3 -29t-9 -33q-34 -92 -73.5 -190t-90.5 -202t-116 -215t-149 -230l-244 -346q-9 -13 -22.5 -21.5t-34 -14t-49.5 -8.5t-67 -3q-43 0 -69.5 3.5t-38.5 11.5t-11 20t14 29l227 299l-147 858q-2 13 -4 27t-2 24q0 18 6.5 29t22 17t41.5 8.5t63 2.5
q41 0 64.5 -1.5t35.5 -6.5t16.5 -15t6.5 -25l92 -625h2q50 75 91 152t75 156.5t62.5 161t52.5 164.5q2 10 9 17.5t23.5 12t43.5 7t70 2.5q64 0 88 -8t24 -29zM929 1225q-7 -37 -18.5 -61t-29 -38t-43 -19t-60.5 -5q-34 0 -57 5t-35.5 19t-15 38t4.5 61q6 37 17.5 61t29.5 38
t43 19t59 5q35 0 58 -5t36 -19t15.5 -38t-4.5 -61zM538 1225q-7 -37 -18 -61t-29 -38t-43.5 -19t-59.5 -5q-35 0 -58 5t-35.5 19t-15 38t4.5 61q6 37 17.5 61t29.5 38t43 19t60 5q34 0 57 -5t36 -19t15.5 -38t-4.5 -61zM29 960z" />
    <glyph glyph-name="Amacron" unicode="&#x100;" horiz-adv-x="1241" 
d="M1126 98q5 -36 4.5 -57t-14 -31.5t-44.5 -13t-85 -2.5q-38 0 -62 1.5t-37 5.5t-18 12t-6 22l-35 260h-486l-134 -254q-7 -14 -16 -23.5t-26 -14.5t-45.5 -7t-71.5 -2q-46 0 -71.5 3t-34 14.5t-2 32.5t25.5 56l628 1148q10 17 20 27.5t28.5 16t50 7t82.5 1.5
q59 0 93.5 -1.5t53.5 -7t25 -16.5t8 -30zM733 1047h-1l-289 -550h364zM1185 1578q0 -8 -1.5 -22t-5 -30t-8.5 -33t-12.5 -31t-17 -22.5t-21.5 -8.5h-590q-18 0 -25 9t-7 30q0 6 1.5 20t4 30t8 33t13.5 31t18.5 23t24.5 9h590q15 0 21.5 -10t6.5 -28zM190 1294z" />
    <glyph glyph-name="amacron" unicode="&#x101;" horiz-adv-x="1081" 
d="M868 33q-4 -21 -31.5 -30t-88.5 -9q-31 0 -50.5 2t-31.5 6.5t-15.5 12t-1.5 18.5l28 143q-15 -32 -48 -67.5t-78 -64.5t-99.5 -48t-112.5 -19q-80 0 -133 28t-85 75.5t-45.5 108.5t-13.5 128q0 63 12 137.5t37 148.5t64 142.5t93.5 121.5t125 84.5t159.5 31.5
q83 0 147 -34.5t112 -100.5l16 79q4 21 31.5 30t88.5 9q30 0 50 -2.5t31.5 -7t15.5 -12t2 -17.5zM744 659q-35 55 -77.5 82.5t-98.5 27.5q-42 0 -77 -20t-62 -53.5t-47.5 -77.5t-34 -91.5t-20 -96t-6.5 -89.5q0 -30 4.5 -57t16.5 -48t32 -33.5t51 -12.5q44 0 90 26.5t86 72
t70.5 106t44.5 129.5zM1000 1284q0 -7 -1.5 -20t-4.5 -28.5t-7.5 -32.5t-12 -31t-17 -23t-22.5 -9h-511q-17 0 -25 9t-8 30q0 10 3 33.5t10.5 48.5t21 43.5t35.5 18.5h511q16 0 22 -10.5t6 -28.5zM143 960z" />
    <glyph glyph-name="Abreve" unicode="&#x102;" horiz-adv-x="1241" 
d="M1126 98q5 -36 4.5 -57t-14 -31.5t-44.5 -13t-85 -2.5q-38 0 -62 1.5t-37 5.5t-18 12t-6 22l-35 260h-486l-134 -254q-7 -14 -16 -23.5t-26 -14.5t-45.5 -7t-71.5 -2q-46 0 -71.5 3t-34 14.5t-2 32.5t25.5 56l628 1148q10 17 20 27.5t28.5 16t50 7t82.5 1.5
q59 0 93.5 -1.5t53.5 -7t25 -16.5t8 -30zM733 1047h-1l-289 -550h364zM1159 1670q0 -11 -5 -36t-19 -56.5t-38 -65.5t-62.5 -62t-92.5 -46t-128 -18q-77 0 -127.5 16t-81.5 43.5t-43.5 63.5t-12.5 75q0 11 1 26t3 29t6 25.5t9 15.5q8 9 27 13t52 4q25 0 41 -2t25 -6
t12.5 -10t3.5 -13q0 -8 -1.5 -18.5t-1.5 -21.5q0 -19 5.5 -34t17.5 -25t31.5 -15.5t47.5 -5.5t52.5 6.5t44.5 20t35 34.5t24 52q3 10 9 17t16.5 12t27.5 7t42 2t41 -2t24.5 -5t11.5 -8.5t3 -11.5zM216 1294z" />
    <glyph glyph-name="abreve" unicode="&#x103;" horiz-adv-x="1081" 
d="M868 33q-4 -21 -31.5 -30t-88.5 -9q-31 0 -50.5 2t-31.5 6.5t-15.5 12t-1.5 18.5l28 143q-15 -32 -48 -67.5t-78 -64.5t-99.5 -48t-112.5 -19q-80 0 -133 28t-85 75.5t-45.5 108.5t-13.5 128q0 63 12 137.5t37 148.5t64 142.5t93.5 121.5t125 84.5t159.5 31.5
q83 0 147 -34.5t112 -100.5l16 79q4 21 31.5 30t88.5 9q30 0 50 -2.5t31.5 -7t15.5 -12t2 -17.5zM744 659q-35 55 -77.5 82.5t-98.5 27.5q-42 0 -77 -20t-62 -53.5t-47.5 -77.5t-34 -91.5t-20 -96t-6.5 -89.5q0 -30 4.5 -57t16.5 -48t32 -33.5t51 -12.5q44 0 90 26.5t86 72
t70.5 106t44.5 129.5zM1006 1373q0 -10 -4.5 -35.5t-17 -57.5t-36 -66.5t-60.5 -63t-91 -46.5t-128 -18q-76 0 -125.5 16t-78.5 44t-40.5 64.5t-11.5 75.5q0 11 1 26t3 29.5t5.5 26t8.5 16.5q9 8 27.5 12t51.5 4q24 0 39.5 -2t24.5 -6t12 -9.5t3 -12.5q0 -9 -1.5 -20.5
t-1.5 -22.5q0 -19 5 -34t16 -26t29.5 -17t46.5 -6t52 7t43.5 21.5t33.5 36t22 52.5q4 10 9.5 17.5t15.5 12t26 7t41 2.5q26 0 41.5 -2t24 -5t11.5 -8.5t3 -11.5zM139 960z" />
    <glyph glyph-name="Aogonek" unicode="&#x104;" horiz-adv-x="1241" 
d="M1095 -219q0 -10 -2 -25.5t-6 -31.5t-9 -29.5t-11 -19.5q-8 -8 -25.5 -15t-42 -12.5t-53.5 -9t-58 -3.5q-49 0 -89.5 8.5t-69.5 26.5t-45 44.5t-16 63.5q0 24 7 46.5t22 46t40 49.5t62 57l65 53l-35 265h-486l-134 -254q-7 -14 -16 -23.5t-26 -14.5t-45.5 -7t-71.5 -2
q-46 0 -71.5 3t-34 14.5t-2 32.5t25.5 56l628 1148q10 17 20 27.5t28.5 16t50 7t82.5 1.5q59 0 93.5 -1.5t53 -7t24.5 -16.5t9 -30l166 -1129q4 -25 4.5 -42.5t-3.5 -31t-13 -24.5t-23 -22l-82 -69q-22 -18 -35.5 -32t-21.5 -24.5t-11 -18.5t-3 -15q0 -14 12.5 -23t39.5 -9
h80q16 0 22 -5.5t6 -18.5zM734 1048h-2l-289 -551h364z" />
    <glyph glyph-name="aogonek" unicode="&#x105;" horiz-adv-x="1081" 
d="M744 659q-35 55 -77.5 82.5t-98.5 27.5q-42 0 -77 -20t-62 -53.5t-47.5 -77.5t-34 -91.5t-20 -96t-6.5 -89.5q0 -30 4.5 -57t16.5 -48t32 -33.5t51 -12.5q44 0 90 26.5t86 72t70.5 106t44.5 129.5zM677 176q-15 -32 -48 -67.5t-78 -64.5t-99.5 -48t-112.5 -19
q-80 0 -133 28t-85 75.5t-45.5 108.5t-13.5 128q0 63 12 137.5t37 148.5t64 142.5t93.5 121.5t125 84.5t159.5 31.5q83 0 147 -34.5t112 -100.5l16 79q4 21 31.5 30t88.5 9q30 0 50 -2.5t31.5 -7t15.5 -12t2 -17.5l-179 -896q-5 -27 -18 -46t-36 -38l-45 -37
q-28 -24 -39 -41t-11 -36q0 -14 12 -21.5t36 -7.5h77q16 0 22 -8t6 -20q0 -8 -2.5 -22.5t-6.5 -30t-9.5 -29t-11.5 -19.5q-8 -7 -24.5 -14t-38.5 -13t-47 -9.5t-50 -3.5q-104 0 -157.5 35.5t-53.5 102.5q0 23 5.5 44t18.5 43.5t34.5 46.5t53.5 50l62 52z" />
    <glyph glyph-name="Cacute" unicode="&#x106;" horiz-adv-x="1062" 
d="M1145 1169q0 -28 -9.5 -75t-24 -75.5t-32.5 -28.5q-13 0 -31 16.5t-47 35.5t-74 35.5t-112 16.5q-74 0 -135 -29.5t-109 -78t-84 -111.5t-59.5 -131t-35 -135.5t-11.5 -125.5q0 -70 17.5 -123t50.5 -88t81 -52.5t108 -17.5q71 0 121.5 15t86 33t59 33t42.5 15
q13 0 17.5 -9.5t4.5 -26.5q0 -7 -2 -21t-5 -31.5t-7 -38t-9 -38t-11.5 -32t-17.5 -25.5t-43 -28.5t-78 -32.5t-104 -25.5t-124 -10.5q-109 0 -196.5 29t-148.5 88t-94 148t-33 208q0 93 19 193.5t57.5 196.5t97.5 182t139.5 150.5t183 102.5t227.5 38q70 0 132.5 -14.5
t109 -38.5t65 -43.5t18.5 -49.5zM924 1421q-11 -9 -21.5 -15.5t-25 -10.5t-36 -6.5t-52.5 -2.5q-68 0 -83.5 13t10.5 40l189 204q13 14 26 23t31 14t43 7t61 2q47 0 72 -6t34 -15.5t3.5 -21.5t-20.5 -25zM388 1294z" />
    <glyph glyph-name="cacute" unicode="&#x107;" horiz-adv-x="843" 
d="M858 867q0 -23 -5.5 -52t-14.5 -55t-22.5 -43.5t-29.5 -17.5q-15 0 -29 12t-34.5 27t-51.5 27.5t-80 12.5q-52 0 -93 -23t-71.5 -59.5t-50.5 -83t-33 -94t-18.5 -91t-5.5 -75.5q0 -81 35.5 -123t111.5 -42q56 0 96 14.5t68.5 32t49 31.5t37.5 14q10 0 14.5 -9t4.5 -26
t-4 -42.5t-10.5 -51.5t-15 -48.5t-22 -35.5t-42.5 -29.5t-67 -29.5t-82.5 -21t-92.5 -8q-171 0 -256 86.5t-85 255.5q0 61 11.5 134t37.5 146.5t67.5 142.5t101.5 122t139 85t182 32q40 0 78 -6t70 -16.5t56.5 -24.5t36.5 -25.5t15.5 -20.5t3.5 -22zM697 1118
q-8 -10 -16 -16.5t-21 -10.5t-32 -6t-48 -2q-35 0 -55 3t-28 9.5t-5.5 16.5t11.5 23l152 229q8 11 18 19t25.5 12.5t38.5 6.5t56 2q46 0 72 -4.5t37.5 -12t9.5 -17t-11 -20.5zM238 960z" />
    <glyph glyph-name="Ccircumflex" unicode="&#x108;" horiz-adv-x="1062" 
d="M1145 1169q0 -28 -9.5 -75t-24 -75.5t-32.5 -28.5q-13 0 -31 16.5t-47 35.5t-74 35.5t-112 16.5q-74 0 -135 -29.5t-109 -78t-84 -111.5t-59.5 -131t-35 -135.5t-11.5 -125.5q0 -70 17.5 -123t50.5 -88t81 -52.5t108 -17.5q71 0 121.5 15t86 33t59 33t42.5 15
q13 0 17.5 -9.5t4.5 -26.5q0 -7 -2 -21t-5 -31.5t-7 -38t-9 -38t-11.5 -32t-17.5 -25.5t-43 -28.5t-78 -32.5t-104 -25.5t-124 -10.5q-109 0 -196.5 29t-148.5 88t-94 148t-33 208q0 93 19 193.5t57.5 196.5t97.5 182t139.5 150.5t183 102.5t227.5 38q70 0 132.5 -14.5
t109 -38.5t65 -43.5t18.5 -49.5zM1165 1434q9 -14 10 -23.5t-9 -15t-31 -7.5t-55 -2q-42 0 -66.5 1.5t-39 5t-21 9.5t-12.5 15l-90 137l-149 -134q-11 -11 -21.5 -17.5t-27.5 -10t-43.5 -5t-67.5 -1.5q-34 0 -54 2.5t-27.5 8t-3 14.5t19.5 23l238 214q13 13 27.5 21
t32.5 12.5t42 6t58 1.5q32 0 53.5 -1t36 -5t25 -12.5t20.5 -22.5zM166 1294z" />
    </font>
</defs>
</svg>
