<?xml version="1.0" standalone="no"?>
<!DOCTYPE svg PUBLIC "-//W3C//DTD SVG 1.1//EN" "http://www.w3.org/Graphics/SVG/1.1/DTD/svg11.dtd" >
<svg xmlns="http://www.w3.org/2000/svg" xmlns:xlink="http://www.w3.org/1999/xlink" version="1.1">
<metadata>
Created by FontForge 20170731 at Thu Jul 18 13:15:13 2013
 By Aleksey,,,
(c) 2013 Microsoft Corporation. All Rights Reserved.
</metadata>
<defs>
<font id="Calibri-Italic" horiz-adv-x="0" >
  <font-face 
    font-family="Calibri"
    font-weight="400"
    font-style="italic"
    font-stretch="normal"
    units-per-em="2048"
    panose-1="2 15 5 2 2 2 4 10 2 4"
    ascent="1536"
    descent="-512"
    x-height="951"
    cap-height="1294"
    bbox="-1481.24 -498 2580 2102"
    underline-thickness="134"
    underline-position="-433"
    slope="-11"
    unicode-range="U+000D-FEFF"
  />
<missing-glyph horiz-adv-x="1038" 
d="M986 1294v-1294h-933v1294h933zM900 81v1132h-762v-1132h762zM773 898q0 -52 -15.5 -103.5t-50 -92.5t-89.5 -68t-133 -32l-36 -152q-2 -10 -17.5 -14t-42.5 -4q-14 0 -24 1t-16 3t-8.5 5t-1.5 9l32 188q5 27 20.5 38.5t38.5 11.5h8q61 0 100.5 18.5t62.5 48t32.5 64.5
t9.5 68q0 25 -7.5 46.5t-24 37.5t-43 25.5t-66.5 9.5t-72 -7.5t-55.5 -17t-39 -17.5t-22.5 -8q-10 0 -13 6t-3 20q0 5 1 14.5t3.5 20.5t6.5 20t10 15q8 7 28.5 16.5t49.5 18.5t63 14.5t68 5.5q68 0 115 -19t76 -49.5t42 -67.5t13 -73zM442 305q0 -8 -1.5 -19.5t-5 -24.5
t-9 -24.5t-12.5 -18.5q-10 -10 -26 -15t-38 -5t-35 3.5t-20 9.5t-9.5 14t-2.5 18q0 9 2 21t5.5 24t9.5 23t14 19q9 9 25 14t41 5q19 0 31.5 -3t19.5 -9t9 -14t2 -18zM0 -397z" />
    <glyph glyph-name="uniFB00" unicode="ff" horiz-adv-x="1195" 
d="M1387 1336q0 -4 -0.5 -12.5t-3 -19t-5 -22.5t-6.5 -21t-9 -15.5t-11 -6.5q-7 0 -17 4t-24.5 8.5t-33 8.5t-42.5 4q-43 0 -74 -13t-52 -40.5t-36 -69.5t-27 -99l-17 -91h202q11 0 17 -7.5t6 -24.5q0 -11 -1.5 -23t-4.5 -23.5t-8 -22t-10.5 -18.5t-12 -13t-14.5 -5h-202
l-164 -817q-18 -91 -47.5 -157.5t-72 -109.5t-99 -63t-127.5 -20q-51 0 -87.5 7.5t-48.5 20.5q-9 8 -9 27q0 5 1 14.5t3 20.5t5 22.5t7.5 21t10 15.5t12.5 6t16.5 -2.5t22 -6t28.5 -6.5t36 -3q41 0 71 13t51.5 39t36.5 67t26 97l163 814h-405l-166 -829q-18 -92 -48 -158.5
t-72.5 -109t-98.5 -62.5t-127 -20q-49 0 -85.5 8t-49.5 21q-4 4 -6.5 11t-2.5 17q0 4 1 13t3 20t5 22.5t7.5 21t9.5 15.5t12 6q14 0 39 -9t63 -9q42 0 72 13t51.5 39t36.5 66.5t25 96.5l166 827h-128q-10 0 -15.5 6.5t-5.5 24.5q0 8 1 19.5t3.5 23.5t6.5 23t10 20t12.5 14.5
t16.5 5.5h126l23 112q17 83 46.5 144t72 101.5t98 60.5t123.5 20q22 0 45.5 -2.5t44 -7t36.5 -10.5t22 -12q5 -5 8 -14t3 -19q0 -4 -1 -12.5t-2.5 -19t-4.5 -22.5t-7 -21.5t-9 -15.5t-11 -6q-7 0 -17.5 4t-24.5 8.5t-33 8.5t-41 4q-44 0 -74.5 -13t-52 -40.5t-37 -69.5
t-26.5 -99l-15 -79h405l24 123q17 83 46.5 144.5t71.5 102t97.5 60.5t124.5 20q22 0 45.5 -2.5t44 -7t36.5 -10.5t22 -12q5 -5 8 -14t3 -19z" />
    <glyph glyph-name="uniFB01" unicode="fi" horiz-adv-x="1084" 
d="M978 951q27 0 35.5 -14t4.5 -37l-174 -875q-2 -8 -7 -13.5t-15.5 -9.5t-27 -6t-40.5 -2t-39.5 2t-23.5 6t-11 9.5t-2 13.5l158 789h-405l-171 -852q-17 -84 -46 -145.5t-71 -102t-97 -60t-124 -19.5q-45 0 -73.5 7t-35.5 13q-4 5 -6 11t-2 16q0 4 1.5 13.5t3.5 20t5 22
t7 21.5t9 16t12 6t13.5 -1.5t14 -3t18 -3t26.5 -1.5q42 0 72.5 13t52 40.5t36 69.5t26.5 101l164 818h-128q-10 0 -15.5 6.5t-5.5 24.5q0 8 1 19.5t3.5 23.5t6.5 23t10 20t12.5 14.5t16.5 5.5h126l25 123q16 83 46 144.5t72 102t97 60.5t123 20q23 0 45 -2.5t40 -7t31 -9.5
t18 -11q5 -5 7 -13t2 -18q0 -3 -1 -11.5t-3 -19t-4.5 -22.5t-6.5 -21.5t-9.5 -15.5t-11.5 -6q-7 0 -16 3t-21.5 6.5t-29 7t-38.5 3.5q-41 0 -70.5 -13t-50 -40.5t-35.5 -69.5t-26 -99l-17 -91h519zM1102 1228q-5 -28 -13 -47t-22 -30.5t-35 -16.5t-50 -5q-30 0 -48.5 5
t-27 16.5t-9.5 30.5t4 47q6 28 14 46.5t22 31t34.5 17t50.5 4.5t48 -4.5t27 -17t10 -31t-5 -46.5z" />
    <glyph glyph-name="uniFB02" unicode="fl" horiz-adv-x="1084" 
d="M844 26q-4 -17 -24.5 -24.5t-62.5 -7.5q-25 0 -41 2.5t-24.5 6t-11.5 9.5t-2 14l244 1220q-2 -3 -6.5 -5t-10.5 -2q-7 0 -21 3.5t-35.5 8.5t-51.5 8.5t-70 3.5q-65 0 -108 -13t-71 -40.5t-44.5 -69.5t-27.5 -99l-17 -90h184q11 0 17.5 -7.5t6.5 -24.5q0 -11 -1.5 -23
t-5 -23.5t-8 -22t-10 -18.5t-12.5 -13t-15 -5h-184l-171 -852q-17 -84 -46 -145.5t-71 -102t-97 -60t-124 -19.5q-45 0 -73.5 7t-35.5 13q-4 5 -6 11t-2 16q0 4 1.5 13.5t3.5 20t5 22t7 21.5t9 16t12 6t13.5 -1.5t14 -3t18 -3t26.5 -1.5q42 0 72.5 13t52 40.5t36 69.5
t26.5 101l164 818h-128q-10 0 -15.5 6.5t-5.5 24.5q0 8 1 19.5t3.5 23.5t6.5 23t10 20t12.5 14.5t16.5 5.5h126l25 125q16 82 47.5 143.5t81.5 101.5t121 59.5t169 19.5q22 0 53.5 -2.5t61.5 -7t54 -10t30 -11.5l4.5 -6t3.5 -6q1 8 6 15t15 11.5t26.5 7t43.5 2.5
q23 0 38.5 -2t24 -6t11.5 -10t2 -14z" />
    <glyph glyph-name="uniFB03" unicode="ffi" horiz-adv-x="1654" 
d="M431 814l-171 -852q-17 -84 -46 -145.5t-71 -102t-97 -60t-124 -19.5q-45 0 -73.5 7t-35.5 13q-4 5 -6 11t-2 16q0 4 1.5 13.5t3.5 20t5 22t7 21.5t9 16t12 6t13.5 -1.5t14 -3t18 -3t26.5 -1.5q42 0 72.5 13t52 40.5t36 69.5t26.5 101l164 818h-128q-10 0 -15.5 6.5
t-5.5 24.5q0 8 1 19.5t3.5 23.5t6.5 23t10 20t12.5 14.5t16.5 5.5h126l23 112q17 83 46.5 144t72 101.5t98 60.5t123.5 20q22 0 45.5 -2.5t44 -7t36.5 -10.5t22 -12q5 -5 8 -14t3 -19q0 -4 -1 -12.5t-2.5 -19t-4.5 -22.5t-7 -21.5t-9 -15.5t-11 -6q-7 0 -17.5 4t-24.5 8.5
t-33 8.5t-41 4q-44 0 -74.5 -13t-52 -40.5t-37 -69.5t-26.5 -99l-15 -79h405l24 123q17 83 46.5 144.5t71.5 102t97 60.5t124 20q23 0 45 -2.5t40 -7t31 -9.5t19 -11q5 -5 6 -13t1 -18q0 -3 -0.5 -11.5t-2.5 -19t-4.5 -22t-6.5 -21t-9 -16t-11 -6.5q-8 0 -17.5 3t-22 6.5
t-28.5 7t-38 3.5q-42 0 -71 -13t-50 -40.5t-35.5 -69.5t-26.5 -99l-17 -91h519q27 0 35.5 -13.5t5.5 -37.5l-174 -875q-3 -8 -7.5 -13.5t-15 -9.5t-27 -6t-40.5 -2q-25 0 -40.5 2t-24 6t-11 9.5t-0.5 13.5l157 789h-405l-164 -817q-18 -91 -47.5 -157.5t-72 -109.5t-99 -63
t-127.5 -20q-51 0 -87.5 7.5t-48.5 20.5q-9 8 -9 27q0 5 1 14.5t3 20.5t5 22.5t7.5 21t10 15.5t12.5 6t16.5 -2.5t22 -6t28.5 -6.5t36 -3q41 0 71 13t51.5 39t36.5 67t26 97l163 814h-405zM1673 1228q-5 -28 -13.5 -47t-22.5 -30.5t-34.5 -16.5t-50.5 -5t-48.5 5t-27.5 16.5
t-9.5 30.5t4.5 47q6 28 14.5 46.5t22 31t34.5 17t51 4.5q29 0 47.5 -4.5t27.5 -17t10 -31t-5 -46.5z" />
    <glyph glyph-name="uniFB04" unicode="ffl" horiz-adv-x="1654" 
d="M1415 25q-4 -17 -25 -24t-63 -7q-25 0 -41 2t-24.5 6t-11.5 9.5t-1 13.5l243 1222q-2 -3 -6 -5t-10 -2q-8 0 -21.5 3.5t-35.5 8t-52 8.5t-70 4q-65 0 -108 -13t-71 -40.5t-44 -69.5t-28 -99l-17 -91h184q12 0 18 -7.5t6 -24.5q0 -11 -1.5 -23t-4.5 -23.5t-7.5 -22
t-10.5 -18.5t-13 -13t-14 -5h-185l-163 -817q-19 -91 -48 -157.5t-72 -109.5t-99.5 -63t-127.5 -20q-50 0 -86.5 7.5t-48.5 20.5q-10 8 -10 27q0 5 1 14.5t3 20.5t5 22.5t7.5 21t10 15.5t12.5 6t16.5 -2.5t22 -6t28.5 -6.5t36 -3q41 0 71 13t51.5 39t36.5 67t27 97l162 814
h-405l-171 -852q-17 -84 -46 -145.5t-71 -102t-97 -60t-124 -19.5q-45 0 -73.5 7t-35.5 13q-4 5 -6 11t-2 16q0 4 1.5 13.5t3.5 20t5 22t7 21.5t9 16t12 6t13.5 -1.5t14 -3t18 -3t26.5 -1.5q42 0 72.5 13t52 40t36 69t26.5 102l164 818h-128q-10 0 -15.5 6.5t-5.5 24.5
q0 8 1 19.5t3.5 23.5t6.5 23t10 20t12.5 14.5t16.5 5.5h126l23 112q17 83 46.5 144t72 101.5t98 60.5t123.5 20q22 0 45.5 -2.5t44 -7t36.5 -10.5t22 -12q5 -5 8 -14t3 -19q0 -4 -1 -12.5t-2.5 -19t-4.5 -22.5t-7 -21.5t-9 -15.5t-11 -6q-7 0 -17.5 4t-24.5 8.5t-33 8.5
t-41 4q-44 0 -74.5 -13t-52 -40.5t-37 -69.5t-26.5 -99l-15 -79h405l24 125q17 82 47.5 143.5t80.5 101.5t122 60t170 20q22 0 53.5 -2.5t61.5 -7t53.5 -10t29.5 -11.5q3 -4 5 -6.5t4 -6.5q1 8 6 15t15 11.5t26.5 7t42.5 2.5q24 0 39.5 -2t24 -6t11 -10t0.5 -14z" />
    <glyph glyph-name="f_b.liga" unicode="fb" horiz-adv-x="1668" 
d="M944 1357q1 8 6 15t15 11.5t26.5 7t43.5 2.5q23 0 38.5 -2t24 -6t11.5 -10t2 -14l-82 -402q-4 -26 -11 -54t-14.5 -55.5t-14.5 -52t-14 -42.5q16 35 51 72.5t81 69t100.5 52.5t112.5 21q59 0 102 -16t73 -42.5t48.5 -60.5t29 -70t14 -71.5t3.5 -65.5q0 -60 -11 -132.5
t-35 -146t-62 -143t-91 -123t-122.5 -86t-156.5 -32.5q-89 0 -153.5 34.5t-115.5 97.5l-16 -87q-4 -17 -23.5 -24.5t-59.5 -7.5q-20 0 -33.5 2t-21 6t-10 9.5t-1.5 13.5l244 1221q-2 -3 -6.5 -5t-10.5 -2q-7 0 -21 3.5t-35.5 8.5t-51.5 8.5t-70 3.5q-65 0 -108 -13
t-71 -40.5t-44.5 -69.5t-27.5 -99l-17 -90h184q11 0 17.5 -7.5t6.5 -24.5q0 -11 -1.5 -23t-5 -23.5t-8 -22t-10 -18.5t-12.5 -13t-15 -5h-184l-171 -852q-17 -84 -46 -145.5t-71 -102t-97 -60t-124 -19.5q-45 0 -73.5 7t-35.5 13q-4 5 -6 11t-2 16q0 4 1.5 13.5t3.5 20t5 22
t7 21.5t9 16t12 6t13.5 -1.5t14 -3t18 -3t26.5 -1.5q42 0 72.5 13t52 40.5t36 69.5t26.5 101l164 818h-128q-10 0 -15.5 6.5t-5.5 24.5q0 8 1 19.5t3.5 23.5t6.5 23t10 20t12.5 14.5t16.5 5.5h126l25 125q16 82 47.5 143.5t81.5 101.5t121 59.5t169 19.5q22 0 53.5 -2.5
t61.5 -7t54 -10t30 -11.5l4.5 -6t3.5 -6zM1417 630q0 27 -4.5 62t-19 65t-42.5 50.5t-74 20.5q-55 0 -110 -30.5t-103 -85t-85.5 -128.5t-54.5 -161l-34 -166q46 -69 101 -102t123 -33q51 0 93.5 24t76 64t58.5 91.5t41.5 108.5t25 113.5t8.5 106.5z" />
    <glyph glyph-name="f_f_b.liga" unicode="ffb" horiz-adv-x="2238" 
d="M2160 644q0 -60 -11 -132.5t-35 -146t-61.5 -143t-90.5 -123t-122.5 -86t-157.5 -32.5q-89 0 -153.5 34.5t-113.5 97.5l-18 -88q-3 -17 -22.5 -24t-59.5 -7q-41 0 -55.5 8t-10.5 23l243 1222q-2 -3 -6 -5t-10 -2q-8 0 -21.5 3.5t-35.5 8t-52 8.5t-70 4q-65 0 -108 -13
t-71 -40.5t-44 -69.5t-28 -99l-17 -91h184q12 0 18 -7.5t6 -24.5q0 -11 -1.5 -23t-4.5 -23.5t-7.5 -22t-10.5 -18.5t-13 -13t-14 -5h-185l-163 -817q-19 -91 -48 -157.5t-72 -109.5t-99.5 -63t-127.5 -20q-50 0 -86.5 7.5t-48.5 20.5q-10 8 -10 27q0 5 1 14.5t3 20.5t5 22.5
t7.5 21t10 15.5t12.5 6t16.5 -2.5t22 -6t28.5 -6.5t36 -3q41 0 71 13t52 39t36.5 67t26.5 97l162 814h-405l-171 -852q-17 -84 -46 -145.5t-71 -102t-97 -60t-124 -19.5q-45 0 -73.5 7t-35.5 13q-4 5 -6 11t-2 16q0 4 1.5 13.5t3.5 20t5 22t7 21.5t9 16t12 6t13.5 -1.5
t14 -3t18 -3t26.5 -1.5q42 0 72.5 13t52 40t36 69t26.5 102l164 818h-128q-10 0 -15.5 6.5t-5.5 24.5q0 8 1 19.5t3.5 23.5t6.5 23t10 20t12.5 14.5t16.5 5.5h126l23 112q17 83 46.5 144t72 101.5t98 60.5t123.5 20q22 0 45.5 -2.5t44 -7t36.5 -10.5t22 -12q5 -5 8 -14
t3 -19q0 -4 -1 -12.5t-2.5 -19t-4.5 -22.5t-7 -21.5t-9 -15.5t-11 -6q-7 0 -17.5 4t-24.5 8.5t-33 8.5t-41 4q-44 0 -74.5 -13t-52 -40.5t-37 -69.5t-26.5 -99l-15 -79h405l24 125q17 82 48 143.5t80.5 101.5t121.5 60t170 20q22 0 53.5 -2.5t61.5 -7t53.5 -10t29.5 -11.5
q3 -4 5 -6.5t4 -6.5q1 8 6 15t15 11.5t26.5 7t43.5 2.5q23 0 38.5 -2t24 -6t11 -10t0.5 -14l-80 -402q-5 -26 -12 -54t-14.5 -55.5t-14.5 -52t-14 -42.5q16 35 51 72.5t81 69t101 52.5t112 21q59 0 102.5 -16t73 -42.5t48 -60.5t29 -70t14 -71.5t3.5 -65.5zM1987 630
q0 27 -4 62t-18.5 65t-42 50.5t-74.5 20.5q-55 0 -110.5 -30.5t-103.5 -85t-85.5 -128.5t-54.5 -161l-34 -166q48 -69 102 -102t122 -33q51 0 93.5 24t76 64t59 91.5t42 108.5t24.5 113.5t8 106.5z" />
    <glyph glyph-name="f_h.liga" unicode="fh" horiz-adv-x="1667" 
d="M1557 726q0 -36 -3.5 -70t-10.5 -69l-113 -562q-1 -8 -6 -13.5t-15.5 -9.5t-27 -6t-39.5 -2q-25 0 -40.5 2t-24 6t-11.5 9.5t0 13.5l110 556q5 26 8.5 58.5t3.5 56.5q0 29 -6 53t-19.5 41.5t-35 27.5t-53.5 10q-53 0 -107.5 -31t-102.5 -85.5t-85.5 -128.5t-54.5 -159
l-80 -399q-2 -8 -7 -13.5t-15.5 -9.5t-27 -6t-40.5 -2t-39.5 2t-23.5 6t-11 9.5t-2 13.5l244 1221q-2 -3 -6.5 -5t-10.5 -2q-7 0 -21 3.5t-35.5 8.5t-51.5 8.5t-70 3.5q-65 0 -108 -13t-71 -40.5t-44.5 -69.5t-27.5 -99l-17 -90h184q11 0 17.5 -7.5t6.5 -24.5
q0 -11 -1.5 -23t-5 -23.5t-8 -22t-10 -18.5t-12.5 -13t-15 -5h-184l-171 -852q-17 -84 -46 -145.5t-71 -102t-97 -60t-124 -19.5q-45 0 -73.5 7t-35.5 13q-4 5 -6 11t-2 16q0 4 1.5 13.5t3.5 20t5 22t7 21.5t9 16t12 6t13.5 -1.5t14 -3t18 -3t26.5 -1.5q42 0 72.5 13
t52 40.5t36 69.5t26.5 101l164 818h-128q-10 0 -15.5 6.5t-5.5 24.5q0 8 1 19.5t3.5 23.5t6.5 23t10 20t12.5 14.5t16.5 5.5h126l25 125q16 82 47.5 143.5t81.5 101.5t121 59.5t169 19.5q22 0 53.5 -2.5t61.5 -7t54 -10t30 -11.5l4.5 -6t3.5 -6q1 8 6 15t15 11.5t26.5 7
t43.5 2.5q23 0 38.5 -2t24 -6t11.5 -10t2 -14l-82 -407q-4 -26 -11 -53t-14.5 -53.5t-14.5 -50.5t-14 -42q17 35 51 72.5t80 69t101 52.5t114 21q64 0 109 -18.5t73 -51t41 -77.5t13 -97z" />
    <glyph glyph-name="f_f_h.liga" unicode="ffh" horiz-adv-x="2237" 
d="M2128 726q0 -36 -4 -70t-11 -69l-112 -562q-2 -8 -7 -13.5t-15.5 -9.5t-26.5 -6t-41 -2q-23 0 -38.5 2t-24 6t-11.5 9.5t-2 13.5l112 556q4 26 8 58.5t4 56.5q0 29 -6 53t-19.5 41.5t-35.5 27.5t-53 10q-53 0 -108 -31t-103 -85.5t-85.5 -128.5t-54.5 -159l-79 -399
q-3 -8 -7.5 -13.5t-15 -9.5t-27 -6t-40.5 -2q-25 0 -40.5 2t-24 6t-11 9.5t-0.5 13.5l243 1222q-2 -3 -6 -5t-10 -2q-8 0 -21.5 3.5t-35.5 8t-52 8.5t-70 4q-65 0 -108 -13t-71 -40.5t-44 -69.5t-28 -99l-17 -91h184q11 0 17.5 -7.5t6.5 -24.5q0 -11 -1.5 -23t-4.5 -23.5
t-8 -22t-10.5 -18.5t-12.5 -13t-14 -5h-185l-164 -817q-18 -91 -47.5 -157.5t-72 -109.5t-99 -63t-127.5 -20q-51 0 -87.5 7.5t-48.5 20.5q-9 8 -9 27q0 5 1 14.5t3 20.5t5 22.5t7.5 21t10 15.5t12.5 6t16.5 -2.5t22 -6t28.5 -6.5t36 -3q41 0 71 13t51.5 39t36.5 67t26 97
l163 814h-405l-171 -852q-17 -84 -46 -145.5t-71 -102t-97 -60t-124 -19.5q-45 0 -73.5 7t-35.5 13q-4 5 -6 11t-2 16q0 4 1.5 13.5t3.5 20t5 22t7 21.5t9 16t12 6t13.5 -1.5t14 -3t18 -3t26.5 -1.5q42 0 72.5 13t52 40.5t36 69.5t26.5 101l164 818h-128q-10 0 -15.5 6.5
t-5.5 24.5q0 8 1 19.5t3.5 23.5t6.5 23t10 20t12.5 14.5t16.5 5.5h126l23 112q17 83 46.5 144t72 101.5t98 60.5t123.5 20q22 0 45.5 -2.5t44 -7t36.5 -10.5t22 -12q5 -5 8 -14t3 -19q0 -4 -1 -12.5t-2.5 -19t-4.5 -22.5t-7 -21.5t-9 -15.5t-11 -6q-7 0 -17.5 4t-24.5 8.5
t-33 8.5t-41 4q-44 0 -74.5 -13t-52 -40.5t-37 -69.5t-26.5 -99l-15 -79h405l24 125q17 82 47.5 143.5t80.5 101.5t122 60t170 20q22 0 53.5 -2.5t61.5 -7t53.5 -10t29.5 -11.5q3 -4 5 -6.5t4 -6.5q1 8 6 15t15 11.5t26.5 7t42.5 2.5q24 0 39.5 -2t24 -6t11 -10t0.5 -14
l-80 -407q-5 -26 -12 -53t-14.5 -53.5t-14.5 -50.5t-14 -42q17 35 51 72.5t80 69t101 52.5t114 21q64 0 109 -18.5t73.5 -51t41.5 -77.5t13 -97z" />
    <glyph glyph-name="f_igrave.liga" unicode="f&#xec;" horiz-adv-x="1084" 
d="M1055 1115q3 -10 3 -18.5t-6 -13.5t-18 -7.5t-34 -2.5q-20 0 -32.5 1t-20 4.5t-12 10t-8.5 16.5l-91 249q-3 10 -3 18.5t8 14.5t24.5 9.5t45.5 3.5q24 0 39 -1.5t23.5 -5.5t12 -11.5t6.5 -17.5zM978 951q27 0 35.5 -14t4.5 -37l-174 -875q-2 -8 -7 -13.5t-15.5 -9.5
t-27 -6t-40.5 -2t-39.5 2t-23.5 6t-11 9.5t-2 13.5l158 789h-405l-171 -852q-17 -84 -46 -145.5t-71 -102t-97 -60t-124 -19.5q-45 0 -73.5 7t-35.5 13q-4 5 -6 11t-2 16q0 4 1.5 13.5t3.5 20t5 22t7 21.5t9 16t12 6t13.5 -1.5t14 -3t18 -3t26.5 -1.5q42 0 72.5 13t52 40.5
t36 69.5t26.5 101l164 818h-128q-10 0 -15.5 6.5t-5.5 24.5q0 8 1 19.5t3.5 23.5t6.5 23t10 20t12.5 14.5t16.5 5.5h126l25 123q16 83 45 144.5t70 102t93.5 60t116.5 19.5q20 0 40 -2t37 -6t29.5 -8.5t17.5 -9.5q6 -6 8.5 -15t2.5 -19q0 -3 -1 -11.5t-2.5 -19t-4 -22.5
t-7 -21.5t-9 -15.5t-11.5 -6t-15.5 3t-19 6.5t-24.5 6.5t-33 3q-39 0 -67.5 -13t-48 -40.5t-34 -69.5t-25.5 -99l-17 -90h519z" />
    <glyph glyph-name="f_iacute.liga" unicode="f&#xed;" horiz-adv-x="1084" 
d="M978 951q27 0 35.5 -14t4.5 -37l-174 -875q-2 -8 -7 -13.5t-15.5 -9.5t-27 -6t-40.5 -2t-39.5 2t-23.5 6t-11 9.5t-2 13.5l158 789h-405l-171 -852q-17 -84 -46 -145.5t-71 -102t-97 -60t-124 -19.5q-45 0 -73.5 7t-35.5 13q-4 5 -6 11t-2 16q0 4 1.5 13.5t3.5 20t5 22
t7 21.5t9 16t12 6t13.5 -1.5t14 -3t18 -3t26.5 -1.5q42 0 72.5 13t52 40.5t36 69.5t26.5 101l164 818h-128q-10 0 -15.5 6.5t-5.5 24.5q0 8 1 19.5t3.5 23.5t6.5 23t10 20t12.5 14.5t16.5 5.5h126l25 123q16 83 46 144.5t72 102t97 60t123 19.5q21 0 43.5 -2.5t42.5 -6
t34.5 -9t20.5 -11.5q6 -5 9 -14t3 -19q0 -4 -1 -12.5t-3 -19t-5 -22t-6.5 -21t-9 -16t-11.5 -6.5q-8 0 -17 3t-22 7.5t-30.5 8t-39.5 3.5q-43 0 -73.5 -13t-52 -40.5t-36.5 -69.5t-26 -99l-17 -90h519zM1045 1122q-7 -10 -13.5 -16t-16 -9.5t-22.5 -5t-33 -1.5q-22 0 -35 3
t-18 8t-3 13t9 19l154 231q7 11 15.5 18t20 11t28.5 6t42 2q28 0 44.5 -3.5t23 -10t5 -15t-9.5 -17.5zM620 950z" />
    <glyph glyph-name="f_icircumflex.liga" unicode="f&#xee;" horiz-adv-x="1084" 
d="M879 1118q-8 -9 -15.5 -14.5t-16.5 -9t-21.5 -4.5t-31.5 -1q-24 0 -37.5 3t-17.5 10t1.5 18.5t20.5 27.5l198 226q6 8 14 12.5t18.5 7.5t26 4t37.5 1q21 0 34.5 -1t23.5 -4.5t15 -8.5t10 -11l109 -229q7 -16 9.5 -26.5t-3 -17t-19.5 -9.5t-38 -3q-22 0 -34.5 1t-20 4.5
t-11.5 9t-7 14.5l-86 181zM978 951q27 0 35.5 -14t4.5 -37l-174 -875q-2 -8 -7 -13.5t-15.5 -9.5t-27 -6t-40.5 -2t-39.5 2t-23.5 6t-11 9.5t-2 13.5l158 789h-405l-171 -852q-17 -84 -46 -145.5t-71 -102t-97 -60t-124 -19.5q-45 0 -73.5 7t-35.5 13q-4 5 -6 11t-2 16
q0 4 1.5 13.5t3.5 20t5 22t7 21.5t9 16t12 6t13.5 -1.5t14 -3t18 -3t26.5 -1.5q42 0 72.5 13t52 40.5t36 69.5t26.5 101l164 818h-128q-10 0 -15.5 6.5t-5.5 24.5q0 8 1 19.5t3.5 23.5t6.5 23t10 20t12.5 14.5t16.5 5.5h126l25 123q16 83 45 144.5t70 102t93.5 60
t116.5 19.5q20 0 40 -2t37 -6t29.5 -8.5t17.5 -9.5q6 -6 8.5 -15t2.5 -19q0 -3 -1 -11.5t-2.5 -19t-4 -21.5t-7 -20.5t-9.5 -15.5t-12 -6t-15 3t-18.5 6.5t-25 6.5t-32.5 3q-40 0 -68 -13t-47.5 -40.5t-34 -69.5t-25.5 -99l-17 -92h519z" />
    <glyph glyph-name="f_itilde.liga" unicode="f&#x129;" horiz-adv-x="1103" 
d="M1307 1305q0 -10 -2.5 -32t-9 -47.5t-18.5 -52.5t-32 -49t-48.5 -36t-68.5 -14q-49 0 -81.5 21t-56.5 46t-44.5 46t-45.5 21q-28 0 -44.5 -25t-22.5 -82q0 -7 -2.5 -12t-9.5 -8t-18 -5t-30 -2q-15 0 -25 2t-15.5 5.5t-7.5 9.5t-2 15q0 8 2 28.5t8 45.5t18 52.5t32.5 50
t49.5 37t69 14.5q48 0 80.5 -21t57.5 -46l46 -46t45 -21q25 0 41.5 24t22.5 83q1 7 4.5 12.5t10 8.5t17 4.5t25.5 1.5q34 0 44.5 -6.5t10.5 -22.5zM997 951q27 0 35 -13.5t5 -37.5l-175 -875q-1 -8 -6 -13.5t-15.5 -9.5t-27 -6t-40.5 -2q-25 0 -40.5 2t-23.5 6t-11 9.5
t-1 13.5l158 789h-424l-171 -852q-17 -84 -46 -145.5t-71 -102t-97 -60t-124 -19.5q-45 0 -73.5 7t-35.5 13q-4 5 -6 11t-2 16q0 4 1.5 13.5t3.5 20t5 22t7 21.5t9 16t12 6t13.5 -1.5t14 -3t18 -3t26.5 -1.5q42 0 72.5 13t52 40.5t36 69.5t26.5 101l164 818h-128
q-10 0 -15.5 6.5t-5.5 24.5q0 8 1 19.5t3.5 23.5t6.5 23t10 20t12.5 14.5t16.5 5.5h126l26 126q16 82 44.5 142.5t69 101t92.5 60t117 19.5q34 0 60 -5.5t34 -12.5q4 -4 6 -10.5t2 -18.5q0 -2 -1 -10.5t-3 -19.5t-4.5 -23t-6.5 -21.5t-9 -16t-11 -6.5t-11 1t-11.5 2
t-16.5 2.5t-25 1.5q-38 0 -64.5 -13t-46.5 -40.5t-33.5 -69.5t-24.5 -99l-17 -90h538z" />
    <glyph glyph-name="f_idieresis.liga" unicode="f&#xef;" horiz-adv-x="1103" 
d="M798 1228q5 27 13.5 45t21 29t31 15.5t44.5 4.5q24 0 40.5 -4.5t24 -15.5t8.5 -29t-5 -45q-5 -27 -13 -45t-20 -29t-30 -16t-44 -5q-25 0 -41 5t-24.5 16t-9.5 29t4 45zM1087 1228q5 27 13 45t21 29t31.5 15.5t43.5 4.5t41 -4.5t24 -15.5t8.5 -29t-4.5 -45t-13 -45
t-20.5 -29t-30.5 -16t-43 -5t-41.5 5t-25 16t-9 29t4.5 45zM997 951q27 0 35 -13.5t5 -37.5l-175 -875q-1 -8 -6 -13.5t-15.5 -9.5t-27 -6t-40.5 -2q-25 0 -40.5 2t-23.5 6t-11 9.5t-1 13.5l158 789h-424l-171 -852q-17 -84 -46 -145.5t-71 -102t-97 -60t-124 -19.5
q-45 0 -73.5 7t-35.5 13q-4 5 -6 11t-2 16q0 4 1.5 13.5t3.5 20t5 22t7 21.5t9 16t12 6t13.5 -1.5t14 -3t18 -3t26.5 -1.5q42 0 72.5 13t52 40.5t36 69.5t26.5 101l164 818h-128q-10 0 -15.5 6.5t-5.5 24.5q0 8 1 19.5t3.5 23.5t6.5 23t10 20t12.5 14.5t16.5 5.5h126l26 126
q16 82 44.5 142.5t69 101t92.5 60t117 19.5q19 0 37.5 -1.5t34 -4.5t26.5 -7t16 -8q5 -5 8 -14t3 -19q0 -3 -1 -11.5t-3 -19.5t-4.5 -23t-6.5 -22t-9.5 -16.5t-11.5 -6.5q-7 0 -14 2.5t-17 5t-23.5 5t-31.5 2.5q-38 0 -65 -13t-46.5 -40t-33 -69t-24.5 -99l-17 -90h538z" />
    <glyph glyph-name="f_imacron.liga" unicode="f&#x12b;" horiz-adv-x="1103" 
d="M1251 1293q12 0 18.5 -8.5t6.5 -21.5q0 -5 -1.5 -14t-3.5 -20t-5.5 -22.5t-9 -21t-13 -15.5t-16.5 -6h-427q-14 0 -19.5 8t-5.5 24q0 5 0.5 14t3 20t6.5 22.5t9 20.5t12.5 14.5t17.5 5.5h427zM997 951q27 0 35 -13.5t5 -37.5l-175 -875q-1 -8 -6 -13.5t-15.5 -9.5t-27 -6
t-40.5 -2q-25 0 -40.5 2t-23.5 6t-11 9.5t-1 13.5l158 789h-424l-171 -852q-17 -84 -46 -145.5t-71 -102t-97 -60t-124 -19.5q-45 0 -73.5 7t-35.5 13q-4 5 -6 11t-2 16q0 4 1.5 13.5t3.5 20t5 22t7 21.5t9 16t12 6t13.5 -1.5t14 -3t18 -3t26.5 -1.5q42 0 72.5 13t52 40.5
t36 69.5t26.5 101l164 818h-128q-10 0 -15.5 6.5t-5.5 24.5q0 8 1 19.5t3.5 23.5t6.5 23t10 20t12.5 14.5t16.5 5.5h126l26 126q16 82 44.5 142.5t69 101t92.5 60t117 19.5q19 0 37.5 -1.5t34 -4.5t26.5 -7t16 -8q5 -5 8 -14t3 -19q0 -3 -1 -11.5t-3 -19.5t-4.5 -22.5
t-6.5 -21.5t-9 -16.5t-11 -6.5q-7 0 -14.5 2.5t-17.5 5t-23.5 5t-31.5 2.5q-38 0 -64.5 -13t-46.5 -40.5t-33.5 -69.5t-24.5 -99l-17 -90h538z" />
    <glyph glyph-name="f_ibreve.liga" unicode="f&#x12d;" horiz-adv-x="1103" 
d="M1181 1372q6 6 18 9.5t37 3.5q18 0 29 -1t17 -3.5t8 -6t2 -7.5t-2.5 -26.5t-12.5 -53.5t-28 -66.5t-50 -65.5t-79 -49.5t-113 -19.5q-64 0 -105 16t-64.5 42.5t-32 59t-8.5 65.5q0 14 1.5 30.5t3.5 31.5t5.5 26.5t7.5 15.5q5 5 17.5 8.5t36.5 3.5q16 0 27 -1t16.5 -4
t8 -7t2.5 -10q0 -10 -2 -28t-2 -31q0 -48 21 -75t76 -27q35 0 60 12t42.5 30t28 38.5t17 39.5t10.5 33t7 17zM997 951q27 0 35 -13.5t5 -37.5l-175 -875q-1 -8 -6 -13.5t-15.5 -9.5t-27 -6t-40.5 -2q-25 0 -40.5 2t-23.5 6t-11 9.5t-1 13.5l158 789h-424l-171 -852
q-17 -84 -46 -145.5t-71 -102t-97 -60t-124 -19.5q-45 0 -73.5 7t-35.5 13q-4 5 -6 11t-2 16q0 4 1.5 13.5t3.5 20t5 22t7 21.5t9 16t12 6t13.5 -1.5t14 -3t18 -3t26.5 -1.5q42 0 72.5 13t52 40.5t36 69.5t26.5 101l164 818h-128q-10 0 -15.5 6.5t-5.5 24.5q0 8 1 19.5
t3.5 23.5t6.5 23t10 20t12.5 14.5t16.5 5.5h126l26 126q16 82 44.5 142.5t69 101t92.5 60t117 19.5q34 0 60.5 -5.5t34.5 -12.5q5 -4 6.5 -10.5t1.5 -18.5q0 -2 -0.5 -10.5t-2.5 -19.5t-5 -23t-6.5 -21.5t-9 -16t-11.5 -6.5t-11.5 1t-12 2t-16.5 2.5t-25 1.5
q-38 0 -64.5 -13t-46.5 -40.5t-33.5 -69.5t-24.5 -99l-17 -90h538z" />
    <glyph glyph-name="f_iogonek.liga" unicode="f&#x12f;" horiz-adv-x="1084" 
d="M844 24q-5 -21 -14.5 -37.5t-25.5 -29.5l-75 -62q-36 -32 -53.5 -53.5t-17.5 -43.5q0 -18 13 -29.5t46 -11.5h112q12 0 16.5 -5t4.5 -15q0 -6 -1.5 -16t-4 -21t-6.5 -20.5t-8 -13.5q-7 -6 -23 -11.5t-36.5 -10t-45 -7t-46.5 -2.5q-93 0 -139 32t-46 94q0 20 4.5 40
t17 42.5t34.5 47.5t56 53l68 58l162 812h-405l-171 -852q-17 -84 -46 -145.5t-71 -102t-97 -60t-124 -19.5q-45 0 -73.5 7t-35.5 13q-4 5 -6 11t-2 16q0 4 1.5 13.5t3 20t5 22t7.5 21.5t9 16t12 6t13.5 -1.5t14 -3t18 -3t26.5 -1.5q42 0 72.5 13t52 40.5t36 69.5t26.5 101
l164 818h-128q-10 0 -15.5 6.5t-5.5 24.5q0 8 1 19.5t3.5 23.5t6.5 23t10 20t12.5 14.5t16.5 5.5h126l25 123q16 83 46 144.5t72 102t97 60.5t123 20q23 0 45 -2.5t40 -7t31 -9.5t18 -11q6 -5 7.5 -13t1.5 -18q0 -3 -1 -11.5t-3 -19t-4.5 -22.5t-6.5 -21.5t-9.5 -15.5
t-11.5 -6q-7 0 -16 3t-21.5 6.5t-29 7t-38.5 3.5q-41 0 -70.5 -13t-50 -40.5t-35.5 -69.5t-26 -99l-17 -91h519q27 0 35.5 -14t4.5 -37zM1102 1228q-5 -28 -13 -47t-22 -30.5t-35 -16.5t-50 -5q-30 0 -48.5 5t-27 16.5t-9.5 30.5t4 47q6 28 14 46.5t22 31t34.5 17t50.5 4.5
t48 -4.5t27 -17t10 -31t-5 -46.5z" />
    <glyph glyph-name="f_dotlessi.liga" unicode="f&#x131;" horiz-adv-x="1084" 
d="M978 951q27 0 35.5 -14t4.5 -37l-174 -875q-2 -8 -7 -13.5t-15.5 -9.5t-27 -6t-40.5 -2t-39.5 2t-23.5 6t-11 9.5t-2 13.5l158 789h-405l-171 -852q-17 -84 -46 -145.5t-71 -102t-97 -60t-124 -19.5q-45 0 -73.5 7t-35.5 13q-4 5 -6 11t-2 16q0 4 1.5 13.5t3.5 20t5 22
t7 21.5t9 16t12 6t13.5 -1.5t14 -3t18 -3t26.5 -1.5q42 0 72.5 13t52 40.5t36 69.5t26.5 101l164 818h-128q-10 0 -15.5 6.5t-5.5 24.5q0 8 1 19.5t3.5 23.5t6.5 23t10 20t12.5 14.5t16.5 5.5h126l25 123q16 83 46 144.5t72 102t97 60t123 19.5q21 0 43.5 -2.5t42.5 -6
t34.5 -9t20.5 -11.5q6 -5 9 -14t3 -19q0 -4 -1 -12.5t-3 -19t-5 -22t-6.5 -21t-9 -16t-11.5 -6.5q-8 0 -17 3t-22 7.5t-30.5 8t-39.5 3.5q-43 0 -73.5 -13t-52 -40.5t-36.5 -69.5t-26 -99l-17 -90h519z" />
    <glyph glyph-name="f_f_igrave.liga" unicode="ff&#xec;" horiz-adv-x="1654" 
d="M864 951l24 123q17 83 46 144.5t70 102t93 60.5t116 20q20 0 40 -2t37.5 -6t30 -8.5t17.5 -9.5q5 -6 8 -15t3 -19q0 -3 -1 -11.5t-3 -19t-4.5 -22.5t-6.5 -21t-9.5 -15.5t-11.5 -6.5q-7 0 -15 3t-18.5 6.5t-25 6.5t-33.5 3q-39 0 -67 -13t-48 -40.5t-34 -69.5t-26 -99
l-17 -91h519q27 0 35.5 -13.5t5.5 -37.5l-174 -875q-3 -8 -7.5 -13.5t-15 -9.5t-27 -6t-40.5 -2q-25 0 -40.5 2t-24 6t-11 9.5t-0.5 13.5l157 789h-405l-164 -817q-18 -91 -47.5 -157.5t-72 -109.5t-99 -63t-127.5 -20q-51 0 -87.5 7.5t-48.5 20.5q-9 8 -9 27q0 5 1 14.5
t3 20.5t5 22.5t7.5 21t10 15.5t12.5 6t16.5 -2.5t22 -6t28.5 -6.5t36 -3q41 0 71 13t51.5 39t36.5 67t26 97l163 814h-405l-171 -852q-17 -84 -46 -145.5t-71 -102t-97 -60t-124 -19.5q-45 0 -73.5 7t-35.5 13q-4 5 -6 11t-2 16q0 4 1.5 13.5t3.5 20t5 22t7 21.5t9 16t12 6
t13.5 -1.5t14 -3t18 -3t26.5 -1.5q42 0 72.5 13t52 40.5t36 69.5t26.5 101l164 818h-128q-10 0 -15.5 6.5t-5.5 24.5q0 8 1 19.5t3.5 23.5t6.5 23t10 20t12.5 14.5t16.5 5.5h126l23 112q17 83 46.5 144t72 101.5t98 60.5t123.5 20q22 0 45.5 -2.5t44 -7t36.5 -10.5t22 -12
q5 -5 8 -14t3 -19q0 -4 -1 -12.5t-2.5 -19t-4.5 -22.5t-7 -21.5t-9 -15.5t-11 -6q-7 0 -17.5 4t-24.5 8.5t-33 8.5t-41 4q-44 0 -74.5 -13t-52 -40.5t-37 -69.5t-26.5 -99l-15 -79h405zM1626 1115q2 -10 2 -18.5t-5.5 -13.5t-17.5 -7.5t-34 -2.5q-20 0 -32.5 1t-20.5 4.5
t-12.5 10t-8.5 16.5l-90 249q-3 10 -3 18.5t8 14.5t24.5 9.5t45.5 3.5q24 0 39 -1.5t23.5 -5.5t12 -11.5t6.5 -17.5z" />
    <glyph glyph-name="f_f_iacute.liga" unicode="ff&#xed;" horiz-adv-x="1654" 
d="M431 814l-171 -852q-17 -84 -46 -145.5t-71 -102t-97 -60t-124 -19.5q-45 0 -73.5 7t-35.5 13q-4 5 -6 11t-2 16q0 4 1.5 13.5t3.5 20t5 22t7 21.5t9 16t12 6t13.5 -1.5t14 -3t18 -3t26.5 -1.5q42 0 72.5 13t52 40.5t36 69.5t26.5 101l164 818h-128q-10 0 -15.5 6.5
t-5.5 24.5q0 8 1 19.5t3.5 23.5t6.5 23t10 20t12.5 14.5t16.5 5.5h126l23 112q17 83 46.5 144t72 101.5t98 60.5t123.5 20q22 0 45.5 -2.5t44 -7t36.5 -10.5t22 -12q5 -5 8 -14t3 -19q0 -4 -1 -12.5t-2.5 -19t-4.5 -22.5t-7 -21.5t-9 -15.5t-11 -6q-7 0 -17.5 4t-24.5 8.5
t-33 8.5t-41 4q-44 0 -74.5 -13t-52 -40.5t-37 -69.5t-26.5 -99l-15 -79h405l24 123q17 83 46.5 144.5t71.5 102t97 60.5t124 20q24 0 48 -3t45 -7.5t35.5 -10t20.5 -11.5q5 -5 8 -14t3 -19q0 -4 -0.5 -12.5t-3 -19.5t-5 -22.5t-6.5 -20.5t-9 -15.5t-11 -6.5q-8 0 -18.5 4
t-25 8.5t-33 8.5t-40.5 4q-44 0 -74.5 -13t-52 -40.5t-36 -69.5t-26.5 -99l-17 -91h519q27 0 35.5 -13.5t5.5 -37.5l-174 -875q-3 -8 -7.5 -13.5t-15 -9.5t-27 -6t-40.5 -2q-25 0 -40.5 2t-24 6t-11 9.5t-0.5 13.5l157 789h-405l-164 -817q-18 -91 -47.5 -157.5t-72 -109.5
t-99 -63t-127.5 -20q-51 0 -87.5 7.5t-48.5 20.5q-9 8 -9 27q0 5 1 14.5t3 20.5t5 22.5t7.5 21t10 15.5t12.5 6t16.5 -2.5t22 -6t28.5 -6.5t36 -3q41 0 71 13t51.5 39t36.5 67t26 97l163 814h-405zM1616 1121q-6 -10 -13 -16t-16 -9.5t-22.5 -4.5t-33.5 -1q-22 0 -34.5 2.5
t-17.5 7.5t-3.5 13.5t8.5 18.5l154 232q8 10 16 17.5t20 11.5t28.5 5.5t41.5 1.5q29 0 45 -3.5t23 -10t5.5 -14.5t-9.5 -18z" />
    <glyph glyph-name="f_f_icircumflex.liga" unicode="ff&#xee;" horiz-adv-x="1654" 
d="M1449 1118q-8 -9 -15 -14.5t-16.5 -9t-22 -4.5t-31.5 -1q-25 0 -38 3t-16.5 10t2 18.5t19.5 27.5l198 226q7 8 15 12.5t18.5 7.5t26 4t37.5 1q21 0 34.5 -1t22.5 -4.5t15 -8.5t9 -11l111 -229q7 -16 9 -26.5t-3 -17t-19 -9.5t-39 -3q-21 0 -33.5 1t-20.5 4.5t-12 9
t-7 14.5l-86 181zM864 951l24 123q17 83 46 144.5t70 102t93 60.5t116 20q20 0 40 -2t37.5 -6t30 -8.5t17.5 -9.5q5 -6 8 -15t3 -19q0 -3 -1 -11t-3 -18.5t-5 -22t-6.5 -21t-9 -15.5t-11.5 -6q-7 0 -15 3t-18.5 6t-25 6t-33.5 3q-39 0 -67 -13t-48 -40.5t-34 -70t-26 -99.5
l-17 -91h519q27 0 35.5 -13.5t5.5 -37.5l-174 -875q-3 -8 -7.5 -13.5t-15 -9.5t-27 -6t-40.5 -2q-25 0 -40.5 2t-24 6t-11 9.5t-0.5 13.5l157 789h-405l-164 -817q-18 -91 -47.5 -157.5t-72 -109.5t-99 -63t-127.5 -20q-51 0 -87.5 7.5t-48.5 20.5q-9 8 -9 27q0 5 1 14.5
t3 20.5t5 22.5t7.5 21t10 15.5t12.5 6t16.5 -2.5t22 -6t28.5 -6.5t36 -3q41 0 71 13t51.5 39t36.5 67t26 97l163 814h-405l-171 -852q-17 -84 -46 -145.5t-71 -102t-97 -60t-124 -19.5q-45 0 -73.5 7t-35.5 13q-4 5 -6 11t-2 16q0 4 1.5 13.5t3.5 20t5 22t7 21.5t9 16t12 6
t13.5 -1.5t14 -3t18 -3t26.5 -1.5q42 0 72.5 13t52 40.5t36 69.5t26.5 101l164 818h-128q-10 0 -15.5 6.5t-5.5 24.5q0 8 1 19.5t3.5 23.5t6.5 23t10 20t12.5 14.5t16.5 5.5h126l23 112q17 83 46.5 144t72 101.5t98 60.5t123.5 20q22 0 45.5 -2.5t44 -7t36.5 -10.5t22 -12
q5 -5 8 -14t3 -19q0 -4 -1 -12.5t-2.5 -19t-4.5 -22.5t-7 -21.5t-9 -15.5t-11 -6q-7 0 -17.5 4t-24.5 8.5t-33 8.5t-41 4q-44 0 -74.5 -13t-52 -40.5t-37 -69.5t-26.5 -99l-15 -79h405z" />
    <glyph glyph-name="f_f_itilde.liga" unicode="ff&#x129;" horiz-adv-x="1673" 
d="M864 951l26 129q17 82 45 142.5t67.5 100t91 59t115.5 19.5q36 0 62.5 -5.5t34.5 -13.5q6 -5 7.5 -11.5t1.5 -18.5q0 -3 -1 -12t-3 -19.5t-5 -22t-7 -21.5t-9 -16t-11 -6q-12 0 -24.5 4t-38.5 4q-39 0 -65.5 -13.5t-46 -41.5t-33 -70.5t-25.5 -100.5l-17 -86h537
q28 0 36.5 -13.5t4.5 -37.5l-174 -875q-2 -8 -7 -13.5t-15.5 -9.5t-26.5 -6t-41 -2q-24 0 -39.5 2t-24 6t-11 9.5t-1.5 13.5l157 789h-423l-164 -817q-18 -91 -47.5 -157.5t-72 -109.5t-99 -63t-127.5 -20q-51 0 -87.5 7.5t-48.5 20.5q-9 8 -9 27q0 5 1 14.5t3 20.5t5 22.5
t7.5 21t10 15.5t12.5 6t16.5 -2.5t22 -6t28.5 -6.5t36 -3q41 0 71 13t51.5 39t36.5 67t26 97l163 814h-405l-171 -852q-17 -84 -46 -145.5t-71 -102t-97 -60t-124 -19.5q-45 0 -73.5 7t-35.5 13q-4 5 -6 11t-2 16q0 4 1.5 13.5t3.5 20t5 22t7 21.5t9 16t12 6t13.5 -1.5
t14 -3t18 -3t26.5 -1.5q42 0 72.5 13t52 40.5t36 69.5t26.5 101l164 818h-128q-10 0 -15.5 6.5t-5.5 24.5q0 8 1 19.5t3.5 23.5t6.5 23t10 20t12.5 14.5t16.5 5.5h126l23 112q17 83 46.5 144t72 101.5t98 60.5t123.5 20q22 0 45.5 -2.5t44 -7t36.5 -10.5t22 -12q5 -5 8 -14
t3 -19q0 -4 -1 -12.5t-2.5 -19t-4.5 -22.5t-7 -21.5t-9 -15.5t-11 -6q-7 0 -17.5 4t-24.5 8.5t-33 8.5t-41 4q-44 0 -74.5 -13t-52 -40.5t-37 -69.5t-26.5 -99l-15 -79h405zM1878 1305q0 -10 -2.5 -32t-9 -47.5t-19 -52.5t-32 -49t-48.5 -36t-68 -14q-33 0 -58 10t-45 24.5
t-35.5 32t-30 32.5t-29 25t-31.5 10q-27 0 -43.5 -25t-22.5 -82q-1 -7 -3.5 -12t-9.5 -8t-18 -5t-30 -2q-15 0 -24.5 2t-15.5 5.5t-8 9.5t-2 15q0 8 2 28.5t8.5 45.5t18.5 52.5t31.5 50t48.5 37t70 14.5q32 0 57 -9.5t44.5 -25t36.5 -32.5t31.5 -32.5t29 -25t30.5 -9.5
q25 0 42 24t23 83q1 7 4 12.5t9.5 8.5t17 4.5t25.5 1.5q33 0 44.5 -6.5t11.5 -22.5z" />
    <glyph glyph-name="f_f_idieresis.liga" unicode="ff&#xef;" horiz-adv-x="1673" 
d="M1369 1228q5 27 13 45t21 29t31.5 15.5t42.5 4.5q26 0 42 -4.5t24 -15.5t8.5 -29t-4.5 -45t-13 -45t-20.5 -29t-30.5 -16t-43 -5q-26 0 -42 5t-24.5 16t-9.5 29t5 45zM1658 1228q5 27 13 45t21 29t31 15.5t43 4.5q26 0 41.5 -4.5t23.5 -15.5t9 -29t-4 -45t-13.5 -45
t-21 -29t-30.5 -16t-42 -5q-26 0 -42.5 5t-24.5 16t-9 29t5 45zM864 951l24 123q17 83 45.5 144.5t68.5 102t92 60.5t116 20q18 0 37 -2t35 -5t28 -7.5t17 -9.5q6 -6 8 -12.5t2 -18.5q0 -3 -1 -12t-2.5 -19.5t-4.5 -22t-6.5 -21t-9 -15.5t-11.5 -6q-7 0 -15 2t-18 4
l-22.5 4.5t-30.5 2.5q-38 0 -65 -13t-46.5 -40t-33 -69t-25.5 -99l-17 -91h537q28 0 36.5 -13.5t4.5 -37.5l-174 -875q-2 -8 -7 -13.5t-15.5 -9.5t-26.5 -6t-41 -2q-24 0 -39.5 2t-24 6t-11 9.5t-1.5 13.5l157 789h-423l-164 -817q-18 -91 -47.5 -157.5t-72 -109.5t-99 -63
t-127.5 -20q-51 0 -87.5 7.5t-48.5 20.5q-9 8 -9 27q0 5 1 14.5t3 20.5t5 22.5t7.5 21t10 15.5t12.5 6t16.5 -2.5t22 -6t28.5 -6.5t36 -3q41 0 71 13t51.5 39t36.5 67t26 97l163 814h-405l-171 -852q-17 -84 -46 -145.5t-71 -102t-97 -60t-124 -19.5q-45 0 -73.5 7t-35.5 13
q-4 5 -6 11t-2 16q0 4 1.5 13.5t3.5 20t5 22t7 21.5t9 16t12 6t13.5 -1.5t14 -3t18 -3t26.5 -1.5q42 0 72.5 13t52 40.5t36 69.5t26.5 101l164 818h-128q-10 0 -15.5 6.5t-5.5 24.5q0 8 1 19.5t3.5 23.5t6.5 23t10 20t12.5 14.5t16.5 5.5h126l23 112q17 83 46.5 144
t72 101.5t98 60.5t123.5 20q22 0 45.5 -2.5t44 -7t36.5 -10.5t22 -12q5 -5 8 -14t3 -19q0 -4 -1 -12.5t-2.5 -19t-4.5 -22.5t-7 -21.5t-9 -15.5t-11 -6q-7 0 -17.5 4t-24.5 8.5t-33 8.5t-41 4q-44 0 -74.5 -13t-52 -40.5t-37 -69.5t-26.5 -99l-15 -79h405z" />
    <glyph glyph-name="f_f_imacron.liga" unicode="ff&#x12b;" horiz-adv-x="1673" 
d="M864 951l24 123q17 83 45.5 144.5t68.5 102t92 60.5t116 20q18 0 37 -2t35 -5t28 -7.5t17 -9.5q6 -6 8 -12.5t2 -18.5q0 -3 -1 -12t-2.5 -19.5t-4.5 -22t-6.5 -21t-9 -15.5t-11.5 -6q-7 0 -15 2t-18 4l-22.5 4.5t-30.5 2.5q-38 0 -65 -13t-46.5 -40t-33 -69t-25.5 -99
l-17 -91h537q28 0 36.5 -13.5t4.5 -37.5l-174 -875q-2 -8 -7 -13.5t-15.5 -9.5t-26.5 -6t-41 -2q-24 0 -39.5 2t-24 6t-11 9.5t-1.5 13.5l157 789h-423l-164 -817q-18 -91 -47.5 -157.5t-72 -109.5t-99 -63t-127.5 -20q-51 0 -87.5 7.5t-48.5 20.5q-9 8 -9 27q0 5 1 14.5
t3 20.5t5 22.5t7.5 21t10 15.5t12.5 6t16.5 -2.5t22 -6t28.5 -6.5t36 -3q41 0 71 13t51.5 39t36.5 67t26 97l163 814h-405l-171 -852q-17 -84 -46 -145.5t-71 -102t-97 -60t-124 -19.5q-45 0 -73.5 7t-35.5 13q-4 5 -6 11t-2 16q0 4 1.5 13.5t3.5 20t5 22t7 21.5t9 16t12 6
t13.5 -1.5t14 -3t18 -3t26.5 -1.5q42 0 72.5 13t52 40.5t36 69.5t26.5 101l164 818h-128q-10 0 -15.5 6.5t-5.5 24.5q0 8 1 19.5t3.5 23.5t6.5 23t10 20t12.5 14.5t16.5 5.5h126l23 112q17 83 46.5 144t72 101.5t98 60.5t123.5 20q22 0 45.5 -2.5t44 -7t36.5 -10.5t22 -12
q5 -5 8 -14t3 -19q0 -4 -1 -12.5t-2.5 -19t-4.5 -22.5t-7 -21.5t-9 -15.5t-11 -6q-7 0 -17.5 4t-24.5 8.5t-33 8.5t-41 4q-44 0 -74.5 -13t-52 -40.5t-37 -69.5t-26.5 -99l-15 -79h405zM1822 1293q12 0 18 -8.5t6 -21.5q0 -5 -1 -14t-3.5 -20t-6 -22.5t-9 -21t-12.5 -15.5
t-16 -6h-428q-14 0 -19.5 8t-5.5 24q0 7 2 23.5t8 32.5t15.5 28.5t23.5 12.5h428z" />
    <glyph glyph-name="f_f_ibreve.liga" unicode="ff&#x12d;" horiz-adv-x="1673" 
d="M864 951l26 129q17 82 45 142.5t67.5 100t91 59t115.5 19.5q36 0 62.5 -5.5t34.5 -13.5q6 -5 7.5 -11.5t1.5 -18.5q0 -3 -1 -12t-3 -19.5t-5 -22t-7 -21.5t-9 -16t-11 -6q-12 0 -24.5 4t-38.5 4q-39 0 -65.5 -13.5t-46 -41.5t-33 -70.5t-25.5 -100.5l-17 -86h537
q28 0 36.5 -13.5t4.5 -37.5l-174 -875q-2 -8 -7 -13.5t-15.5 -9.5t-26.5 -6t-41 -2q-24 0 -39.5 2t-24 6t-11 9.5t-1.5 13.5l157 789h-423l-164 -817q-18 -91 -47.5 -157.5t-72 -109.5t-99 -63t-127.5 -20q-51 0 -87.5 7.5t-48.5 20.5q-9 8 -9 27q0 5 1 14.5t3 20.5t5 22.5
t7.5 21t10 15.5t12.5 6t16.5 -2.5t22 -6t28.5 -6.5t36 -3q41 0 71 13t51.5 39t36.5 67t26 97l163 814h-405l-171 -852q-17 -84 -46 -145.5t-71 -102t-97 -60t-124 -19.5q-45 0 -73.5 7t-35.5 13q-4 5 -6 11t-2 16q0 4 1.5 13.5t3.5 20t5 22t7 21.5t9 16t12 6t13.5 -1.5
t14 -3t18 -3t26.5 -1.5q42 0 72.5 13t52 40.5t36 69.5t26.5 101l164 818h-128q-10 0 -15.5 6.5t-5.5 24.5q0 8 1 19.5t3.5 23.5t6.5 23t10 20t12.5 14.5t16.5 5.5h126l23 112q17 83 46.5 144t72 101.5t98 60.5t123.5 20q22 0 45.5 -2.5t44 -7t36.5 -10.5t22 -12q5 -5 8 -14
t3 -19q0 -4 -1 -12.5t-2.5 -19t-4.5 -22.5t-7 -21.5t-9 -15.5t-11 -6q-7 0 -17.5 4t-24.5 8.5t-33 8.5t-41 4q-44 0 -74.5 -13t-52 -40.5t-37 -69.5t-26.5 -99l-15 -79h405zM1751 1372q7 6 18.5 9.5t37.5 3.5q17 0 28.5 -1t17 -3.5t7.5 -6t2 -7.5t-3 -26.5t-12 -53.5
t-27.5 -66.5t-50.5 -65.5t-78.5 -49.5t-112.5 -19.5q-65 0 -106 16t-64.5 42.5t-32 59t-8.5 65.5q0 14 1 30.5t4 31.5t6 26.5t8 15.5q5 5 17 8.5t35 3.5q17 0 27.5 -1t17 -4t9 -7t2.5 -10q0 -10 -2.5 -28t-2.5 -31q0 -48 21 -75t76 -27q35 0 60 12t42.5 30t28.5 38.5
t17.5 39.5t10 33t6.5 17z" />
    <glyph glyph-name="f_f_iogonek.liga" unicode="ff&#x12f;" horiz-adv-x="1654" 
d="M1415 25q-5 -21 -15 -38t-26 -30l-75 -62q-37 -32 -53.5 -53.5t-16.5 -43.5q0 -18 13 -29.5t45 -11.5h111q13 0 18 -5t5 -15q0 -6 -1.5 -16.5t-4 -21.5t-7 -20.5t-8.5 -13.5q-6 -6 -22 -11t-37.5 -9.5t-44.5 -7t-45 -2.5q-94 0 -140.5 32.5t-46.5 95.5q0 19 4.5 39
t17 42.5t34.5 47t56 52.5l68 58l162 812h-405l-164 -817q-18 -91 -47.5 -157.5t-72 -109.5t-99 -63t-127.5 -20q-51 0 -87.5 7.5t-48.5 20.5q-9 8 -9 27q0 5 1 14.5t3 20.5t5 22.5t7.5 21t10 15.5t12.5 6t16.5 -2.5t22 -6t28.5 -6.5t36 -3q41 0 71 13t51.5 39t36.5 67t26 97
l163 814h-405l-171 -852q-17 -84 -46 -145.5t-71 -102t-97 -60t-124 -19.5q-45 0 -73.5 7t-35.5 13q-4 5 -6 11t-2 16q0 4 1.5 13.5t3.5 20t5 22t7 21.5t9 16t12 6t13.5 -1.5t14 -3t18 -3t26.5 -1.5q42 0 72.5 13t52 40.5t36 69.5t26.5 101l164 818h-128q-10 0 -15.5 6.5
t-5.5 24.5q0 8 1 19.5t3.5 23.5t6.5 23t10 20t12.5 14.5t16.5 5.5h126l23 112q17 83 46.5 144t72 101.5t98 60.5t123.5 20q22 0 45.5 -2.5t44 -7t36.5 -10.5t22 -12q5 -5 8 -14t3 -19q0 -4 -1 -12.5t-2.5 -19t-4.5 -22.5t-7 -21.5t-9 -15.5t-11 -6q-7 0 -17.5 4t-24.5 8.5
t-33 8.5t-41 4q-44 0 -74.5 -13t-52 -40.5t-37 -69.5t-26.5 -99l-15 -79h405l24 123q17 83 46.5 144.5t71.5 102t97 60.5t124 20q23 0 45 -2.5t40 -7t31 -9.5t19 -11q5 -5 6 -13t1 -18q0 -3 -0.5 -11.5t-2.5 -19t-4.5 -22t-6.5 -21t-9 -16t-11 -6.5q-8 0 -17.5 3t-22 6.5
t-28.5 7t-38 3.5q-42 0 -71 -13t-50 -40.5t-35.5 -69.5t-26.5 -99l-17 -91h519q27 0 35.5 -13.5t5.5 -37.5zM1673 1228q-5 -28 -13.5 -47t-22.5 -30.5t-34.5 -16.5t-50.5 -5t-48.5 5t-27.5 16.5t-9.5 30.5t4.5 47q6 28 14.5 46.5t22 31t34.5 17t51 4.5q29 0 47.5 -4.5
t27.5 -17t10 -31t-5 -46.5z" />
    <glyph glyph-name="f_f_dotlessi.liga" unicode="ff&#x131;" horiz-adv-x="1654" 
d="M431 814l-171 -852q-17 -84 -46 -145.5t-71 -102t-97 -60t-124 -19.5q-45 0 -73.5 7t-35.5 13q-4 5 -6 11t-2 16q0 4 1.5 13.5t3.5 20t5 22t7 21.5t9 16t12 6t13.5 -1.5t14 -3t18 -3t26.5 -1.5q42 0 72.5 13t52 40.5t36 69.5t26.5 101l164 818h-128q-10 0 -15.5 6.5
t-5.5 24.5q0 8 1 19.5t3.5 23.5t6.5 23t10 20t12.5 14.5t16.5 5.5h126l23 112q17 83 46.5 144t72 101.5t98 60.5t123.5 20q22 0 45.5 -2.5t44 -7t36.5 -10.5t22 -12q5 -5 8 -14t3 -19q0 -4 -1 -12.5t-2.5 -19t-4.5 -22.5t-7 -21.5t-9 -15.5t-11 -6q-7 0 -17.5 4t-24.5 8.5
t-33 8.5t-41 4q-44 0 -74.5 -13t-52 -40.5t-37 -69.5t-26.5 -99l-15 -79h405l24 123q17 83 46.5 144.5t71.5 102t97 60.5t124 20q21 0 43.5 -2.5t42 -6t34.5 -9t20 -11.5q6 -5 9 -14t3 -19q0 -4 -1 -12.5t-3 -19t-4.5 -22t-6.5 -21t-9 -16t-11 -6.5q-8 0 -17.5 3.5
t-22.5 7.5t-30 7.5t-39 3.5q-44 0 -74.5 -13t-52 -40.5t-36 -69.5t-26.5 -99l-17 -91h519q27 0 35.5 -13.5t5.5 -37.5l-174 -875q-3 -8 -7.5 -13.5t-15 -9.5t-27 -6t-40.5 -2q-25 0 -40.5 2t-24 6t-11 9.5t-0.5 13.5l157 789h-405l-164 -817q-18 -91 -47.5 -157.5
t-72 -109.5t-99 -63t-127.5 -20q-51 0 -87.5 7.5t-48.5 20.5q-9 8 -9 27q0 5 1 14.5t3 20.5t5 22.5t7.5 21t10 15.5t12.5 6t16.5 -2.5t22 -6t28.5 -6.5t36 -3q41 0 71 13t51.5 39t36.5 67t26 97l163 814h-405z" />
    <glyph glyph-name="f_j.liga" unicode="fj" horiz-adv-x="1084" 
d="M833 -21q-16 -79 -40 -140.5t-62 -104.5t-92.5 -65t-131.5 -22q-32 0 -56.5 3t-41 7t-26.5 9t-14 8q-4 4 -6 10.5t-2 13.5t1.5 17.5t3.5 22t5.5 23.5t8.5 21t10.5 15t13.5 6q9 0 16 -2.5t17.5 -6.5t26.5 -6.5t42 -2.5q32 0 57.5 10t45 33t33.5 60t25 91l169 835h-405
l-171 -852q-17 -84 -46 -145.5t-71 -102t-97 -60t-124 -19.5q-46 0 -73.5 6.5t-34.5 12.5q-9 10 -9 28q0 4 1.5 13.5t3.5 20.5t5 22.5t7.5 21.5t9.5 16t12 6t13.5 -1.5t14 -3t18 -3t26.5 -1.5q42 0 72 13t51.5 40t36.5 69t26 101l164 818h-128q-10 0 -15.5 6.5t-5.5 24.5
q0 8 1 19.5t3.5 23.5t6.5 23t10 20t12.5 14.5t16.5 5.5h126l25 122q16 83 46 144.5t72 102.5t97 61t123 20q23 0 45 -2.5t40 -7t31 -9.5t19 -11q5 -5 6.5 -13t1.5 -18q0 -3 -1 -11.5t-3 -19t-4.5 -22.5t-6.5 -21.5t-9.5 -15.5t-10.5 -6q-8 0 -17 3t-21.5 6.5t-29 7
t-38.5 3.5q-41 0 -70.5 -13t-50 -40.5t-35.5 -69.5t-26 -99l-17 -91h519q27 0 35.5 -14t4.5 -37zM1102 1228q-5 -28 -13 -47t-22 -30.5t-35 -16.5t-50 -5q-30 0 -48.5 5t-27 16.5t-9.5 30.5t4 47q6 28 14 46.5t22 31t34.5 17t50.5 4.5t48 -4.5t27 -17t10 -31t-5 -46.5z" />
    <glyph glyph-name="f_jcircumflex.liga" unicode="f&#x135;" horiz-adv-x="1084" 
d="M879 1118q-8 -9 -15.5 -14.5t-16.5 -9t-21.5 -4.5t-31.5 -1q-24 0 -37.5 3t-17.5 10t1.5 18.5t20.5 27.5l198 226q6 8 14 12.5t18.5 7.5t26 4t37.5 1q21 0 34.5 -1t23.5 -4.5t15 -8.5t10 -11l109 -229q7 -16 9.5 -26.5t-3 -17t-19.5 -9.5t-38 -3q-22 0 -34.5 1t-20 4.5
t-11.5 9t-7 14.5l-86 181zM459 951h519q27 0 35.5 -14t4.5 -37l-185 -921q-16 -79 -40 -140.5t-62 -104.5t-92.5 -65t-131.5 -22q-32 0 -56.5 3t-41 7t-25.5 9t-14 8q-4 4 -6 10.5t-2 13.5t1.5 17.5t3.5 22t6 23.5t8.5 21.5t10.5 15.5t13 6q9 0 16 -2.5t17.5 -6t26.5 -6
t42 -2.5q32 0 57 9.5t45 32.5t33.5 60t24.5 92l169 833h-405l-171 -852q-17 -84 -46 -145.5t-71 -102t-97 -60t-124 -19.5q-46 0 -73.5 6.5t-34.5 12.5q-9 10 -9 28q0 4 1.5 13.5t3.5 20.5t5 22.5t7.5 21.5t9.5 16t12 6t13.5 -1.5t14 -3t18 -3t26.5 -1.5q42 0 72 13t51.5 40
t36.5 69t26 101l164 818h-128q-10 0 -15.5 6.5t-5.5 24.5q0 8 1 19.5t3.5 23.5t6.5 23t10 20t12.5 14.5t16.5 5.5h126l25 123q17 83 45.5 144.5t69.5 102t93.5 60t116.5 19.5q20 0 40 -2t37 -6t29.5 -8.5t17.5 -9.5q6 -6 8.5 -15t2.5 -19q0 -3 -1 -11.5t-2.5 -19t-4 -21.5
t-7 -20.5t-9.5 -15.5t-12 -6t-15 3t-18.5 6.5t-25 6.5t-32.5 3q-40 0 -68 -14t-48.5 -41t-34 -69t-24.5 -98z" />
    <glyph glyph-name="f_f_j.liga" unicode="ffj" horiz-adv-x="1655" 
d="M1404 -21q-16 -79 -40 -140.5t-62 -104.5t-93 -65t-132 -22q-32 0 -56.5 3t-41 7t-26.5 9t-13 8q-5 4 -7 10.5t-2 13.5t1.5 17.5t3.5 22t6 23.5t9 21t10.5 15t13.5 6q9 0 16 -2.5t17.5 -6.5t26.5 -6.5t42 -2.5q32 0 57.5 10t44.5 33t33.5 60t25.5 91l168 835h-405
l-165 -829q-18 -92 -48 -158t-72.5 -108.5t-99 -63t-127.5 -20.5q-51 0 -87.5 7.5t-48.5 20.5q-10 8 -10 28q0 7 2.5 23t7.5 33t12 30t17 13q7 0 17 -2.5t23 -6t28.5 -6.5t34.5 -3q42 0 72 13t51.5 39t36.5 66.5t26 96.5l165 827h-405l-171 -852q-17 -84 -46 -145.5
t-71 -102t-97 -60t-124 -19.5q-45 0 -73.5 7t-35.5 13q-4 5 -6 11t-2 16q0 4 1.5 13.5t3.5 20t5 22t7 21.5t9 16t12 6t13.5 -1.5t14 -3t18 -3t26.5 -1.5q42 0 72.5 13t52 40.5t36 69.5t26.5 101l164 818h-128q-10 0 -15.5 6.5t-5.5 24.5q0 8 1 19.5t3.5 23.5t6.5 23t10 20
t12.5 14.5t16.5 5.5h126l23 112q17 83 46.5 144t72 101.5t98 60.5t123.5 20q22 0 45.5 -2.5t44 -7t36.5 -10.5t22 -12q5 -5 8 -14t3 -19q0 -4 -1 -12.5t-2.5 -19t-4.5 -22.5t-7 -21.5t-9 -15.5t-11 -6q-7 0 -17.5 4t-24.5 8.5t-33 8.5t-41 4q-44 0 -74.5 -13t-52 -40.5
t-37 -69.5t-26.5 -99l-15 -79h405l24 123q17 83 46.5 144.5t71.5 102t97 60.5t124 20q23 0 45 -2.5t40 -7t31 -9.5t19 -11q5 -5 6 -13t1 -18q0 -3 -0.5 -11.5t-2.5 -19t-4.5 -22t-6.5 -21t-9 -16t-11 -6.5q-8 0 -17.5 3t-22 6.5t-28.5 7t-38 3.5q-42 0 -71 -13t-50 -40.5
t-35.5 -69.5t-26.5 -99l-17 -91h519q27 0 35.5 -13.5t5.5 -37.5zM1673 1228q-5 -28 -13.5 -47t-22.5 -30.5t-34.5 -16.5t-50.5 -5t-48.5 5t-27.5 16.5t-9.5 30.5t4.5 47q6 28 14.5 46.5t22 31t34.5 17t51 4.5q29 0 47.5 -4.5t27.5 -17t10 -31t-5 -46.5z" />
    <glyph glyph-name="f_k.liga" unicode="fk" horiz-adv-x="1545" 
d="M1561 928q0 -12 -9 -25t-33 -36l-391 -335l269 -453q10 -18 13.5 -30.5t3.5 -19.5q0 -9 -4 -15.5t-14.5 -10.5t-27.5 -6.5t-44 -2.5t-43.5 1.5t-26 5t-14.5 10t-9 15.5l-288 498l-99 -499q-2 -8 -7 -13.5t-15.5 -9.5t-27 -6t-40.5 -2t-39.5 2t-23.5 6t-11 9.5t-2 13.5
l244 1221q-2 -3 -6.5 -5t-10.5 -2q-7 0 -21 3.5t-35.5 8.5t-51.5 8.5t-70 3.5q-65 0 -108 -13t-71 -40.5t-44.5 -69.5t-27.5 -99l-17 -90h184q11 0 17.5 -7.5t6.5 -24.5q0 -11 -1.5 -23t-5 -23.5t-8 -22t-10 -18.5t-12.5 -13t-15 -5h-184l-171 -852q-17 -84 -46 -145.5
t-71 -102t-97 -60t-124 -19.5q-45 0 -73.5 7t-35.5 13q-4 5 -6 11t-2 16q0 4 1.5 13.5t3.5 20t5 22t7 21.5t9 16t12 6t13.5 -1.5t14 -3t18 -3t26.5 -1.5q42 0 72.5 13t52 40.5t36 69.5t26.5 101l164 818h-128q-10 0 -15.5 6.5t-5.5 24.5q0 8 1 19.5t3.5 23.5t6.5 23t10 20
t12.5 14.5t16.5 5.5h126l25 125q16 82 47.5 143.5t81.5 101.5t121 59.5t169 19.5q22 0 53.5 -2.5t61.5 -7t54 -10t30 -11.5l4.5 -6t3.5 -6q1 8 6 15t15 11.5t26.5 7t43.5 2.5q23 0 38.5 -2t24 -6t11.5 -10t2 -14l-164 -814l417 377q8 9 18 15.5t23 10t30.5 5t42.5 1.5
q24 0 40.5 -1.5t25.5 -5t13 -9t4 -12.5z" />
    <glyph glyph-name="f_f_k.liga" unicode="ffk" horiz-adv-x="2115" 
d="M2132 928q0 -12 -9 -25t-33 -36l-391 -335l269 -453q10 -18 14 -30.5t4 -19.5q0 -9 -4.5 -15.5t-15 -10.5t-27.5 -6.5t-44 -2.5t-43.5 2t-26 5.5t-14.5 9.5t-9 15l-288 498l-99 -499q-3 -8 -7.5 -13.5t-15 -9.5t-27 -6t-40.5 -2q-25 0 -40.5 2t-24 6t-11 9.5t-0.5 13.5
l244 1222q-3 -3 -7 -5t-10 -2q-8 0 -21.5 3.5t-35.5 8t-52 8.5t-70 4q-65 0 -108 -13t-71 -40.5t-44 -69.5t-27 -99l-18 -91h184q12 0 18.5 -7.5t6.5 -24.5q0 -11 -1.5 -23t-5 -23.5t-8 -22t-10.5 -18.5t-13 -13t-14 -5h-184l-164 -817q-19 -91 -48 -157.5t-72 -109.5
t-99.5 -63t-127.5 -20q-50 0 -86.5 7.5t-48.5 20.5q-10 8 -10 27q0 5 1 14.5t3 20.5t5 22.5t7.5 21t10 15.5t12.5 6t16.5 -2.5t22 -6t28.5 -6.5t36 -3q41 0 71 13t51.5 39t36.5 67t27 97l162 814h-405l-171 -852q-17 -84 -46 -145.5t-71 -102t-97 -60t-124 -19.5
q-45 0 -73.5 7t-35.5 13q-4 5 -6 11t-2 16q0 4 1.5 13.5t3.5 20t5 22t7 21.5t9 16t12 6t13.5 -1.5t14 -3t18 -3t26.5 -1.5q42 0 72.5 13t52 40t36 69t26.5 102l164 818h-128q-10 0 -15.5 6.5t-5.5 24.5q0 8 1 19.5t3.5 23.5t6.5 23t10 20t12.5 14.5t16.5 5.5h126l23 112
q17 83 46.5 144t72 101.5t98 60.5t123.5 20q22 0 45.5 -2.5t44 -7t36.5 -10.5t22 -12q5 -5 8 -14t3 -19q0 -4 -1 -12.5t-2.5 -19t-4.5 -22.5t-7 -21.5t-9 -15.5t-11 -6q-7 0 -17.5 4t-24.5 8.5t-33 8.5t-41 4q-44 0 -74.5 -13t-52 -40.5t-37 -69.5t-26.5 -99l-15 -79h405
l25 125q17 82 47.5 143.5t80 101.5t121 60t170.5 20q21 0 53 -2.5t62.5 -7t54 -10.5t30.5 -13q2 -3 3.5 -5t3.5 -6q1 8 6 15t15 11.5t26.5 7t43.5 2.5q23 0 38.5 -2t24 -6t11 -10t1.5 -14l-163 -814l416 377q8 9 18 15t23 10t31 5.5t42 1.5q25 0 41 -1.5t25.5 -5t13.5 -9
t4 -12.5z" />
    <glyph glyph-name="f_lacute.liga" unicode="f&#x13a;" horiz-adv-x="1084" 
d="M844 26q-4 -17 -24.5 -24.5t-62.5 -7.5q-25 0 -41 2.5t-24.5 6t-11.5 9.5t-2 14l244 1220q-2 -3 -6.5 -5t-10.5 -2q-7 0 -21 3.5t-35.5 8.5t-51.5 8.5t-70 3.5q-65 0 -108 -13t-71 -40.5t-44.5 -69.5t-27.5 -99l-17 -90h184q11 0 17.5 -7.5t6.5 -24.5q0 -11 -1.5 -23
t-5 -23.5t-8 -22t-10 -18.5t-12.5 -13t-15 -5h-184l-171 -852q-17 -84 -46 -145.5t-71 -102t-97 -60t-124 -19.5q-45 0 -73.5 7t-35.5 13q-4 5 -6 11t-2 16q0 4 1.5 13.5t3.5 20t5 22t7 21.5t9 16t12 6t13.5 -1.5t14 -3t18 -3t26.5 -1.5q42 0 72.5 13t52 40.5t36 69.5
t26.5 101l164 818h-128q-10 0 -15.5 6.5t-5.5 24.5q0 8 1 19.5t3.5 23.5t6.5 23t10 20t12.5 14.5t16.5 5.5h126l25 125q16 82 47.5 143.5t81.5 101.5t121 59.5t169 19.5q22 0 53.5 -2.5t61.5 -7t54 -10t30 -11.5l4.5 -6t3.5 -6q1 8 6 15t15 11.5t26.5 7t43.5 2.5
q23 0 38.5 -2t24 -6t11.5 -10t2 -14zM1145 1495q-11 -9 -20 -15t-20 -9.5t-25.5 -5t-34.5 -1.5q-46 0 -55 10.5t11 32.5l197 213q11 12 22.5 19.5t25 11.5t31 5.5t42.5 1.5q30 0 47 -4.5t24 -11.5t3.5 -16t-13.5 -19zM645 1363z" />
    <glyph glyph-name="f_lcaron.liga" unicode="f&#x13e;" horiz-adv-x="1155" 
d="M844 26q-4 -17 -24.5 -24.5t-62.5 -7.5q-25 0 -41 2.5t-24.5 6t-11.5 9.5t-2 14l244 1220q-2 -3 -6.5 -5t-10.5 -2q-7 0 -21 3.5t-35.5 8.5t-51.5 8.5t-70 3.5q-65 0 -108 -13t-71 -40.5t-44.5 -69.5t-27.5 -99l-17 -90h184q11 0 17.5 -7.5t6.5 -24.5q0 -11 -1.5 -23
t-5 -23.5t-8 -22t-10 -18.5t-12.5 -13t-15 -5h-184l-171 -852q-17 -84 -46 -145.5t-71 -102t-97 -60t-124 -19.5q-45 0 -73.5 7t-35.5 13q-4 5 -6 11t-2 16q0 4 1.5 13.5t3.5 20t5 22t7 21.5t9 16t12 6t13.5 -1.5t14 -3t18 -3t26.5 -1.5q42 0 72.5 13t52 40.5t36 69.5
t26.5 101l164 818h-128q-10 0 -15.5 6.5t-5.5 24.5q0 8 1 19.5t3.5 23.5t6.5 23t10 20t12.5 14.5t16.5 5.5h126l25 125q16 82 47.5 143.5t81.5 101.5t121 59.5t169 19.5q22 0 53.5 -2.5t61.5 -7t54 -10t30 -11.5l4.5 -6t3.5 -6q1 8 6 15t15 11.5t26.5 7t43.5 2.5
q23 0 38.5 -2t24 -6t11.5 -10t2 -14zM1241 1048q-4 -7 -9.5 -11.5t-14.5 -7t-22.5 -3.5t-34.5 -1q-14 0 -22.5 2t-12.5 6t-4.5 9.5t2.5 13.5l128 305q4 10 10.5 17t17.5 11t27 6t40 2q22 0 35.5 -2t19 -6.5t4.5 -11.5t-5 -17zM867 997z" />
    <glyph glyph-name="f_uni013C.liga" unicode="f&#x13c;" horiz-adv-x="1084" 
d="M844 26q-4 -17 -24.5 -24.5t-62.5 -7.5q-25 0 -41 2.5t-24.5 6t-11.5 9.5t-2 14l244 1220q-2 -3 -6.5 -5t-10.5 -2q-7 0 -21 3.5t-35.5 8.5t-51.5 8.5t-70 3.5q-65 0 -108 -13t-71 -40.5t-44.5 -69.5t-27.5 -99l-17 -90h184q11 0 17.5 -7.5t6.5 -24.5q0 -11 -1.5 -23
t-5 -23.5t-8 -22t-10 -18.5t-12.5 -13t-15 -5h-184l-171 -852q-17 -84 -46 -145.5t-71 -102t-97 -60t-124 -19.5q-45 0 -73.5 7t-35.5 13q-4 5 -6 11t-2 16q0 4 1.5 13.5t3.5 20t5 22t7 21.5t9 16t12 6t13.5 -1.5t14 -3t18 -3t26.5 -1.5q42 0 72.5 13t52 40.5t36 69.5
t26.5 101l164 818h-128q-10 0 -15.5 6.5t-5.5 24.5q0 8 1 19.5t3.5 23.5t6.5 23t10 20t12.5 14.5t16.5 5.5h126l25 125q16 82 47.5 143.5t81.5 101.5t121 59.5t169 19.5q22 0 53.5 -2.5t61.5 -7t54 -10t30 -11.5l4.5 -6t3.5 -6q1 8 6 15t15 11.5t26.5 7t43.5 2.5
q23 0 38.5 -2t24 -6t11.5 -10t2 -14zM676 -334q-7 -10 -13.5 -16t-16.5 -9t-24 -4.5t-35 -1.5q-20 0 -31 2.5t-15 7.5t-2 13t7 19l98 202q5 11 12 18.5t19 11.5t29.5 6t44.5 2q26 0 40.5 -3.5t20 -10t3.5 -15t-9 -19.5z" />
    <glyph glyph-name="f_t.liga" unicode="ft" horiz-adv-x="1252" 
d="M1275 915q0 -9 -1.5 -19.5t-4 -21.5t-7.5 -22t-10.5 -19.5t-12.5 -13.5t-16 -5h-230l-101 -502q-4 -21 -7 -47t-3 -43q0 -51 21 -74.5t71 -23.5q27 0 46.5 4.5t34 9.5t25 9.5t18.5 4.5q9 0 13.5 -5.5t4.5 -20.5q0 -13 -2.5 -28.5t-7 -30.5t-10 -27t-11.5 -19
q-8 -7 -24.5 -14t-38 -12.5t-45 -8.5t-45.5 -3q-55 0 -97 12t-69.5 37.5t-41 64t-13.5 92.5q0 12 1 26.5t3.5 30.5l5 32t5.5 30l101 506h-396l-171 -852q-17 -84 -46 -145.5t-71 -102t-97 -60t-124 -19.5q-45 0 -73.5 7t-35.5 13q-4 5 -6 11t-2 16q0 4 1.5 13.5t3.5 20t5 22
t7 21.5t9 16t12 6t13.5 -1.5t14 -3t18 -3t26.5 -1.5q42 0 72.5 13t52 40.5t36 69.5t26.5 101l164 818h-128q-10 0 -15.5 6.5t-5.5 24.5q0 8 1 19.5t3.5 23.5t6.5 23t10 20t12.5 14.5t16.5 5.5h126l25 125q16 82 46 143.5t72.5 101.5t98 59.5t122.5 19.5q22 0 44.5 -2.5
t41.5 -6.5t34 -9.5t21 -11.5q5 -5 8 -14t3 -19q0 -4 -1 -12.5t-3 -19.5t-4.5 -22.5t-6.5 -21t-9 -16t-11 -6.5q-7 0 -16 4t-22.5 8.5t-31 8t-41.5 3.5q-42 0 -72.5 -13t-52.5 -40.5t-36.5 -69.5t-26.5 -99l-16 -90h396l43 214q1 7 6.5 13t15.5 10.5t26.5 6.5t40.5 2t39.5 -2
t24 -6.5t11.5 -10.5t1 -13l-43 -214h230q15 0 20 -11t5 -25z" />
    <glyph glyph-name="f_uni021B.liga" unicode="f&#x21b;" horiz-adv-x="1252" 
d="M1275 915q0 -9 -1.5 -19.5t-4 -21.5t-7.5 -22t-10.5 -19.5t-12.5 -13.5t-16 -5h-230l-101 -502q-4 -21 -7 -47t-3 -43q0 -51 21 -74.5t71 -23.5q27 0 46.5 4.5t34 9.5t25 9.5t18.5 4.5q9 0 13.5 -5.5t4.5 -20.5q0 -13 -2.5 -28.5t-7 -30.5t-10 -27t-11.5 -19
q-8 -7 -24.5 -14t-38 -12.5t-45 -8.5t-45.5 -3q-55 0 -97 12t-69.5 37.5t-41 64t-13.5 92.5q0 12 1 26.5t3.5 30.5l5 32t5.5 30l101 506h-396l-171 -852q-17 -84 -46 -145.5t-71 -102t-97 -60t-124 -19.5q-45 0 -73.5 7t-35.5 13q-4 5 -6 11t-2 16q0 4 1.5 13.5t3.5 20t5 22
t7 21.5t9 16t12 6t13.5 -1.5t14 -3t18 -3t26.5 -1.5q42 0 72.5 13t52 40.5t36 69.5t26.5 101l164 818h-128q-10 0 -15.5 6.5t-5.5 24.5q0 8 1 19.5t3.5 23.5t6.5 23t10 20t12.5 14.5t16.5 5.5h126l25 125q16 82 46 143.5t72.5 101.5t98 59.5t122.5 19.5q22 0 44.5 -2.5
t41.5 -6.5t34 -9.5t21 -11.5q5 -5 8 -14t3 -19q0 -4 -1 -12.5t-3 -19.5t-4.5 -22.5t-6.5 -21t-9 -16t-11 -6.5q-7 0 -16 4t-22.5 8.5t-31 8t-41.5 3.5q-42 0 -72.5 -13t-52.5 -40.5t-36.5 -69.5t-26.5 -99l-16 -90h396l43 214q1 7 6.5 13t15.5 10.5t26.5 6.5t40.5 2t39.5 -2
t24 -6.5t11.5 -10.5t1 -13l-43 -214h230q15 0 20 -11t5 -25zM784 -334q-7 -10 -13.5 -16t-16.5 -9t-24 -4.5t-35 -1.5q-20 0 -31 2.5t-15 7.5t-2 13t7 19l98 202q5 11 12 18.5t19 11.5t29.5 6t44.5 2q26 0 40.5 -3.5t20 -10t3.5 -15t-9 -19.5z" />
    <glyph glyph-name="f_tcaron.liga" unicode="f&#x165;" horiz-adv-x="1290" 
d="M1275 915q0 -9 -1.5 -19.5t-4 -21.5t-7.5 -22t-10.5 -19.5t-12.5 -13.5t-16 -5h-230l-101 -502q-4 -21 -7 -47t-3 -43q0 -51 21 -74.5t71 -23.5q27 0 46.5 4.5t34 9.5t25 9.5t18.5 4.5q9 0 13.5 -5.5t4.5 -20.5q0 -13 -2.5 -28.5t-7 -30.5t-10 -27t-11.5 -19
q-8 -7 -24.5 -14t-38 -12.5t-45 -8.5t-45.5 -3q-55 0 -97 12t-69.5 37.5t-41 64t-13.5 92.5q0 12 1 26.5t3.5 30.5l5 32t5.5 30l101 506h-396l-171 -852q-17 -84 -46 -145.5t-71 -102t-97 -60t-124 -19.5q-45 0 -73.5 7t-35.5 13q-4 5 -6 11t-2 16q0 4 1.5 13.5t3.5 20t5 22
t7 21.5t9 16t12 6t13.5 -1.5t14 -3t18 -3t26.5 -1.5q42 0 72.5 13t52 40.5t36 69.5t26.5 101l164 818h-128q-10 0 -15.5 6.5t-5.5 24.5q0 8 1 19.5t3.5 23.5t6.5 23t10 20t12.5 14.5t16.5 5.5h126l25 125q16 82 46 143.5t72.5 101.5t98 59.5t122.5 19.5q22 0 44.5 -2.5
t41.5 -6.5t34 -9.5t21 -11.5q5 -5 8 -14t3 -19q0 -4 -1 -12.5t-3 -19.5t-4.5 -22.5t-6.5 -21t-9 -16t-11 -6.5q-7 0 -16 4t-22.5 8.5t-31 8t-41.5 3.5q-42 0 -72.5 -13t-52.5 -40.5t-36.5 -69.5t-26.5 -99l-16 -90h396l43 214q1 7 6.5 13t15.5 10.5t26.5 6.5t40.5 2t39.5 -2
t24 -6.5t11.5 -10.5t1 -13l-43 -214h230q15 0 20 -11t5 -25zM1293 1126q-4 -7 -9.5 -11.5t-14.5 -7t-22.5 -3.5t-34.5 -1q-14 0 -22.5 2t-12.5 6t-4.5 9.5t2.5 13.5l128 305q4 10 10.5 17t17.5 11t27 6t40 2q22 0 35.5 -2t19 -6.5t4.5 -11.5t-5 -17zM919 1075z" />
    <glyph glyph-name="f_f_t.liga" unicode="fft" horiz-adv-x="1823" 
d="M1845 915q0 -9 -1.5 -19.5t-4.5 -21.5t-7 -22t-9.5 -19.5t-13 -13.5t-15.5 -5h-232l-99 -502q-5 -21 -7.5 -47t-2.5 -43q0 -51 21 -74.5t70 -23.5q27 0 46.5 4.5t34 9.5t25 9.5t19.5 4.5q8 0 12.5 -5.5t4.5 -20.5q0 -13 -2.5 -28.5t-6.5 -30.5t-9.5 -27t-12.5 -19
q-8 -7 -24 -14t-37.5 -12.5t-45 -8.5t-45.5 -3q-56 0 -97.5 12t-69 37.5t-41.5 64t-14 92.5q0 12 1 26.5t3.5 30.5l5 32t5.5 30l102 506h-397l-164 -817q-18 -91 -47.5 -157.5t-72 -109.5t-99 -63t-127.5 -20q-51 0 -87.5 7.5t-48.5 20.5q-9 8 -9 27q0 5 1 14.5t3 20.5
t5 22.5t7.5 21t10 15.5t12.5 6t16.5 -2.5t22 -6t28.5 -6.5t36 -3q41 0 71 13t51.5 39t36.5 67t26 97l163 814h-405l-171 -852q-17 -84 -46 -145.5t-71 -102t-97 -60t-124 -19.5q-45 0 -73.5 7t-35.5 13q-4 5 -6 11t-2 16q0 4 1.5 13.5t3.5 20t5 22t7 21.5t9 16t12 6
t13.5 -1.5t14 -3t18 -3t26.5 -1.5q42 0 72.5 13t52 40.5t36 69.5t26.5 101l164 818h-128q-10 0 -15.5 6.5t-5.5 24.5q0 8 1 19.5t3.5 23.5t6.5 23t10 20t12.5 14.5t16.5 5.5h126l23 112q17 83 46.5 144t72 101.5t98 60.5t123.5 20q22 0 45.5 -2.5t44 -7t36.5 -10.5t22 -12
q5 -5 8 -14t3 -19q0 -4 -1 -12.5t-2.5 -19t-4.5 -22.5t-7 -21.5t-9 -15.5t-11 -6q-7 0 -17.5 4t-24.5 8.5t-33 8.5t-41 4q-44 0 -74.5 -13t-52 -40.5t-37 -69.5t-26.5 -99l-15 -79h405l24 123q17 83 46.5 144.5t71.5 102t97 60.5t124 20q21 0 43.5 -2.5t42 -6t34.5 -9
t20 -11.5q6 -5 9 -14t3 -19q0 -4 -1 -12.5t-3 -19t-4.5 -22t-6.5 -21t-9 -16t-11 -6.5q-8 0 -17.5 3.5t-22.5 7.5t-30 7.5t-39 3.5q-44 0 -74.5 -13.5t-52 -41t-36 -69.5t-26.5 -99l-17 -90h396l43 214q2 7 6.5 13t15 10.5t27 6.5t41.5 2q24 0 39.5 -2t24 -6.5t11 -10.5
t0.5 -13l-42 -214h230q15 0 19.5 -11t4.5 -25z" />
    <glyph glyph-name="t_f.liga" unicode="tf" horiz-adv-x="1254" 
d="M1447 1335q0 -4 -1 -12.5t-3 -19t-4.5 -22t-6.5 -21.5t-9.5 -16t-11.5 -6t-16.5 4t-25 8.5t-33 8.5t-41.5 4q-44 0 -74.5 -13t-52 -40.5t-36.5 -69.5t-27 -99l-17 -90h201q12 0 18.5 -7.5t6.5 -24.5q0 -11 -1.5 -23t-5 -23.5t-8 -22t-10.5 -18.5t-13 -13t-14 -5h-201
l-167 -829q-18 -92 -48 -158t-72.5 -108.5t-98.5 -63t-127 -20.5q-50 0 -87 7.5t-49 20.5q-9 9 -9 28q0 7 2.5 23t7 33t11.5 30t18 13q7 0 16.5 -2.5t22 -6t28.5 -6.5t36 -3q41 0 71 13t51.5 39t36.5 66.5t26 96.5l165 827h-468l-101 -502q-4 -21 -7 -47t-3 -43
q0 -51 21.5 -74.5t69.5 -23.5q27 0 47 4.5t34.5 9.5t25.5 9.5t19 4.5t12.5 -5.5t4.5 -20.5q0 -13 -2.5 -28.5t-6.5 -30.5t-10 -27t-13 -19q-8 -7 -24 -14t-37 -12.5t-44.5 -8.5t-46.5 -3q-56 0 -97 12t-69 37.5t-41.5 64t-13.5 92.5q0 12 1 26.5t3.5 30.5l5 32t5.5 30
l101 506h-125q-11 0 -17 6.5t-6 25.5q0 14 3 32.5t9 34.5t15.5 27t22.5 11h126l43 214q1 7 6.5 13t15.5 10.5t26.5 6.5t40.5 2t39.5 -2t24 -6.5t11 -10.5t1.5 -13l-43 -214h469l25 123q17 83 46.5 144.5t71.5 102t97.5 60t124.5 19.5q21 0 44.5 -2.5t44.5 -7t36.5 -10.5
t21.5 -12q6 -5 9 -14t3 -19z" />
    <glyph glyph-name="t_i.liga" unicode="ti" horiz-adv-x="1141" 
d="M900 25q-2 -8 -7 -13.5t-15 -9.5t-26.5 -6t-40.5 -2t-40 2t-24.5 6t-11.5 9.5t-1 13.5l158 789h-465l-101 -502q-4 -21 -7 -47t-3 -43q0 -51 21.5 -74.5t69.5 -23.5q27 0 47 4.5t34.5 9.5t25.5 9.5t19 4.5t12.5 -5.5t4.5 -20.5q0 -13 -2.5 -28.5t-6.5 -30.5t-10 -27
t-13 -19q-8 -7 -24 -14t-37 -12.5t-44.5 -8.5t-46.5 -3q-56 0 -97 12t-69 37.5t-41.5 64t-13.5 92.5q0 12 1 26.5t3.5 30.5l5 32t5.5 30l101 506h-125q-11 0 -17 6.5t-6 25.5q0 14 3 32.5t9 34.5t15.5 27t22.5 11h126l43 214q1 7 6.5 13t15.5 10.5t26.5 6.5t40.5 2t40 -2
t24.5 -6.5t11 -10.5t0.5 -13l-43 -214h579q30 0 38.5 -13.5t2.5 -39.5zM1158 1228q-5 -28 -13.5 -47t-22.5 -30.5t-34.5 -16.5t-50.5 -5t-48.5 5t-27 16.5t-9.5 30.5t4 47t13.5 46.5t23 31t34.5 17t50 4.5t48.5 -4.5t27.5 -17t10 -31t-5 -46.5z" />
    <glyph glyph-name="t_igrave.liga" unicode="t&#xec;" horiz-adv-x="1141" 
d="M900 25q-2 -8 -7 -13.5t-15 -9.5t-26.5 -6t-40.5 -2t-40 2t-24.5 6t-11.5 9.5t-1 13.5l158 789h-465l-101 -502q-4 -21 -7 -47t-3 -43q0 -51 21.5 -74.5t69.5 -23.5q27 0 47 4.5t34.5 9.5t25.5 9.5t19 4.5t12.5 -5.5t4.5 -20.5q0 -13 -2.5 -28.5t-6.5 -30.5t-10 -27
t-13 -19q-8 -7 -24 -14t-37 -12.5t-44.5 -8.5t-46.5 -3q-56 0 -97 12t-69 37.5t-41.5 64t-13.5 92.5q0 12 1 26.5t3.5 30.5l5 32t5.5 30l101 506h-125q-11 0 -17 6.5t-6 25.5q0 14 3 32.5t9 34.5t15.5 27t22.5 11h126l43 214q1 7 6.5 13t15.5 10.5t26.5 6.5t40.5 2t40 -2
t24.5 -6.5t11 -10.5t0.5 -13l-43 -214h579q30 0 38.5 -13.5t2.5 -39.5zM1092 1134q7 -11 8.5 -19t-4 -13t-19 -8t-35.5 -3q-20 0 -33 1t-22 4.5t-16 10t-14 16.5l-171 233q-7 9 -7.5 17.5t7 15t25 10t46.5 3.5q24 0 40 -1.5t27 -5.5t18.5 -11.5t14.5 -18.5zM485 951z" />
    <glyph glyph-name="t_iacute.liga" unicode="t&#xed;" horiz-adv-x="1141" 
d="M900 25q-2 -8 -7 -13.5t-15 -9.5t-26.5 -6t-40.5 -2t-40 2t-24.5 6t-11.5 9.5t-1 13.5l158 789h-465l-101 -502q-4 -21 -7 -47t-3 -43q0 -51 21.5 -74.5t69.5 -23.5q27 0 47 4.5t34.5 9.5t25.5 9.5t19 4.5t12.5 -5.5t4.5 -20.5q0 -13 -2.5 -28.5t-6.5 -30.5t-10 -27
t-13 -19q-8 -7 -24 -14t-37 -12.5t-44.5 -8.5t-46.5 -3q-56 0 -97 12t-69 37.5t-41.5 64t-13.5 92.5q0 12 1 26.5t3.5 30.5l5 32t5.5 30l101 506h-125q-11 0 -17 6.5t-6 25.5q0 14 3 32.5t9 34.5t15.5 27t22.5 11h126l43 214q1 7 6.5 13t15.5 10.5t26.5 6.5t40.5 2t40 -2
t24.5 -6.5t11 -10.5t0.5 -13l-43 -214h579q30 0 38.5 -13.5t2.5 -39.5zM1094 1123q-7 -10 -13.5 -16t-16 -9.5t-22.5 -5t-33 -1.5q-22 0 -35 3t-18 8t-3 13t9 19l154 231q7 11 15.5 18t20 11t28.5 6t42 2q28 0 44.5 -3.5t23 -10t5 -15t-9.5 -17.5zM669 951z" />
    <glyph glyph-name="t_icircumflex.liga" unicode="t&#xee;" horiz-adv-x="1141" 
d="M900 25q-2 -8 -7 -13.5t-15 -9.5t-26.5 -6t-40.5 -2t-40 2t-24.5 6t-11.5 9.5t-1 13.5l158 789h-465l-101 -502q-4 -21 -7 -47t-3 -43q0 -51 21.5 -74.5t69.5 -23.5q27 0 47 4.5t34.5 9.5t25.5 9.5t19 4.5t12.5 -5.5t4.5 -20.5q0 -13 -2.5 -28.5t-6.5 -30.5t-10 -27
t-13 -19q-8 -7 -24 -14t-37 -12.5t-44.5 -8.5t-46.5 -3q-56 0 -97 12t-69 37.5t-41.5 64t-13.5 92.5q0 12 1 26.5t3.5 30.5l5 32t5.5 30l101 506h-125q-11 0 -17 6.5t-6 25.5q0 14 3 32.5t9 34.5t15.5 27t22.5 11h126l43 214q1 7 6.5 13t15.5 10.5t26.5 6.5t40.5 2t40 -2
t24.5 -6.5t11 -10.5t0.5 -13l-43 -214h579q30 0 38.5 -13.5t2.5 -39.5zM1284 1147q8 -15 10.5 -25.5t-2.5 -17t-20 -10t-41 -3.5q-21 0 -33 1.5t-19.5 4.5t-12 9t-8.5 15l-94 180l-166 -180q-8 -10 -15 -15.5t-16.5 -8.5t-22.5 -4.5t-32 -1.5q-27 0 -41.5 3.5t-18.5 10t2 17
t20 25.5l210 229q7 8 15 12.5t19 7.5t26.5 4.5t37.5 1.5q21 0 34.5 -1.5t23 -5t15.5 -8t11 -11.5zM488 951z" />
    <glyph glyph-name="t_idieresis.liga" unicode="t&#xef;" horiz-adv-x="1141" 
d="M900 25q-2 -8 -7 -13.5t-15 -9.5t-26.5 -6t-40.5 -2t-40 2t-24.5 6t-11.5 9.5t-1 13.5l158 789h-465l-101 -502q-4 -21 -7 -47t-3 -43q0 -51 21.5 -74.5t69.5 -23.5q27 0 47 4.5t34.5 9.5t25.5 9.5t19 4.5t12.5 -5.5t4.5 -20.5q0 -13 -2.5 -28.5t-6.5 -30.5t-10 -27
t-13 -19q-8 -7 -24 -14t-37 -12.5t-44.5 -8.5t-46.5 -3q-56 0 -97 12t-69 37.5t-41.5 64t-13.5 92.5q0 12 1 26.5t3.5 30.5l5 32t5.5 30l101 506h-125q-11 0 -17 6.5t-6 25.5q0 14 3 32.5t9 34.5t15.5 27t22.5 11h126l43 214q1 7 6.5 13t15.5 10.5t26.5 6.5t40.5 2t40 -2
t24.5 -6.5t11 -10.5t0.5 -13l-43 -214h579q30 0 38.5 -13.5t2.5 -39.5zM803 1216q5 27 13 45t21.5 29t32 15.5t43.5 4.5q26 0 42 -4.5t24 -15.5t9 -29t-4 -45t-13.5 -45.5t-21 -29t-31 -15t-43.5 -4.5q-26 0 -42.5 4.5t-24.5 15t-9 29t4 45.5zM1113 1216q5 27 13.5 45
t21.5 29t32 15.5t44 4.5q26 0 42 -4.5t24 -15.5t9 -29t-4 -45q-6 -27 -14 -45.5t-21 -29t-31 -15t-43 -4.5q-26 0 -42.5 4.5t-25 15t-9.5 29t4 45.5zM521 951z" />
    <glyph glyph-name="t_imacron.liga" unicode="t&#x12b;" horiz-adv-x="1141" 
d="M900 25q-2 -8 -7 -13.5t-15 -9.5t-26.5 -6t-40.5 -2t-40 2t-24.5 6t-11.5 9.5t-1 13.5l158 789h-465l-101 -502q-4 -21 -7 -47t-3 -43q0 -51 21.5 -74.5t69.5 -23.5q27 0 47 4.5t34.5 9.5t25.5 9.5t19 4.5t12.5 -5.5t4.5 -20.5q0 -13 -2.5 -28.5t-6.5 -30.5t-10 -27
t-13 -19q-8 -7 -24 -14t-37 -12.5t-44.5 -8.5t-46.5 -3q-56 0 -97 12t-69 37.5t-41.5 64t-13.5 92.5q0 12 1 26.5t3.5 30.5l5 32t5.5 30l101 506h-125q-11 0 -17 6.5t-6 25.5q0 14 3 32.5t9 34.5t15.5 27t22.5 11h126l43 214q1 7 6.5 13t15.5 10.5t26.5 6.5t40.5 2t40 -2
t24.5 -6.5t11 -10.5t0.5 -13l-43 -214h579q30 0 38.5 -13.5t2.5 -39.5zM1325 1262q0 -6 -1 -15t-3.5 -19.5t-6 -22t-8.5 -20.5t-12 -15t-16 -6h-479q-13 0 -19.5 7.5t-6.5 24.5q0 7 2 23.5t8 32.5t15.5 28.5t26.5 12.5h479q12 0 16.5 -8.5t4.5 -22.5zM493 951z" />
    <glyph glyph-name="t_itilde.liga" unicode="t&#x129;" horiz-adv-x="1141" 
d="M900 25q-2 -8 -7 -13.5t-15 -9.5t-26.5 -6t-40.5 -2t-40 2t-24.5 6t-11.5 9.5t-1 13.5l158 789h-465l-101 -502q-4 -21 -7 -47t-3 -43q0 -51 21.5 -74.5t69.5 -23.5q27 0 47 4.5t34.5 9.5t25.5 9.5t19 4.5t12.5 -5.5t4.5 -20.5q0 -13 -2.5 -28.5t-6.5 -30.5t-10 -27
t-13 -19q-8 -7 -24 -14t-37 -12.5t-44.5 -8.5t-46.5 -3q-56 0 -97 12t-69 37.5t-41.5 64t-13.5 92.5q0 12 1 26.5t3.5 30.5l5 32t5.5 30l101 506h-125q-11 0 -17 6.5t-6 25.5q0 14 3 32.5t9 34.5t15.5 27t22.5 11h126l43 214q1 7 6.5 13t15.5 10.5t26.5 6.5t40.5 2t40 -2
t24.5 -6.5t11 -10.5t0.5 -13l-43 -214h579q30 0 38.5 -13.5t2.5 -39.5zM1377 1327q0 -6 -2 -24.5t-9 -44.5t-20.5 -54.5t-37 -52.5t-58.5 -39.5t-84 -15.5q-37 0 -65.5 9.5t-51.5 24.5t-42.5 32t-38 32t-37 24.5t-40.5 9.5q-40 0 -59 -29t-25 -77q-1 -7 -4 -12.5t-10 -8.5
t-19 -4t-32 -1q-17 0 -27 1.5t-15 5t-7 9t-2 13.5q0 6 1.5 25t8.5 45t21 54t37 51.5t57.5 39t83.5 15.5q37 0 65.5 -9.5t52 -24.5t43 -32t37.5 -32t36.5 -24.5t40.5 -9.5q35 0 57 26.5t28 78.5q1 16 13.5 21.5t46.5 5.5q37 0 47 -6.5t10 -21.5zM421 951z" />
    <glyph glyph-name="t_ibreve.liga" unicode="t&#x12d;" horiz-adv-x="1141" 
d="M900 25q-2 -8 -7 -13.5t-15 -9.5t-26.5 -6t-40.5 -2t-40 2t-24.5 6t-11.5 9.5t-1 13.5l158 789h-465l-101 -502q-4 -21 -7 -47t-3 -43q0 -51 21.5 -74.5t69.5 -23.5q27 0 47 4.5t34.5 9.5t25.5 9.5t19 4.5t12.5 -5.5t4.5 -20.5q0 -13 -2.5 -28.5t-6.5 -30.5t-10 -27
t-13 -19q-8 -7 -24 -14t-37 -12.5t-44.5 -8.5t-46.5 -3q-56 0 -97 12t-69 37.5t-41.5 64t-13.5 92.5q0 12 1 26.5t3.5 30.5l5 32t5.5 30l101 506h-125q-11 0 -17 6.5t-6 25.5q0 14 3 32.5t9 34.5t15.5 27t22.5 11h126l43 214q1 7 6.5 13t15.5 10.5t26.5 6.5t40.5 2t40 -2
t24.5 -6.5t11 -10.5t0.5 -13l-43 -214h579q30 0 38.5 -13.5t2.5 -39.5zM1336 1374q0 -11 -4.5 -36t-17 -56t-33.5 -64t-54.5 -60.5t-81.5 -44.5t-112 -17q-66 0 -108.5 15t-68 41.5t-36 61.5t-10.5 73q0 10 1 24.5t3.5 29t5.5 26.5t8 15q7 8 21 10.5t33 2.5q18 0 28.5 -1.5
t17 -4t8.5 -7t2 -10.5q0 -11 -1.5 -24.5t-1.5 -28.5q0 -23 5 -42.5t17.5 -33.5t33 -22t51.5 -8q30 0 57 8.5t49.5 27t40 47t27.5 69.5q2 8 6 13.5t11 9t19 5.5t30 2t28.5 -1.5t16.5 -4t7.5 -6.5t1.5 -9zM507 951z" />
    <glyph glyph-name="t_iogonek.liga" unicode="t&#x12f;" horiz-adv-x="1141" 
d="M1030 951q32 0 40.5 -14.5t3.5 -39.5l-174 -872q-5 -21 -15 -38t-25 -30l-75 -62q-38 -32 -54 -53.5t-16 -43.5q0 -18 13 -29.5t45 -11.5h111q13 0 17.5 -5t4.5 -15q0 -6 -1.5 -16.5t-4 -21.5t-6.5 -20.5t-8 -13.5q-7 -6 -23 -11t-36.5 -9.5t-44.5 -7t-45 -2.5
q-95 0 -141 32.5t-46 95.5q0 19 4.5 39t17 42.5t34.5 47t56 52.5l68 58l162 812h-465l-101 -502q-4 -21 -7 -47t-3 -43q0 -51 21.5 -74.5t69.5 -23.5q27 0 47 4.5t34.5 9.5t25.5 9.5t19 4.5t12.5 -5.5t4.5 -20.5q0 -13 -2.5 -28.5t-6.5 -30.5t-10 -27t-13 -19q-8 -7 -24 -14
t-37 -12.5t-44.5 -8.5t-46.5 -3q-56 0 -97 12t-69 37.5t-41.5 64t-13.5 92.5q0 12 1 26.5t3.5 30.5l5 32t5.5 30l101 506h-125q-11 0 -17 6.5t-6 25.5q0 14 3 32.5t9 34.5t15.5 27t22.5 11h126l43 214q1 7 6.5 13t15.5 10.5t26.5 6.5t40.5 2t39.5 -2t24 -6.5t11 -10.5
t1.5 -13l-43 -214h576zM1159 1228q-6 -28 -14 -47t-22.5 -30.5t-35 -16.5t-50.5 -5t-48.5 5t-27 16.5t-9.5 30.5t4 47q6 28 14 46.5t22.5 31t34.5 17t50 4.5t48.5 -4.5t27.5 -17t10 -31t-4 -46.5z" />
    <glyph glyph-name="t_dotlessi.liga" unicode="t&#x131;" horiz-adv-x="1141" 
d="M900 25q-2 -8 -7 -13.5t-15 -9.5t-26.5 -6t-40.5 -2t-40 2t-24.5 6t-11.5 9.5t-1 13.5l158 789h-465l-101 -502q-4 -21 -7 -47t-3 -43q0 -51 21.5 -74.5t69.5 -23.5q27 0 47 4.5t34.5 9.5t25.5 9.5t19 4.5t12.5 -5.5t4.5 -20.5q0 -13 -2.5 -28.5t-6.5 -30.5t-10 -27
t-13 -19q-8 -7 -24 -14t-37 -12.5t-44.5 -8.5t-46.5 -3q-56 0 -97 12t-69 37.5t-41.5 64t-13.5 92.5q0 12 1 26.5t3.5 30.5l5 32t5.5 30l101 506h-125q-11 0 -17 6.5t-6 25.5q0 14 3 32.5t9 34.5t15.5 27t22.5 11h126l43 214q1 7 6.5 13t15.5 10.5t26.5 6.5t40.5 2t40 -2
t24.5 -6.5t11 -10.5t0.5 -13l-43 -214h579q30 0 38.5 -13.5t2.5 -39.5z" />
    <glyph glyph-name="t_t.liga" unicode="tt" horiz-adv-x="1299" 
d="M1321 915q0 -9 -1.5 -19.5t-4.5 -21.5t-7 -22t-10 -19.5t-12.5 -13.5t-15.5 -5h-231l-100 -502q-5 -21 -7.5 -47t-2.5 -43q0 -51 21 -74.5t70 -23.5q27 0 46.5 4.5t34 9.5t25 9.5t19.5 4.5q8 0 12.5 -5.5t4.5 -20.5q0 -13 -2.5 -28.5t-6.5 -30.5t-9.5 -27t-12.5 -19
q-8 -7 -24 -14t-37.5 -12.5t-45 -8.5t-45.5 -3q-56 0 -98 12t-69.5 37.5t-41 64t-13.5 92.5q0 12 1.5 26.5t3.5 30.5t4.5 32t5.5 30l102 506h-447l-101 -502q-4 -21 -7 -47t-3 -43q0 -51 21.5 -74.5t69.5 -23.5q27 0 47 4.5t34.5 9.5t25.5 9.5t19 4.5t12.5 -5.5t4.5 -20.5
q0 -13 -2.5 -28.5t-6.5 -30.5t-10 -27t-13 -19q-8 -7 -24 -14t-37 -12.5t-44.5 -8.5t-46.5 -3q-56 0 -97 12t-69 37.5t-41.5 64t-13.5 92.5q0 12 1 26.5t3.5 30.5l5 32t5.5 30l101 506h-125q-11 0 -17 6.5t-6 25.5q0 14 3 32.5t9 34.5t15.5 27t22.5 11h126l43 214
q1 7 6.5 13t15.5 10.5t26.5 6.5t40.5 2t39.5 -2t24 -6.5t11 -10.5t1.5 -13l-43 -214h447l51 257q2 8 7 14t15.5 9.5t26.5 6t41 2.5q23 0 38.5 -2.5t24.5 -6t11.5 -9.5t1.5 -14l-51 -257h230q15 0 19.5 -11t4.5 -25z" />
    <glyph glyph-name="t_t_f.liga" unicode="ttf" horiz-adv-x="1867" 
d="M2059 1335q0 -4 -1 -12.5t-2.5 -19t-4.5 -22t-7 -21.5t-9 -16t-12 -6t-17 4t-24 8.5t-33 8.5t-42 4q-43 0 -73.5 -13t-52.5 -40.5t-37 -69.5t-26 -99l-17 -90h201q11 0 17.5 -7.5t6.5 -24.5q0 -11 -2 -23t-5 -23.5t-7.5 -22t-10 -18.5t-12.5 -13t-14 -5h-202l-166 -829
q-18 -92 -48 -158t-72.5 -108.5t-98.5 -63t-127 -20.5q-51 0 -87.5 7.5t-49.5 20.5q-9 7 -9 28q0 7 2 23t7 33t12.5 30t17.5 13q7 0 16.5 -2.5t22.5 -6t29 -6.5t35 -3q42 0 72 13t51.5 39t36.5 66.5t25 96.5l166 827h-469l-100 -502q-5 -21 -7.5 -47t-2.5 -43
q0 -51 21 -74.5t70 -23.5q27 0 46.5 4.5t34 9.5t25 9.5t19.5 4.5q8 0 12.5 -5.5t4.5 -20.5q0 -13 -2.5 -28.5t-6.5 -30.5t-9.5 -27t-12.5 -19q-8 -7 -24 -14t-37.5 -12.5t-45 -8.5t-45.5 -3q-56 0 -98 12t-69.5 37.5t-41 64t-13.5 92.5q0 12 1.5 26.5t3.5 30.5t4.5 32
t5.5 30l102 506h-447l-101 -502q-4 -21 -7 -47t-3 -43q0 -51 21.5 -74.5t69.5 -23.5q27 0 47 4.5t34.5 9.5t25.5 9.5t19 4.5t12.5 -5.5t4.5 -20.5q0 -13 -2.5 -28.5t-6.5 -30.5t-10 -27t-13 -19q-8 -7 -24 -14t-37 -12.5t-44.5 -8.5t-46.5 -3q-56 0 -97 12t-69 37.5
t-41.5 64t-13.5 92.5q0 12 1 26.5t3.5 30.5l5 32t5.5 30l101 506h-125q-11 0 -17 6.5t-6 25.5q0 14 3 32.5t9 34.5t15.5 27t22.5 11h126l43 214q1 7 6.5 13t15.5 10.5t26.5 6.5t40.5 2t39.5 -2t24 -6.5t11 -10.5t1.5 -13l-43 -214h447l51 257q2 8 7 14t15.5 9.5t26.5 6
t41 2.5q23 0 38.5 -2.5t24.5 -6t11.5 -9.5t1.5 -14l-51 -257h468l25 123q16 83 46 144.5t72.5 102t98 60t122.5 19.5q22 0 45.5 -2.5t44.5 -7t36.5 -10.5t21.5 -12q6 -5 9 -14t3 -19z" />
    <glyph glyph-name="t_t_i.liga" unicode="tti" horiz-adv-x="1753" 
d="M1513 25q-3 -8 -7.5 -13.5t-15 -9.5t-27 -6t-40.5 -2t-39.5 2t-24.5 6t-11.5 9.5t-0.5 13.5l158 789h-466l-100 -502q-5 -21 -7.5 -47t-2.5 -43q0 -51 21 -74.5t70 -23.5q27 0 46.5 4.5t34 9.5t25 9.5t19.5 4.5q8 0 12.5 -5.5t4.5 -20.5q0 -13 -2.5 -28.5t-6.5 -30.5
t-9.5 -27t-12.5 -19q-8 -7 -24 -14t-37.5 -12.5t-45 -8.5t-45.5 -3q-56 0 -98 12t-69.5 37.5t-41 64t-13.5 92.5q0 12 1.5 26.5t3.5 30.5t4.5 32t5.5 30l102 506h-447l-101 -502q-4 -21 -7 -47t-3 -43q0 -51 21.5 -74.5t69.5 -23.5q27 0 47 4.5t34.5 9.5t25.5 9.5t19 4.5
t12.5 -5.5t4.5 -20.5q0 -13 -2.5 -28.5t-6.5 -30.5t-10 -27t-13 -19q-8 -7 -24 -14t-37 -12.5t-44.5 -8.5t-46.5 -3q-56 0 -97 12t-69 37.5t-41.5 64t-13.5 92.5q0 12 1 26.5t3.5 30.5l5 32t5.5 30l101 506h-125q-11 0 -17 6.5t-6 25.5q0 14 3 32.5t9 34.5t15.5 27t22.5 11
h126l43 214q1 7 6.5 13t15.5 10.5t26.5 6.5t40.5 2t39.5 -2t24 -6.5t11 -10.5t1.5 -13l-43 -214h447l51 257q2 8 7 14t15.5 9.5t26.5 6t41 2.5q23 0 38.5 -2.5t24.5 -6t11.5 -9.5t1.5 -14l-51 -257h579q29 0 37.5 -13.5t3.5 -39.5zM1771 1228q-5 -28 -13.5 -47t-22.5 -30.5
t-34.5 -16.5t-50.5 -5t-49 5t-28 16.5t-10 30.5t4 47q6 28 15 46.5t22.5 31t34.5 17t51 4.5q29 0 47.5 -4.5t28 -17t10.5 -31t-5 -46.5z" />
    <glyph glyph-name="t_t_igrave.liga" unicode="tt&#xec;" horiz-adv-x="1753" 
d="M1513 25q-3 -8 -7.5 -13.5t-15 -9.5t-27 -6t-40.5 -2t-39.5 2t-24.5 6t-11.5 9.5t-0.5 13.5l158 789h-466l-100 -502q-5 -21 -7.5 -47t-2.5 -43q0 -51 21 -74.5t70 -23.5q27 0 46.5 4.5t34 9.5t25 9.5t19.5 4.5q8 0 12.5 -5.5t4.5 -20.5q0 -13 -2.5 -28.5t-6.5 -30.5
t-9.5 -27t-12.5 -19q-8 -7 -24 -14t-37.5 -12.5t-45 -8.5t-45.5 -3q-56 0 -98 12t-69.5 37.5t-41 64t-13.5 92.5q0 12 1.5 26.5t3.5 30.5t4.5 32t5.5 30l102 506h-447l-101 -502q-4 -21 -7 -47t-3 -43q0 -51 21.5 -74.5t69.5 -23.5q27 0 47 4.5t34.5 9.5t25.5 9.5t19 4.5
t12.5 -5.5t4.5 -20.5q0 -13 -2.5 -28.5t-6.5 -30.5t-10 -27t-13 -19q-8 -7 -24 -14t-37 -12.5t-44.5 -8.5t-46.5 -3q-56 0 -97 12t-69 37.5t-41.5 64t-13.5 92.5q0 12 1 26.5t3.5 30.5l5 32t5.5 30l101 506h-125q-11 0 -17 6.5t-6 25.5q0 14 3 32.5t9 34.5t15.5 27t22.5 11
h126l43 214q1 7 6.5 13t15.5 10.5t26.5 6.5t40.5 2t39.5 -2t24 -6.5t11 -10.5t1.5 -13l-43 -214h447l51 257q2 8 7 14t15.5 9.5t26.5 6t41 2.5q23 0 38.5 -2.5t24.5 -6t11.5 -9.5t1.5 -14l-51 -257h579q29 0 37.5 -13.5t3.5 -39.5zM1708 1134q7 -11 8.5 -19t-4 -13t-19 -8
t-35.5 -3q-20 0 -33 1t-22 4.5t-16 10t-14 16.5l-171 233q-7 9 -7.5 17.5t7 15t25 10t46.5 3.5q24 0 40 -1.5t27 -5.5t18.5 -11.5t14.5 -18.5zM1101 951z" />
    <glyph glyph-name="t_t_iacute.liga" unicode="tt&#xed;" horiz-adv-x="1753" 
d="M1513 25q-3 -8 -7.5 -13.5t-15 -9.5t-27 -6t-40.5 -2t-39.5 2t-24.5 6t-11.5 9.5t-0.5 13.5l158 789h-466l-100 -502q-5 -21 -7.5 -47t-2.5 -43q0 -51 21 -74.5t70 -23.5q27 0 46.5 4.5t34 9.5t25 9.5t19.5 4.5q8 0 12.5 -5.5t4.5 -20.5q0 -13 -2.5 -28.5t-6.5 -30.5
t-9.5 -27t-12.5 -19q-8 -7 -24 -14t-37.5 -12.5t-45 -8.5t-45.5 -3q-56 0 -98 12t-69.5 37.5t-41 64t-13.5 92.5q0 12 1.5 26.5t3.5 30.5t4.5 32t5.5 30l102 506h-447l-101 -502q-4 -21 -7 -47t-3 -43q0 -51 21.5 -74.5t69.5 -23.5q27 0 47 4.5t34.5 9.5t25.5 9.5t19 4.5
t12.5 -5.5t4.5 -20.5q0 -13 -2.5 -28.5t-6.5 -30.5t-10 -27t-13 -19q-8 -7 -24 -14t-37 -12.5t-44.5 -8.5t-46.5 -3q-56 0 -97 12t-69 37.5t-41.5 64t-13.5 92.5q0 12 1 26.5t3.5 30.5l5 32t5.5 30l101 506h-125q-11 0 -17 6.5t-6 25.5q0 14 3 32.5t9 34.5t15.5 27t22.5 11
h126l43 214q1 7 6.5 13t15.5 10.5t26.5 6.5t40.5 2t39.5 -2t24 -6.5t11 -10.5t1.5 -13l-43 -214h447l51 257q2 8 7 14t15.5 9.5t26.5 6t41 2.5q23 0 38.5 -2.5t24.5 -6t11.5 -9.5t1.5 -14l-51 -257h579q29 0 37.5 -13.5t3.5 -39.5zM1710 1123q-7 -10 -13.5 -16t-16 -9.5
t-22.5 -5t-33 -1.5q-22 0 -35 3t-18 8t-3 13t9 19l154 231q7 11 15.5 18t20 11t28.5 6t42 2q28 0 44.5 -3.5t23 -10t5 -15t-9.5 -17.5zM1285 951z" />
    <glyph glyph-name="t_t_icircumflex.liga" unicode="tt&#xee;" horiz-adv-x="1753" 
d="M1513 25q-3 -8 -7.5 -13.5t-15 -9.5t-27 -6t-40.5 -2t-39.5 2t-24.5 6t-11.5 9.5t-0.5 13.5l158 789h-466l-100 -502q-5 -21 -7.5 -47t-2.5 -43q0 -51 21 -74.5t70 -23.5q27 0 46.5 4.5t34 9.5t25 9.5t19.5 4.5q8 0 12.5 -5.5t4.5 -20.5q0 -13 -2.5 -28.5t-6.5 -30.5
t-9.5 -27t-12.5 -19q-8 -7 -24 -14t-37.5 -12.5t-45 -8.5t-45.5 -3q-56 0 -98 12t-69.5 37.5t-41 64t-13.5 92.5q0 12 1.5 26.5t3.5 30.5t4.5 32t5.5 30l102 506h-447l-101 -502q-4 -21 -7 -47t-3 -43q0 -51 21.5 -74.5t69.5 -23.5q27 0 47 4.5t34.5 9.5t25.5 9.5t19 4.5
t12.5 -5.5t4.5 -20.5q0 -13 -2.5 -28.5t-6.5 -30.5t-10 -27t-13 -19q-8 -7 -24 -14t-37 -12.5t-44.5 -8.5t-46.5 -3q-56 0 -97 12t-69 37.5t-41.5 64t-13.5 92.5q0 12 1 26.5t3.5 30.5l5 32t5.5 30l101 506h-125q-11 0 -17 6.5t-6 25.5q0 14 3 32.5t9 34.5t15.5 27t22.5 11
h126l43 214q1 7 6.5 13t15.5 10.5t26.5 6.5t40.5 2t39.5 -2t24 -6.5t11 -10.5t1.5 -13l-43 -214h447l51 257q2 8 7 14t15.5 9.5t26.5 6t41 2.5q23 0 38.5 -2.5t24.5 -6t11.5 -9.5t1.5 -14l-51 -257h579q29 0 37.5 -13.5t3.5 -39.5zM1897 1147q8 -15 10.5 -25.5t-2.5 -17
t-20 -10t-41 -3.5q-21 0 -33 1.5t-19.5 4.5t-12 9t-8.5 15l-94 180l-166 -180q-8 -10 -15 -15.5t-16.5 -8.5t-22.5 -4.5t-32 -1.5q-27 0 -41.5 3.5t-18.5 10t2 17t20 25.5l210 229q7 8 15 12.5t19 7.5t26.5 4.5t37.5 1.5q21 0 34.5 -1.5t23 -5t15.5 -8t11 -11.5zM1101 951z
" />
    <glyph glyph-name="t_t_idieresis.liga" unicode="tt&#xef;" horiz-adv-x="1753" 
d="M1513 25q-3 -8 -7.5 -13.5t-15 -9.5t-27 -6t-40.5 -2t-39.5 2t-24.5 6t-11.5 9.5t-0.5 13.5l158 789h-466l-100 -502q-5 -21 -7.5 -47t-2.5 -43q0 -51 21 -74.5t70 -23.5q27 0 46.5 4.5t34 9.5t25 9.5t19.5 4.5q8 0 12.5 -5.5t4.5 -20.5q0 -13 -2.5 -28.5t-6.5 -30.5
t-9.5 -27t-12.5 -19q-8 -7 -24 -14t-37.5 -12.5t-45 -8.5t-45.5 -3q-56 0 -98 12t-69.5 37.5t-41 64t-13.5 92.5q0 12 1.5 26.5t3.5 30.5t4.5 32t5.5 30l102 506h-447l-101 -502q-4 -21 -7 -47t-3 -43q0 -51 21.5 -74.5t69.5 -23.5q27 0 47 4.5t34.5 9.5t25.5 9.5t19 4.5
t12.5 -5.5t4.5 -20.5q0 -13 -2.5 -28.5t-6.5 -30.5t-10 -27t-13 -19q-8 -7 -24 -14t-37 -12.5t-44.5 -8.5t-46.5 -3q-56 0 -97 12t-69 37.5t-41.5 64t-13.5 92.5q0 12 1 26.5t3.5 30.5l5 32t5.5 30l101 506h-125q-11 0 -17 6.5t-6 25.5q0 14 3 32.5t9 34.5t15.5 27t22.5 11
h126l43 214q1 7 6.5 13t15.5 10.5t26.5 6.5t40.5 2t39.5 -2t24 -6.5t11 -10.5t1.5 -13l-43 -214h447l51 257q2 8 7 14t15.5 9.5t26.5 6t41 2.5q23 0 38.5 -2.5t24.5 -6t11.5 -9.5t1.5 -14l-51 -257h579q29 0 37.5 -13.5t3.5 -39.5zM1416 1216q5 27 13 45t21.5 29t32 15.5
t43.5 4.5q26 0 42 -4.5t24 -15.5t9 -29t-4 -45t-13.5 -45.5t-21 -29t-31 -15t-43.5 -4.5q-26 0 -42.5 4.5t-24.5 15t-9 29t4 45.5zM1726 1216q5 27 13.5 45t21.5 29t32 15.5t44 4.5q26 0 42 -4.5t24 -15.5t9 -29t-4 -45q-6 -27 -14 -45.5t-21 -29t-31 -15t-43 -4.5
q-26 0 -42.5 4.5t-25 15t-9.5 29t4 45.5zM1134 951z" />
    <glyph glyph-name="t_t_imacron.liga" unicode="tt&#x12b;" horiz-adv-x="1753" 
d="M1513 25q-3 -8 -7.5 -13.5t-15 -9.5t-27 -6t-40.5 -2t-39.5 2t-24.5 6t-11.5 9.5t-0.5 13.5l158 789h-466l-100 -502q-5 -21 -7.5 -47t-2.5 -43q0 -51 21 -74.5t70 -23.5q27 0 46.5 4.5t34 9.5t25 9.5t19.5 4.5q8 0 12.5 -5.5t4.5 -20.5q0 -13 -2.5 -28.5t-6.5 -30.5
t-9.5 -27t-12.5 -19q-8 -7 -24 -14t-37.5 -12.5t-45 -8.5t-45.5 -3q-56 0 -98 12t-69.5 37.5t-41 64t-13.5 92.5q0 12 1.5 26.5t3.5 30.5t4.5 32t5.5 30l102 506h-447l-101 -502q-4 -21 -7 -47t-3 -43q0 -51 21.5 -74.5t69.5 -23.5q27 0 47 4.5t34.5 9.5t25.5 9.5t19 4.5
t12.5 -5.5t4.5 -20.5q0 -13 -2.5 -28.5t-6.5 -30.5t-10 -27t-13 -19q-8 -7 -24 -14t-37 -12.5t-44.5 -8.5t-46.5 -3q-56 0 -97 12t-69 37.5t-41.5 64t-13.5 92.5q0 12 1 26.5t3.5 30.5l5 32t5.5 30l101 506h-125q-11 0 -17 6.5t-6 25.5q0 14 3 32.5t9 34.5t15.5 27t22.5 11
h126l43 214q1 7 6.5 13t15.5 10.5t26.5 6.5t40.5 2t39.5 -2t24 -6.5t11 -10.5t1.5 -13l-43 -214h447l51 257q2 8 7 14t15.5 9.5t26.5 6t41 2.5q23 0 38.5 -2.5t24.5 -6t11.5 -9.5t1.5 -14l-51 -257h579q29 0 37.5 -13.5t3.5 -39.5zM1938 1262q0 -6 -1 -15t-3.5 -19.5t-6 -22
t-8.5 -20.5t-12 -15t-16 -6h-479q-13 0 -19.5 7.5t-6.5 24.5q0 7 2 23.5t8 32.5t15.5 28.5t26.5 12.5h479q12 0 16.5 -8.5t4.5 -22.5zM1106 951z" />
    <glyph glyph-name="t_t_itilde.liga" unicode="tt&#x129;" horiz-adv-x="1753" 
d="M1513 25q-3 -8 -7.5 -13.5t-15 -9.5t-27 -6t-40.5 -2t-39.5 2t-24.5 6t-11.5 9.5t-0.5 13.5l158 789h-466l-100 -502q-5 -21 -7.5 -47t-2.5 -43q0 -51 21 -74.5t70 -23.5q27 0 46.5 4.5t34 9.5t25 9.5t19.5 4.5q8 0 12.5 -5.5t4.5 -20.5q0 -13 -2.5 -28.5t-6.5 -30.5
t-9.5 -27t-12.5 -19q-8 -7 -24 -14t-37.5 -12.5t-45 -8.5t-45.5 -3q-56 0 -98 12t-69.5 37.5t-41 64t-13.5 92.5q0 12 1.5 26.5t3.5 30.5t4.5 32t5.5 30l102 506h-447l-101 -502q-4 -21 -7 -47t-3 -43q0 -51 21.5 -74.5t69.5 -23.5q27 0 47 4.5t34.5 9.5t25.5 9.5t19 4.5
t12.5 -5.5t4.5 -20.5q0 -13 -2.5 -28.5t-6.5 -30.5t-10 -27t-13 -19q-8 -7 -24 -14t-37 -12.5t-44.5 -8.5t-46.5 -3q-56 0 -97 12t-69 37.5t-41.5 64t-13.5 92.5q0 12 1 26.5t3.5 30.5l5 32t5.5 30l101 506h-125q-11 0 -17 6.5t-6 25.5q0 14 3 32.5t9 34.5t15.5 27t22.5 11
h126l43 214q1 7 6.5 13t15.5 10.5t26.5 6.5t40.5 2t39.5 -2t24 -6.5t11 -10.5t1.5 -13l-43 -214h447l51 257q2 8 7 14t15.5 9.5t26.5 6t41 2.5q23 0 38.5 -2.5t24.5 -6t11.5 -9.5t1.5 -14l-51 -257h579q29 0 37.5 -13.5t3.5 -39.5zM1994 1327q0 -6 -2 -24.5t-9 -44.5
t-20.5 -54.5t-37 -52.5t-58.5 -39.5t-84 -15.5q-37 0 -65.5 9.5t-51.5 24.5t-42.5 32t-38 32t-37 24.5t-40.5 9.5q-40 0 -59 -29t-25 -77q-1 -7 -4 -12.5t-10 -8.5t-19 -4t-32 -1q-17 0 -27 1.5t-15 5t-7 9t-2 13.5q0 6 1.5 25t8.5 45t21 54t37 51.5t57.5 39t83.5 15.5
q37 0 65.5 -9.5t52 -24.5t43 -32t37.5 -32t36.5 -24.5t40.5 -9.5q35 0 57 26.5t28 78.5q1 16 13.5 21.5t46.5 5.5q37 0 47 -6.5t10 -21.5zM1038 951z" />
    <glyph glyph-name="t_t_ibreve.liga" unicode="tt&#x12d;" horiz-adv-x="1753" 
d="M1513 25q-3 -8 -7.5 -13.5t-15 -9.5t-27 -6t-40.5 -2t-39.5 2t-24.5 6t-11.5 9.5t-0.5 13.5l158 789h-466l-100 -502q-5 -21 -7.5 -47t-2.5 -43q0 -51 21 -74.5t70 -23.5q27 0 46.5 4.5t34 9.5t25 9.5t19.5 4.5q8 0 12.5 -5.5t4.5 -20.5q0 -13 -2.5 -28.5t-6.5 -30.5
t-9.5 -27t-12.5 -19q-8 -7 -24 -14t-37.5 -12.5t-45 -8.5t-45.5 -3q-56 0 -98 12t-69.5 37.5t-41 64t-13.5 92.5q0 12 1.5 26.5t3.5 30.5t4.5 32t5.5 30l102 506h-447l-101 -502q-4 -21 -7 -47t-3 -43q0 -51 21.5 -74.5t69.5 -23.5q27 0 47 4.5t34.5 9.5t25.5 9.5t19 4.5
t12.5 -5.5t4.5 -20.5q0 -13 -2.5 -28.5t-6.5 -30.5t-10 -27t-13 -19q-8 -7 -24 -14t-37 -12.5t-44.5 -8.5t-46.5 -3q-56 0 -97 12t-69 37.5t-41.5 64t-13.5 92.5q0 12 1 26.5t3.5 30.5l5 32t5.5 30l101 506h-125q-11 0 -17 6.5t-6 25.5q0 14 3 32.5t9 34.5t15.5 27t22.5 11
h126l43 214q1 7 6.5 13t15.5 10.5t26.5 6.5t40.5 2t39.5 -2t24 -6.5t11 -10.5t1.5 -13l-43 -214h447l51 257q2 8 7 14t15.5 9.5t26.5 6t41 2.5q23 0 38.5 -2.5t24.5 -6t11.5 -9.5t1.5 -14l-51 -257h579q29 0 37.5 -13.5t3.5 -39.5zM1948 1374q0 -11 -4.5 -36t-17 -56
t-33.5 -64t-54.5 -60.5t-81.5 -44.5t-112 -17q-66 0 -108.5 15t-68 41.5t-36 61.5t-10.5 73q0 10 1 24.5t3.5 29t5.5 26.5t8 15q7 8 21 10.5t33 2.5q18 0 28.5 -1.5t17 -4t8.5 -7t2 -10.5q0 -11 -1.5 -24.5t-1.5 -28.5q0 -23 5 -42.5t17.5 -33.5t33 -22t51.5 -8q30 0 57 8.5
t49.5 27t40 47t27.5 69.5q2 8 6 13.5t11 9t19 5.5t30 2t28.5 -1.5t16.5 -4t7.5 -6.5t1.5 -9zM1119 951z" />
    <glyph glyph-name="t_t_iogonek.liga" unicode="tt&#x12f;" horiz-adv-x="1753" 
d="M1513 25q-5 -21 -15 -38t-26 -30l-75 -62q-37 -32 -53.5 -53.5t-16.5 -43.5q0 -18 13 -29.5t46 -11.5h111q12 0 17 -5t5 -15q0 -6 -1.5 -16.5t-4.5 -21.5t-6.5 -20.5t-8.5 -13.5q-6 -6 -22 -11t-37.5 -9.5t-44.5 -7t-45 -2.5q-94 0 -140.5 32.5t-46.5 95.5q0 19 4.5 39
t17 42.5t34.5 47t56 52.5l68 58l163 812h-466l-100 -502q-5 -21 -7.5 -47t-2.5 -43q0 -51 21 -74.5t70 -23.5q27 0 46.5 4.5t34 9.5t25 9.5t19.5 4.5q8 0 12.5 -5.5t4.5 -20.5q0 -13 -2.5 -28.5t-6.5 -30.5t-9.5 -27t-12.5 -19q-8 -7 -24 -14t-37.5 -12.5t-45 -8.5t-45.5 -3
q-56 0 -98 12t-69.5 37.5t-41 64t-13.5 92.5q0 12 1.5 26.5t3.5 30.5t4.5 32t5.5 30l102 506h-447l-101 -502q-4 -21 -7 -47t-3 -43q0 -51 21.5 -74.5t69.5 -23.5q27 0 47 4.5t34.5 9.5t25.5 9.5t19 4.5t12.5 -5.5t4.5 -20.5q0 -13 -2.5 -28.5t-6.5 -30.5t-10 -27t-13 -19
q-8 -7 -24 -14t-37 -12.5t-44.5 -8.5t-46.5 -3q-56 0 -97 12t-69 37.5t-41.5 64t-13.5 92.5q0 12 1 26.5t3.5 30.5l5 32t5.5 30l101 506h-125q-11 0 -17 6.5t-6 25.5q0 14 3 32.5t9 34.5t15.5 27t22.5 11h126l43 214q1 7 6.5 13t15.5 10.5t26.5 6.5t40.5 2t39.5 -2t24 -6.5
t11 -10.5t1.5 -13l-43 -214h447l51 257q2 8 7 14t15.5 9.5t26.5 6t41 2.5q23 0 38.5 -2.5t24.5 -6t11.5 -9.5t1.5 -14l-51 -257h579q29 0 37.5 -13.5t3.5 -39.5zM1771 1228q-5 -28 -13.5 -47t-22.5 -30.5t-34.5 -16.5t-50.5 -5t-49 5t-28 16.5t-9.5 30.5t4.5 47
q6 28 14.5 46.5t22.5 31t34.5 17t50.5 4.5t48.5 -4.5t27.5 -17t10 -31t-5 -46.5z" />
    <glyph glyph-name="t_t_dotlessi.liga" unicode="tt&#x131;" horiz-adv-x="1753" 
d="M1513 25q-3 -8 -7.5 -13.5t-15 -9.5t-27 -6t-40.5 -2t-39.5 2t-24.5 6t-11.5 9.5t-0.5 13.5l158 789h-466l-100 -502q-5 -21 -7.5 -47t-2.5 -43q0 -51 21 -74.5t70 -23.5q27 0 46.5 4.5t34 9.5t25 9.5t19.5 4.5q8 0 12.5 -5.5t4.5 -20.5q0 -13 -2.5 -28.5t-6.5 -30.5
t-9.5 -27t-12.5 -19q-8 -7 -24 -14t-37.5 -12.5t-45 -8.5t-45.5 -3q-56 0 -98 12t-69.5 37.5t-41 64t-13.5 92.5q0 12 1.5 26.5t3.5 30.5t4.5 32t5.5 30l102 506h-447l-101 -502q-4 -21 -7 -47t-3 -43q0 -51 21.5 -74.5t69.5 -23.5q27 0 47 4.5t34.5 9.5t25.5 9.5t19 4.5
t12.5 -5.5t4.5 -20.5q0 -13 -2.5 -28.5t-6.5 -30.5t-10 -27t-13 -19q-8 -7 -24 -14t-37 -12.5t-44.5 -8.5t-46.5 -3q-56 0 -97 12t-69 37.5t-41.5 64t-13.5 92.5q0 12 1 26.5t3.5 30.5l5 32t5.5 30l101 506h-125q-11 0 -17 6.5t-6 25.5q0 14 3 32.5t9 34.5t15.5 27t22.5 11
h126l43 214q1 7 6.5 13t15.5 10.5t26.5 6.5t40.5 2t39.5 -2t24 -6.5t11 -10.5t1.5 -13l-43 -214h447l51 257q2 8 7 14t15.5 9.5t26.5 6t41 2.5q23 0 38.5 -2.5t24.5 -6t11.5 -9.5t1.5 -14l-51 -257h579q29 0 37.5 -13.5t3.5 -39.5z" />
    <glyph glyph-name="f_uni1EC9.liga" unicode="f&#x1ec9;" horiz-adv-x="1084" 
d="M978 951q27 0 35.5 -14t4.5 -37l-174 -875q-2 -8 -7 -13.5t-15.5 -9.5t-27 -6t-40.5 -2t-39.5 2t-23.5 6t-11 9.5t-2 13.5l158 789h-405l-171 -852q-17 -84 -46 -145.5t-71 -102t-97 -60t-124 -19.5q-45 0 -73.5 7t-35.5 13q-4 5 -6 11t-2 16q0 4 1.5 13.5t3.5 20t5 22
t7 21.5t9 16t12 6t13.5 -1.5t14 -3t18 -3t26.5 -1.5q42 0 72.5 13t52 40.5t36 69.5t26.5 101l164 818h-128q-10 0 -15.5 6.5t-5.5 24.5q0 8 1 19.5t3.5 23.5t6.5 23t10 20t12.5 14.5t16.5 5.5h126l25 123q16 83 46 144.5t72 102t97 60t123 19.5q21 0 43.5 -2.5t42.5 -6
t34.5 -9t20.5 -11.5q6 -5 9 -14t3 -19q0 -4 -1 -12.5t-3 -19t-5 -22t-6.5 -21t-9 -16t-11.5 -6.5q-8 0 -17 3t-22 7.5t-30.5 8t-39.5 3.5q-43 0 -73.5 -13t-52 -40.5t-36.5 -69.5t-26 -99l-17 -90h519zM1063 1515q41 0 70.5 -11.5t48.5 -32t28 -48.5t9 -61q0 -43 -13.5 -74
t-36.5 -52t-53 -33.5t-64 -16.5l-15 -66q-4 -15 -18.5 -22.5t-44.5 -7.5q-29 0 -41 5t-12 19q0 4 1 7l17 96q3 14 7.5 22t11.5 12.5t16.5 6.5t23.5 5l14 3q49 10 65 34.5t16 55.5q0 32 -14 49.5t-43 17.5q-23 0 -40 -6t-31.5 -13.5t-26 -13.5t-22.5 -6q-20 0 -20 31
q0 33 13 48t35 26q20 9 53 17.5t66 8.5zM663 951z" />
    <glyph glyph-name="f_uni1ECB.liga" unicode="f&#x1ecb;" horiz-adv-x="1084" 
d="M978 951q27 0 35.5 -14t4.5 -37l-174 -875q-2 -8 -7 -13.5t-15.5 -9.5t-27 -6t-40.5 -2t-39.5 2t-23.5 6t-11 9.5t-2 13.5l158 789h-405l-171 -852q-17 -84 -46 -145.5t-71 -102t-97 -60t-124 -19.5q-45 0 -73.5 7t-35.5 13q-4 5 -6 11t-2 16q0 4 1.5 13.5t3.5 20t5 22
t7 21.5t9 16t12 6t13.5 -1.5t14 -3t18 -3t26.5 -1.5q42 0 72.5 13t52 40.5t36 69.5t26.5 101l164 818h-128q-10 0 -15.5 6.5t-5.5 24.5q0 8 1 19.5t3.5 23.5t6.5 23t10 20t12.5 14.5t16.5 5.5h126l25 123q16 83 46 144.5t72 102t97 60.5t123 20q23 0 45 -2.5t40 -7t31 -9.5
t18 -11q5 -5 7 -13t2 -18q0 -3 -1 -11.5t-3 -19t-4.5 -22.5t-6.5 -21.5t-9.5 -15.5t-11.5 -6q-7 0 -16 3t-21.5 6.5t-29 7t-38.5 3.5q-41 0 -70.5 -13t-50 -40.5t-35.5 -69.5t-26 -99l-17 -91h519zM1102 1228q-5 -28 -13 -47t-22 -30.5t-35 -16.5t-50 -5q-30 0 -48.5 5
t-27 16.5t-9.5 30.5t4 47q6 28 14 46.5t22 31t34.5 17t50.5 4.5t48 -4.5t27 -17t10 -31t-5 -46.5zM804 -180q-8 -52 -34.5 -74t-83.5 -22q-47 0 -65.5 14.5t-18.5 48.5q0 15 3 33q8 54 34 75.5t82 21.5q47 0 66.5 -14.5t19.5 -49.5q0 -15 -3 -33z" />
    <glyph glyph-name="f_f_uni1EC9.liga" unicode="ff&#x1ec9;" horiz-adv-x="1654" 
d="M431 814l-171 -852q-17 -84 -46 -145.5t-71 -102t-97 -60t-124 -19.5q-45 0 -73.5 7t-35.5 13q-4 5 -6 11t-2 16q0 4 1.5 13.5t3.5 20t5 22t7 21.5t9 16t12 6t13.5 -1.5t14 -3t18 -3t26.5 -1.5q42 0 72.5 13t52 40.5t36 69.5t26.5 101l164 818h-128q-10 0 -15.5 6.5
t-5.5 24.5q0 8 1 19.5t3.5 23.5t6.5 23t10 20t12.5 14.5t16.5 5.5h126l23 112q17 83 46.5 144t72 101.5t98 60.5t123.5 20q22 0 45.5 -2.5t44 -7t36.5 -10.5t22 -12q5 -5 8 -14t3 -19q0 -4 -1 -12.5t-2.5 -19t-4.5 -22.5t-7 -21.5t-9 -15.5t-11 -6q-7 0 -17.5 4t-24.5 8.5
t-33 8.5t-41 4q-44 0 -74.5 -13t-52 -40.5t-37 -69.5t-26.5 -99l-15 -79h405l24 123q17 83 46.5 144.5t71.5 102t97 60.5t124 20q21 0 43.5 -2.5t42 -6t34.5 -9t20 -11.5q6 -5 9 -14t3 -19q0 -4 -1 -12.5t-3 -19t-4.5 -22t-6.5 -21t-9 -16t-11 -6.5q-8 0 -17.5 3.5
t-22.5 7.5t-30 7.5t-39 3.5q-44 0 -74.5 -13t-52 -40.5t-36 -69.5t-26.5 -99l-17 -91h519q27 0 35.5 -13.5t5.5 -37.5l-174 -875q-3 -8 -7.5 -13.5t-15 -9.5t-27 -6t-40.5 -2q-25 0 -40.5 2t-24 6t-11 9.5t-0.5 13.5l157 789h-405l-164 -817q-18 -91 -47.5 -157.5
t-72 -109.5t-99 -63t-127.5 -20q-51 0 -87.5 7.5t-48.5 20.5q-9 8 -9 27q0 5 1 14.5t3 20.5t5 22.5t7.5 21t10 15.5t12.5 6t16.5 -2.5t22 -6t28.5 -6.5t36 -3q41 0 71 13t51.5 39t36.5 67t26 97l163 814h-405zM1638 1515q41 0 70.5 -11.5t48.5 -32t28 -48.5t9 -61
q0 -43 -13.5 -74t-36.5 -52t-53 -33.5t-64 -16.5l-15 -66q-4 -15 -18.5 -22.5t-44.5 -7.5q-29 0 -41 5t-12 19q0 4 1 7l17 96q3 14 7.5 22t11.5 12.5t16.5 6.5t23.5 5l14 3q49 10 65 34.5t16 55.5q0 32 -14 49.5t-43 17.5q-23 0 -40 -6t-31.5 -13.5t-26 -13.5t-22.5 -6
q-20 0 -20 31q0 33 13 48t35 26q20 9 53 17.5t66 8.5zM1238 951z" />
    <glyph glyph-name="f_f_uni1ECB.liga" unicode="ff&#x1ecb;" horiz-adv-x="1654" 
d="M431 814l-171 -852q-17 -84 -46 -145.5t-71 -102t-97 -60t-124 -19.5q-45 0 -73.5 7t-35.5 13q-4 5 -6 11t-2 16q0 4 1.5 13.5t3.5 20t5 22t7 21.5t9 16t12 6t13.5 -1.5t14 -3t18 -3t26.5 -1.5q42 0 72.5 13t52 40.5t36 69.5t26.5 101l164 818h-128q-10 0 -15.5 6.5
t-5.5 24.5q0 8 1 19.5t3.5 23.5t6.5 23t10 20t12.5 14.5t16.5 5.5h126l23 112q17 83 46.5 144t72 101.5t98 60.5t123.5 20q22 0 45.5 -2.5t44 -7t36.5 -10.5t22 -12q5 -5 8 -14t3 -19q0 -4 -1 -12.5t-2.5 -19t-4.5 -22.5t-7 -21.5t-9 -15.5t-11 -6q-7 0 -17.5 4t-24.5 8.5
t-33 8.5t-41 4q-44 0 -74.5 -13t-52 -40.5t-37 -69.5t-26.5 -99l-15 -79h405l24 123q17 83 46.5 144.5t71.5 102t97 60.5t124 20q23 0 45 -2.5t40 -7t31 -9.5t19 -11q5 -5 6 -13t1 -18q0 -3 -0.5 -11.5t-2.5 -19t-4.5 -22t-6.5 -21t-9 -16t-11 -6.5q-8 0 -17.5 3t-22 6.5
t-28.5 7t-38 3.5q-42 0 -71 -13t-50 -40.5t-35.5 -69.5t-26.5 -99l-17 -91h519q27 0 35.5 -13.5t5.5 -37.5l-174 -875q-3 -8 -7.5 -13.5t-15 -9.5t-27 -6t-40.5 -2q-25 0 -40.5 2t-24 6t-11 9.5t-0.5 13.5l157 789h-405l-164 -817q-18 -91 -47.5 -157.5t-72 -109.5t-99 -63
t-127.5 -20q-51 0 -87.5 7.5t-48.5 20.5q-9 8 -9 27q0 5 1 14.5t3 20.5t5 22.5t7.5 21t10 15.5t12.5 6t16.5 -2.5t22 -6t28.5 -6.5t36 -3q41 0 71 13t51.5 39t36.5 67t26 97l163 814h-405zM1673 1228q-5 -28 -13.5 -47t-22.5 -30.5t-34.5 -16.5t-50.5 -5t-48.5 5t-27.5 16.5
t-9.5 30.5t4.5 47q6 28 14.5 46.5t22 31t34.5 17t51 4.5q29 0 47.5 -4.5t27.5 -17t10 -31t-5 -46.5zM1376 -180q-8 -52 -34.5 -74t-83.5 -22q-47 0 -65.5 14.5t-18.5 48.5q0 15 3 33q8 54 34 75.5t82 21.5q47 0 66.5 -14.5t19.5 -49.5q0 -15 -3 -33z" />
    <glyph glyph-name="f_uni01D0.liga" unicode="f&#x1d0;" horiz-adv-x="1084" 
d="M978 951q27 0 35.5 -14t4.5 -37l-174 -875q-4 -15 -22.5 -23t-67.5 -8q-48 0 -63 8t-13 23l158 789h-405l-171 -852q-34 -169 -116.5 -248t-221.5 -79q-45 0 -73.5 7t-35.5 13q-4 5 -6 11t-2 16q0 6 2.5 22.5t7 33.5t12 30t16.5 13q7 0 13.5 -1.5t14 -3t18 -3t26.5 -1.5
q43 0 73 13t51.5 40.5t36 69.5t26.5 101l164 818h-128q-10 0 -15.5 6.5t-5.5 24.5q0 13 2.5 31t8.5 34.5t15.5 28.5t23.5 12h126l25 123q32 166 109.5 246t185.5 80q78 0 99 -21q6 -6 8.5 -15t2.5 -19q0 -5 -1.5 -19.5t-5.5 -30.5t-10 -28t-16 -12q-15 0 -27.5 4t-35.5 4
q-60 0 -94 -53.5t-57 -168.5l-17 -90h519zM1053 1117q-7 -8 -15 -13t-19.5 -7.5t-27 -4t-38.5 -1.5q-20 0 -34 1.5t-23 4.5t-14.5 8t-9.5 12l-94 229q-8 14 -10.5 25t2.5 17.5t19 10t41 3.5q20 0 32 -1.5t19 -5t11.5 -9t8.5 -14.5l70 -181l141 181q7 9 14.5 14.5t17.5 9
t23 5t32 1.5q26 0 41 -3.5t19 -10t-1.5 -17t-18.5 -25.5z" />
    <glyph glyph-name="f_uni0209.liga" unicode="f&#x209;" horiz-adv-x="1084" 
d="M978 951q27 0 35.5 -14t4.5 -37l-174 -875q-4 -15 -22.5 -23t-67.5 -8q-48 0 -63 8t-13 23l158 789h-405l-171 -852q-34 -169 -116.5 -248t-221.5 -79q-45 0 -73.5 7t-35.5 13q-4 5 -6 11t-2 16q0 6 2.5 22.5t7 33.5t12 30t16.5 13q7 0 13.5 -1.5t14 -3t18 -3t26.5 -1.5
q43 0 73 13t51.5 40.5t36 69.5t26.5 101l164 818h-128q-10 0 -15.5 6.5t-5.5 24.5q0 13 2.5 31t8.5 34.5t15.5 28.5t23.5 12h126l25 123q32 167 92.5 246.5t157.5 79.5q39 0 56 -5t28 -16q6 -6 8.5 -15t2.5 -19q0 -5 -1.5 -19.5t-5 -30.5t-9.5 -28t-16 -12q-11 0 -21.5 4
t-25.5 4q-12 0 -25.5 -8.5t-26 -29t-25 -55.5t-22.5 -88l-26 -131h519zM979 1334q-18 28 -5 39t75 11q45 0 66 -6t29 -23l117 -258q8 -17 -2 -23.5t-48 -6.5q-34 0 -50.5 4t-24.5 17zM714 1335q-18 28 -5.5 38.5t68.5 10.5q26 0 43.5 -1t28.5 -4t17.5 -8t10.5 -13l128 -262
q14 -29 -51 -29q-33 0 -51 3t-28 18z" />
    <glyph glyph-name="f_uni020B.liga" unicode="f&#x20b;" horiz-adv-x="1084" 
d="M978 951q27 0 35.5 -14t4.5 -37l-174 -875q-4 -15 -22.5 -23t-67.5 -8q-48 0 -63 8t-13 23l158 789h-405l-171 -852q-34 -169 -116.5 -248t-221.5 -79q-45 0 -73.5 7t-35.5 13q-4 5 -6 11t-2 16q0 6 2.5 22.5t7 33.5t12 30t16.5 13q7 0 13.5 -1.5t14 -3t18 -3t26.5 -1.5
q43 0 73 13t51.5 40.5t36 69.5t26.5 101l164 818h-128q-10 0 -15.5 6.5t-5.5 24.5q0 13 2.5 31t8.5 34.5t15.5 28.5t23.5 12h126l25 123q32 166 109.5 246t185.5 80q78 0 99 -21q6 -6 8.5 -15t2.5 -19q0 -5 -1.5 -19.5t-5.5 -30.5t-10 -28t-16 -12q-15 0 -27.5 4t-35.5 4
q-60 0 -94 -53.5t-57 -168.5l-17 -90h519zM727 1117q0 11 4.5 36t16.5 56t33.5 64t55 60t81 44.5t112.5 17.5t108 -15.5t68.5 -41.5t36 -60.5t10.5 -73.5q0 -9 -1 -24t-3 -29.5t-5.5 -26.5t-8.5 -15q-7 -8 -21 -10.5t-33 -2.5q-35 0 -45.5 5.5t-10.5 17.5q0 11 1.5 24.5
t1.5 28.5q0 46 -22.5 76t-84.5 30q-60 0 -107 -35.5t-67 -116.5q-4 -16 -17 -23t-49 -7t-45 5.5t-9 15.5z" />
    <glyph glyph-name="f_uni1E2D.liga" unicode="f&#x1e2d;" horiz-adv-x="1084" 
d="M978 951q27 0 35.5 -14t4.5 -37l-174 -875q-2 -8 -7 -13.5t-15.5 -9.5t-27 -6t-40.5 -2t-39.5 2t-23.5 6t-11 9.5t-2 13.5l158 789h-405l-171 -852q-17 -84 -46 -145.5t-71 -102t-97 -60t-124 -19.5q-45 0 -73.5 7t-35.5 13q-4 5 -6 11t-2 16q0 4 1.5 13.5t3.5 20t5 22
t7 21.5t9 16t12 6t13.5 -1.5t14 -3t18 -3t26.5 -1.5q42 0 72.5 13t52 40.5t36 69.5t26.5 101l164 818h-128q-10 0 -15.5 6.5t-5.5 24.5q0 8 1 19.5t3.5 23.5t6.5 23t10 20t12.5 14.5t16.5 5.5h126l25 123q16 83 46 144.5t72 102t97 60.5t123 20q23 0 45 -2.5t40 -7t31 -9.5
t18 -11q5 -5 7 -13t2 -18q0 -3 -1 -11.5t-3 -19t-4.5 -22.5t-6.5 -21.5t-9.5 -15.5t-11.5 -6q-7 0 -16 3t-21.5 6.5t-29 7t-38.5 3.5q-41 0 -70.5 -13t-50 -40.5t-35.5 -69.5t-26 -99l-17 -91h519zM1102 1228q-5 -28 -13 -47t-22 -30.5t-35 -16.5t-50 -5q-30 0 -48.5 5
t-27 16.5t-9.5 30.5t4 47q6 28 14 46.5t22 31t34.5 17t50.5 4.5t48 -4.5t27 -17t10 -31t-5 -46.5zM1054 -162q0 -6 -2 -24.5t-9 -44.5t-20.5 -54.5t-37 -52.5t-58.5 -39.5t-84 -15.5q-37 0 -65.5 9.5t-51.5 24.5t-42.5 32t-38 32t-37 24.5t-40.5 9.5q-40 0 -59 -29t-25 -77
q-1 -7 -4 -12.5t-10 -8.5t-19 -4t-32 -1q-17 0 -27 1.5t-15 5t-7 9t-2 13.5q0 6 1.5 25t8.5 45t21 54t37 51.5t57.5 39t83.5 15.5q37 0 65.5 -9.5t52 -24.5t43 -32t37.5 -32t36.5 -24.5t40.5 -9.5q35 0 57 26.5t28 78.5q1 16 13.5 21.5t46.5 5.5q37 0 47 -6.5t10 -21.5z
M98 -538z" />
    <glyph glyph-name="f_uni1E2F.liga" unicode="f&#x1e2f;" horiz-adv-x="1084" 
d="M978 951q27 0 35.5 -14t4.5 -37l-174 -875q-4 -15 -22.5 -23t-67.5 -8q-48 0 -63 8t-13 23l158 789h-405l-171 -852q-34 -169 -116.5 -248t-221.5 -79q-45 0 -73.5 7t-35.5 13q-4 5 -6 11t-2 16q0 6 2.5 22.5t7 33.5t12 30t16.5 13q7 0 13.5 -1.5t14 -3t18 -3t26.5 -1.5
q43 0 73 13t51.5 40.5t36 69.5t26.5 101l164 818h-128q-10 0 -15.5 6.5t-5.5 24.5q0 13 2.5 31t8.5 34.5t15.5 28.5t23.5 12h126l25 123q32 166 109.5 246t185.5 80q78 0 99 -21q6 -6 8.5 -15t2.5 -19q0 -5 -1.5 -19.5t-5.5 -30.5t-10 -28t-16 -12q-15 0 -27.5 4t-35.5 4
q-60 0 -94 -53.5t-57 -168.5l-17 -90h519zM1123 1593q8 11 15.5 18t18.5 11.5t26.5 6t39.5 1.5q38 0 55 -6.5t17 -17.5q0 -10 -14 -22l-171 -171l-16 -16t-14 -9.5t-19.5 -5t-32.5 -1.5q-29 0 -41 4.5t-12 13.5t13 25zM1253 1216q-5 -27 -13 -45.5t-20.5 -29t-31 -15
t-45.5 -4.5q-51 0 -69 19.5t-7 74.5q8 54 32 74t76 20q53 0 69.5 -20t8.5 -74zM949 1216q-8 -55 -33 -74.5t-76 -19.5q-27 0 -44 4.5t-26 15t-10 29t3 45.5q8 54 32 74t76 20q53 0 69.5 -20t8.5 -74z" />
    <glyph glyph-name="f_uni0268.liga" unicode="f&#x268;" horiz-adv-x="1084" 
d="M978 951q27 0 35.5 -14t4.5 -37l-174 -875q-2 -8 -7 -13.5t-15.5 -9.5t-27 -6t-40.5 -2t-39.5 2t-23.5 6t-11 9.5t-2 13.5l158 789h-405l-171 -852q-17 -84 -46 -145.5t-71 -102t-97 -60t-124 -19.5q-45 0 -73.5 7t-35.5 13q-4 5 -6 11t-2 16q0 4 1.5 13.5t3.5 20t5 22
t7 21.5t9 16t12 6t13.5 -1.5t14 -3t18 -3t26.5 -1.5q42 0 72.5 13t52 40.5t36 69.5t26.5 101l164 818h-128q-10 0 -15.5 6.5t-5.5 24.5q0 8 1 19.5t3.5 23.5t6.5 23t10 20t12.5 14.5t16.5 5.5h126l25 123q16 83 46 144.5t72 102t97 60.5t123 20q23 0 45 -2.5t40 -7t31 -9.5
t18 -11q5 -5 7 -13t2 -18q0 -3 -1 -11.5t-3 -19t-4.5 -22.5t-6.5 -21.5t-9.5 -15.5t-11.5 -6q-7 0 -16 3t-21.5 6.5t-29 7t-38.5 3.5q-41 0 -70.5 -13t-50 -40.5t-35.5 -69.5t-26 -99l-17 -91h519zM1102 1228q-5 -28 -13 -47t-22 -30.5t-35 -16.5t-50 -5q-30 0 -48.5 5
t-27 16.5t-9.5 30.5t4 47q6 28 14 46.5t22 31t34.5 17t50.5 4.5t48 -4.5t27 -17t10 -31t-5 -46.5zM621 448q-22 0 -22 32q0 8 2 24t7 32.5t14.5 29t24.5 12.5h436q11 0 18 -7t7 -26q0 -8 -2.5 -24.5t-8.5 -32.5t-15.5 -28t-23.5 -12h-437z" />
    <glyph glyph-name="uni1E1F_i.liga" unicode="&#x1e1f;i" horiz-adv-x="1084" 
d="M978 951q27 0 35.5 -14t4.5 -37l-174 -875q-2 -8 -7 -13.5t-15.5 -9.5t-27 -6t-40.5 -2t-39.5 2t-23.5 6t-11 9.5t-2 13.5l158 789h-405l-171 -852q-17 -84 -46 -145.5t-71 -102t-97 -60t-124 -19.5q-45 0 -73.5 7t-35.5 13q-4 5 -6 11t-2 16q0 4 1.5 13.5t3.5 20t5 22
t7 21.5t9 16t12 6t13.5 -1.5t14 -3t18 -3t26.5 -1.5q42 0 72.5 13t52 40.5t36 69.5t26.5 101l164 818h-128q-10 0 -15.5 6.5t-5.5 24.5q0 8 1 19.5t3.5 23.5t6.5 23t10 20t12.5 14.5t16.5 5.5h126l25 123q16 83 46 144.5t72 102t97 60.5t123 20q23 0 45 -2.5t40 -7t31 -9.5
t18 -11q5 -5 7 -13t2 -18q0 -3 -1 -11.5t-3 -19t-4.5 -22.5t-6.5 -21.5t-9.5 -15.5t-11.5 -6q-7 0 -16 3t-21.5 6.5t-29 7t-38.5 3.5q-41 0 -70.5 -13t-50 -40.5t-35.5 -69.5t-26 -99l-17 -91h519zM1102 1228q-5 -28 -13 -47t-22 -30.5t-35 -16.5t-50 -5q-30 0 -48.5 5
t-27 16.5t-9.5 30.5t4 47q6 28 14 46.5t22 31t34.5 17t50.5 4.5t48 -4.5t27 -17t10 -31t-5 -46.5zM735 1604q-4 -26 -12.5 -44t-22.5 -30t-34.5 -17t-48.5 -5t-45.5 5t-27 17t-11 30t2.5 44q4 27 12.5 45.5t22 30t33.5 16.5t48 5t46 -5t27.5 -16.5t11.5 -30t-2 -45.5z
M252 1325z" />
    <glyph glyph-name="f_f_uni01D0.liga" unicode="ff&#x1d0;" horiz-adv-x="1654" 
d="M1548 951q27 0 35.5 -14t4.5 -37l-174 -875q-4 -15 -22.5 -23t-67.5 -8q-48 0 -63 8t-13 23l158 789h-405l-171 -852q-34 -169 -116.5 -248t-221.5 -79q-45 0 -73.5 7t-35.5 13q-4 5 -6 11t-2 16q0 6 2.5 22.5t7 33.5t12 30t16.5 13q7 0 13.5 -1.5t14 -3t18 -3t26.5 -1.5
q43 0 73 13t51.5 40.5t36 69.5t26.5 101l164 818h-405l-171 -852q-17 -84 -46 -145.5t-71 -102t-97 -60t-124 -19.5q-45 0 -73.5 7t-35.5 13q-4 5 -6 11t-2 16q0 4 1.5 13.5t3.5 20t5 22t7 21.5t9 16t12 6t13.5 -1.5t14 -3t18 -3t26.5 -1.5q42 0 72.5 13t52 40.5t36 69.5
t26.5 101l164 818h-128q-10 0 -15.5 6.5t-5.5 24.5q0 8 1 19.5t3.5 23.5t6.5 23t10 20t12.5 14.5t16.5 5.5h126l23 112q17 83 46.5 144t72 101.5t98 60.5t123.5 20q22 0 45.5 -2.5t44 -7t36.5 -10.5t22 -12q5 -5 8 -14t3 -19q0 -4 -1 -12.5t-2.5 -19t-4.5 -22.5t-7 -21.5
t-9 -15.5t-11 -6q-7 0 -17.5 4t-24.5 8.5t-33 8.5t-41 4q-44 0 -74.5 -13t-52 -40.5t-37 -69.5t-26.5 -99l-15 -79h404l25 123q32 166 109.5 246t185.5 80q78 0 99 -21q6 -6 8.5 -15t2.5 -19q0 -5 -1.5 -19.5t-5.5 -30.5t-10 -28t-16 -12q-15 0 -27.5 4t-35.5 4
q-60 0 -94 -53.5t-57 -168.5l-17 -90h519zM1623 1117q-7 -8 -15 -13t-19.5 -7.5t-27 -4t-38.5 -1.5q-20 0 -34 1.5t-23 4.5t-14.5 8t-9.5 12l-94 229q-8 14 -10.5 25t2.5 17.5t19 10t41 3.5q20 0 32 -1.5t19 -5t11.5 -9t8.5 -14.5l70 -181l141 181q7 9 14.5 14.5t17.5 9
t23 5t32 1.5q26 0 41 -3.5t19 -10t-1.5 -17t-18.5 -25.5z" />
    <glyph glyph-name="f_f_uni0209.liga" unicode="ff&#x209;" horiz-adv-x="1654" 
d="M1548 951q27 0 35.5 -14t4.5 -37l-174 -875q-4 -15 -22.5 -23t-67.5 -8q-48 0 -63 8t-13 23l158 789h-405l-171 -852q-34 -169 -116.5 -248t-221.5 -79q-45 0 -73.5 7t-35.5 13q-4 5 -6 11t-2 16q0 6 2.5 22.5t7 33.5t12 30t16.5 13q7 0 13.5 -1.5t14 -3t18 -3t26.5 -1.5
q43 0 73 13t51.5 40.5t36 69.5t26.5 101l164 818h-405l-171 -852q-17 -84 -46 -145.5t-71 -102t-97 -60t-124 -19.5q-45 0 -73.5 7t-35.5 13q-4 5 -6 11t-2 16q0 4 1.5 13.5t3.5 20t5 22t7 21.5t9 16t12 6t13.5 -1.5t14 -3t18 -3t26.5 -1.5q42 0 72.5 13t52 40.5t36 69.5
t26.5 101l164 818h-128q-10 0 -15.5 6.5t-5.5 24.5q0 8 1 19.5t3.5 23.5t6.5 23t10 20t12.5 14.5t16.5 5.5h126l23 112q17 83 46.5 144t72 101.5t98 60.5t123.5 20q22 0 45.5 -2.5t44 -7t36.5 -10.5t22 -12q5 -5 8 -14t3 -19q0 -4 -1 -12.5t-2.5 -19t-4.5 -22.5t-7 -21.5
t-9 -15.5t-11 -6q-7 0 -17.5 4t-24.5 8.5t-33 8.5t-41 4q-44 0 -74.5 -13t-52 -40.5t-37 -69.5t-26.5 -99l-15 -79h404l25 123q32 167 92.5 246.5t157.5 79.5q39 0 56 -5t28 -16q6 -6 8.5 -15t2.5 -19q0 -5 -1.5 -19.5t-5 -30.5t-9.5 -28t-16 -12q-11 0 -21.5 4t-25.5 4
q-12 0 -25.5 -8.5t-26 -29t-25 -55.5t-22.5 -88l-26 -131h519zM1284 1335q-18 28 -5.5 38.5t68.5 10.5q26 0 43.5 -1t28.5 -4t17.5 -8t10.5 -13l128 -262q14 -29 -51 -29q-33 0 -51 3t-28 18zM1549 1334q-18 28 -5 39t75 11q45 0 66 -6t29 -23l117 -258q8 -17 -2 -23.5
t-48 -6.5q-34 0 -50.5 4t-24.5 17z" />
    <glyph glyph-name="f_f_uni020B.liga" unicode="ff&#x20b;" horiz-adv-x="1654" 
d="M1548 951q27 0 35.5 -14t4.5 -37l-174 -875q-4 -15 -22.5 -23t-67.5 -8q-48 0 -63 8t-13 23l158 789h-405l-171 -852q-34 -169 -116.5 -248t-221.5 -79q-45 0 -73.5 7t-35.5 13q-4 5 -6 11t-2 16q0 6 2.5 22.5t7 33.5t12 30t16.5 13q7 0 13.5 -1.5t14 -3t18 -3t26.5 -1.5
q43 0 73 13t51.5 40.5t36 69.5t26.5 101l164 818h-405l-171 -852q-17 -84 -46 -145.5t-71 -102t-97 -60t-124 -19.5q-45 0 -73.5 7t-35.5 13q-4 5 -6 11t-2 16q0 4 1.5 13.5t3.5 20t5 22t7 21.5t9 16t12 6t13.5 -1.5t14 -3t18 -3t26.5 -1.5q42 0 72.5 13t52 40.5t36 69.5
t26.5 101l164 818h-128q-10 0 -15.5 6.5t-5.5 24.5q0 8 1 19.5t3.5 23.5t6.5 23t10 20t12.5 14.5t16.5 5.5h126l23 112q17 83 46.5 144t72 101.5t98 60.5t123.5 20q22 0 45.5 -2.5t44 -7t36.5 -10.5t22 -12q5 -5 8 -14t3 -19q0 -4 -1 -12.5t-2.5 -19t-4.5 -22.5t-7 -21.5
t-9 -15.5t-11 -6q-7 0 -17.5 4t-24.5 8.5t-33 8.5t-41 4q-44 0 -74.5 -13t-52 -40.5t-37 -69.5t-26.5 -99l-15 -79h404l25 123q32 166 109.5 246t185.5 80q78 0 99 -21q6 -6 8.5 -15t2.5 -19q0 -5 -1.5 -19.5t-5.5 -30.5t-10 -28t-16 -12q-15 0 -27.5 4t-35.5 4
q-60 0 -94 -53.5t-57 -168.5l-17 -90h519zM1297 1117q0 11 4.5 36t16.5 56t33.5 64t55 60t81 44.5t112.5 17.5t108 -15.5t68.5 -41.5t36 -60.5t10.5 -73.5q0 -9 -1 -24t-3 -29.5t-5.5 -26.5t-8.5 -15q-7 -8 -21 -10.5t-33 -2.5q-35 0 -45.5 5.5t-10.5 17.5q0 11 1.5 24.5
t1.5 28.5q0 46 -22.5 76t-84.5 30q-60 0 -107 -35.5t-67 -116.5q-4 -16 -17 -23t-49 -7t-45 5.5t-9 15.5z" />
    <glyph glyph-name="f_f_uni1E2D.liga" unicode="ff&#x1e2d;" horiz-adv-x="1654" 
d="M431 814l-171 -852q-17 -84 -46 -145.5t-71 -102t-97 -60t-124 -19.5q-45 0 -73.5 7t-35.5 13q-4 5 -6 11t-2 16q0 4 1.5 13.5t3.5 20t5 22t7 21.5t9 16t12 6t13.5 -1.5t14 -3t18 -3t26.5 -1.5q42 0 72.5 13t52 40.5t36 69.5t26.5 101l164 818h-128q-10 0 -15.5 6.5
t-5.5 24.5q0 8 1 19.5t3.5 23.5t6.5 23t10 20t12.5 14.5t16.5 5.5h126l23 112q17 83 46.5 144t72 101.5t98 60.5t123.5 20q22 0 45.5 -2.5t44 -7t36.5 -10.5t22 -12q5 -5 8 -14t3 -19q0 -4 -1 -12.5t-2.5 -19t-4.5 -22.5t-7 -21.5t-9 -15.5t-11 -6q-7 0 -17.5 4t-24.5 8.5
t-33 8.5t-41 4q-44 0 -74.5 -13t-52 -40.5t-37 -69.5t-26.5 -99l-15 -79h405l24 123q17 83 46.5 144.5t71.5 102t97 60.5t124 20q23 0 45 -2.5t40 -7t31 -9.5t19 -11q5 -5 6 -13t1 -18q0 -3 -0.5 -11.5t-2.5 -19t-4.5 -22t-6.5 -21t-9 -16t-11 -6.5q-8 0 -17.5 3t-22 6.5
t-28.5 7t-38 3.5q-42 0 -71 -13t-50 -40.5t-35.5 -69.5t-26.5 -99l-17 -91h519q27 0 35.5 -13.5t5.5 -37.5l-174 -875q-3 -8 -7.5 -13.5t-15 -9.5t-27 -6t-40.5 -2q-25 0 -40.5 2t-24 6t-11 9.5t-0.5 13.5l157 789h-405l-164 -817q-18 -91 -47.5 -157.5t-72 -109.5t-99 -63
t-127.5 -20q-51 0 -87.5 7.5t-48.5 20.5q-9 8 -9 27q0 5 1 14.5t3 20.5t5 22.5t7.5 21t10 15.5t12.5 6t16.5 -2.5t22 -6t28.5 -6.5t36 -3q41 0 71 13t51.5 39t36.5 67t26 97l163 814h-405zM1673 1228q-5 -28 -13.5 -47t-22.5 -30.5t-34.5 -16.5t-50.5 -5t-48.5 5t-27.5 16.5
t-9.5 30.5t4.5 47q6 28 14.5 46.5t22 31t34.5 17t51 4.5q29 0 47.5 -4.5t27.5 -17t10 -31t-5 -46.5zM1624 -162q0 -6 -2 -24.5t-9 -44.5t-20.5 -54.5t-37 -52.5t-58.5 -39.5t-84 -15.5q-37 0 -65.5 9.5t-51.5 24.5t-42.5 32t-38 32t-37 24.5t-40.5 9.5q-40 0 -59 -29
t-25 -77q-1 -7 -4 -12.5t-10 -8.5t-19 -4t-32 -1q-17 0 -27 1.5t-15 5t-7 9t-2 13.5q0 6 1.5 25t8.5 45t21 54t37 51.5t57.5 39t83.5 15.5q37 0 65.5 -9.5t52 -24.5t43 -32t37.5 -32t36.5 -24.5t40.5 -9.5q35 0 57 26.5t28 78.5q1 16 13.5 21.5t46.5 5.5q37 0 47 -6.5
t10 -21.5zM668 -538z" />
    <glyph glyph-name="f_f_uni1E2F.liga" unicode="ff&#x1e2f;" horiz-adv-x="1654" 
d="M1548 951q27 0 35.5 -14t4.5 -37l-174 -875q-4 -15 -22.5 -23t-67.5 -8q-48 0 -63 8t-13 23l158 789h-405l-171 -852q-34 -169 -116.5 -248t-221.5 -79q-45 0 -73.5 7t-35.5 13q-4 5 -6 11t-2 16q0 6 2.5 22.5t7 33.5t12 30t16.5 13q7 0 13.5 -1.5t14 -3t18 -3t26.5 -1.5
q43 0 73 13t51.5 40.5t36 69.5t26.5 101l164 818h-405l-171 -852q-17 -84 -46 -145.5t-71 -102t-97 -60t-124 -19.5q-45 0 -73.5 7t-35.5 13q-4 5 -6 11t-2 16q0 4 1.5 13.5t3.5 20t5 22t7 21.5t9 16t12 6t13.5 -1.5t14 -3t18 -3t26.5 -1.5q42 0 72.5 13t52 40.5t36 69.5
t26.5 101l164 818h-128q-10 0 -15.5 6.5t-5.5 24.5q0 8 1 19.5t3.5 23.5t6.5 23t10 20t12.5 14.5t16.5 5.5h126l23 112q17 83 46.5 144t72 101.5t98 60.5t123.5 20q22 0 45.5 -2.5t44 -7t36.5 -10.5t22 -12q5 -5 8 -14t3 -19q0 -4 -1 -12.5t-2.5 -19t-4.5 -22.5t-7 -21.5
t-9 -15.5t-11 -6q-7 0 -17.5 4t-24.5 8.5t-33 8.5t-41 4q-44 0 -74.5 -13t-52 -40.5t-37 -69.5t-26.5 -99l-15 -79h404l25 123q32 166 109.5 246t185.5 80q78 0 99 -21q6 -6 8.5 -15t2.5 -19q0 -5 -1.5 -19.5t-5.5 -30.5t-10 -28t-16 -12q-15 0 -27.5 4t-35.5 4
q-60 0 -94 -53.5t-57 -168.5l-17 -90h519zM1693 1593q8 11 15.5 18t18.5 11.5t26.5 6t39.5 1.5q38 0 55 -6.5t17 -17.5q0 -10 -14 -22l-171 -171l-16 -16t-14 -9.5t-19.5 -5t-32.5 -1.5q-29 0 -41 4.5t-12 13.5t13 25zM1823 1216q-5 -27 -13 -45.5t-20.5 -29t-31 -15
t-45.5 -4.5q-51 0 -69 19.5t-7 74.5q8 54 32 74t76 20q53 0 69.5 -20t8.5 -74zM1519 1216q-8 -55 -33 -74.5t-76 -19.5q-27 0 -44 4.5t-26 15t-10 29t3 45.5q8 54 32 74t76 20q53 0 69.5 -20t8.5 -74z" />
    <glyph glyph-name="f_f_uni0268.liga" unicode="ff&#x268;" horiz-adv-x="1654" 
d="M431 814l-171 -852q-17 -84 -46 -145.5t-71 -102t-97 -60t-124 -19.5q-45 0 -73.5 7t-35.5 13q-4 5 -6 11t-2 16q0 4 1.5 13.5t3.5 20t5 22t7 21.5t9 16t12 6t13.5 -1.5t14 -3t18 -3t26.5 -1.5q42 0 72.5 13t52 40.5t36 69.5t26.5 101l164 818h-128q-10 0 -15.5 6.5
t-5.5 24.5q0 8 1 19.5t3.5 23.5t6.5 23t10 20t12.5 14.5t16.5 5.5h126l23 112q17 83 46.5 144t72 101.5t98 60.5t123.5 20q22 0 45.5 -2.5t44 -7t36.5 -10.5t22 -12q5 -5 8 -14t3 -19q0 -4 -1 -12.5t-2.5 -19t-4.5 -22.5t-7 -21.5t-9 -15.5t-11 -6q-7 0 -17.5 4t-24.5 8.5
t-33 8.5t-41 4q-44 0 -74.5 -13t-52 -40.5t-37 -69.5t-26.5 -99l-15 -79h405l24 123q17 83 46.5 144.5t71.5 102t97 60.5t124 20q23 0 45 -2.5t40 -7t31 -9.5t19 -11q5 -5 6 -13t1 -18q0 -3 -0.5 -11.5t-2.5 -19t-4.5 -22t-6.5 -21t-9 -16t-11 -6.5q-8 0 -17.5 3t-22 6.5
t-28.5 7t-38 3.5q-42 0 -71 -13t-50 -40.5t-35.5 -69.5t-26.5 -99l-17 -91h519q27 0 35.5 -13.5t5.5 -37.5l-174 -875q-3 -8 -7.5 -13.5t-15 -9.5t-27 -6t-40.5 -2q-25 0 -40.5 2t-24 6t-11 9.5t-0.5 13.5l157 789h-405l-164 -817q-18 -91 -47.5 -157.5t-72 -109.5t-99 -63
t-127.5 -20q-51 0 -87.5 7.5t-48.5 20.5q-9 8 -9 27q0 5 1 14.5t3 20.5t5 22.5t7.5 21t10 15.5t12.5 6t16.5 -2.5t22 -6t28.5 -6.5t36 -3q41 0 71 13t51.5 39t36.5 67t26 97l163 814h-405zM1673 1228q-5 -28 -13.5 -47t-22.5 -30.5t-34.5 -16.5t-50.5 -5t-48.5 5t-27.5 16.5
t-9.5 30.5t4.5 47q6 28 14.5 46.5t22 31t34.5 17t51 4.5q29 0 47.5 -4.5t27.5 -17t10 -31t-5 -46.5zM1198 448q-22 0 -22 32q0 8 2 24t7 32.5t14.5 29t24.5 12.5h436q11 0 18 -7t7 -26q0 -8 -2.5 -24.5t-8.5 -32.5t-15.5 -28t-23.5 -12h-437z" />
    <glyph glyph-name="t_uni01D0.liga" unicode="t&#x1d0;" horiz-adv-x="1141" 
d="M900 25q-2 -8 -7 -13.5t-15 -9.5t-26.5 -6t-40.5 -2t-40 2t-24.5 6t-11.5 9.5t-1 13.5l158 789h-465l-101 -502q-4 -21 -7 -47t-3 -43q0 -51 21.5 -74.5t69.5 -23.5q27 0 47 4.5t34.5 9.5t25.5 9.5t19 4.5t12.5 -5.5t4.5 -20.5q0 -13 -2.5 -28.5t-6.5 -30.5t-10 -27
t-13 -19q-8 -7 -24 -14t-37 -12.5t-44.5 -8.5t-46.5 -3q-56 0 -97 12t-69 37.5t-41.5 64t-13.5 92.5q0 12 1 26.5t3.5 30.5l5 32t5.5 30l101 506h-125q-11 0 -17 6.5t-6 25.5q0 14 3 32.5t9 34.5t15.5 27t22.5 11h126l43 214q1 7 6.5 13t15.5 10.5t26.5 6.5t40.5 2t40 -2
t24.5 -6.5t11 -10.5t0.5 -13l-43 -214h579q30 0 38.5 -13.5t2.5 -39.5zM1122 1117q-7 -8 -15 -13t-19.5 -7.5t-27 -4t-38.5 -1.5q-20 0 -34 1.5t-23 4.5t-14.5 8t-9.5 12l-119 229q-8 14 -10.5 25t2.5 17.5t19 10t41 3.5q20 0 32 -1.5t19 -5t11.5 -9t8.5 -14.5l95 -181
l166 181q7 9 14.5 14.5t17.5 9t23 5t32 1.5q26 0 41 -3.5t19 -10t-1.5 -17t-18.5 -25.5zM496 951z" />
    <glyph glyph-name="t_uni0209.liga" unicode="t&#x209;" horiz-adv-x="1141" 
d="M900 25q-2 -8 -7 -13.5t-15 -9.5t-26.5 -6t-40.5 -2t-40 2t-24.5 6t-11.5 9.5t-1 13.5l158 789h-465l-101 -502q-4 -21 -7 -47t-3 -43q0 -51 21.5 -74.5t69.5 -23.5q27 0 47 4.5t34.5 9.5t25.5 9.5t19 4.5t12.5 -5.5t4.5 -20.5q0 -13 -2.5 -28.5t-6.5 -30.5t-10 -27
t-13 -19q-8 -7 -24 -14t-37 -12.5t-44.5 -8.5t-46.5 -3q-56 0 -97 12t-69 37.5t-41.5 64t-13.5 92.5q0 12 1 26.5t3.5 30.5l5 32t5.5 30l101 506h-125q-11 0 -17 6.5t-6 25.5q0 14 3 32.5t9 34.5t15.5 27t22.5 11h126l43 214q1 7 6.5 13t15.5 10.5t26.5 6.5t40.5 2t40 -2
t24.5 -6.5t11 -10.5t0.5 -13l-43 -214h579q30 0 38.5 -13.5t2.5 -39.5zM919 1334q-22 26 -7.5 38t77.5 12q22 0 38 -1.5t27 -5t18 -9t12 -13.5l171 -258q11 -16 -0.5 -23t-49.5 -7q-34 0 -49.5 4.5t-25.5 16.5zM577 1335q-22 25 -7.5 37t70.5 12q26 0 43 -1.5t28 -4.5
t17.5 -8t11.5 -12l182 -262q19 -29 -51 -29q-33 0 -50 3.5t-29 17.5zM577 951z" />
    <glyph glyph-name="t_uni020B.liga" unicode="t&#x20b;" horiz-adv-x="1141" 
d="M900 25q-2 -8 -7 -13.5t-15 -9.5t-26.5 -6t-40.5 -2t-40 2t-24.5 6t-11.5 9.5t-1 13.5l158 789h-465l-101 -502q-4 -21 -7 -47t-3 -43q0 -51 21.5 -74.5t69.5 -23.5q27 0 47 4.5t34.5 9.5t25.5 9.5t19 4.5t12.5 -5.5t4.5 -20.5q0 -13 -2.5 -28.5t-6.5 -30.5t-10 -27
t-13 -19q-8 -7 -24 -14t-37 -12.5t-44.5 -8.5t-46.5 -3q-56 0 -97 12t-69 37.5t-41.5 64t-13.5 92.5q0 12 1 26.5t3.5 30.5l5 32t5.5 30l101 506h-125q-11 0 -17 6.5t-6 25.5q0 14 3 32.5t9 34.5t15.5 27t22.5 11h126l43 214q1 7 6.5 13t15.5 10.5t26.5 6.5t40.5 2t40 -2
t24.5 -6.5t11 -10.5t0.5 -13l-43 -214h579q30 0 38.5 -13.5t2.5 -39.5zM786 1117q0 11 4.5 36t16.5 56t33.5 64t55 60t81.5 44.5t112 17.5q65 0 108 -15.5t68.5 -41.5t36 -60.5t10.5 -73.5q0 -9 -1 -24t-3 -29.5t-5.5 -26.5t-8.5 -15q-7 -8 -21 -10.5t-33 -2.5
q-35 0 -45.5 5.5t-10.5 17.5q0 11 1.5 24.5t1.5 28.5q0 46 -22.5 76t-84.5 30q-60 0 -107 -35.5t-67 -116.5q-4 -16 -17 -23t-49 -7t-45 5.5t-9 15.5zM786 951z" />
    <glyph glyph-name="t_uni1E2D.liga" unicode="t&#x1e2d;" horiz-adv-x="1141" 
d="M900 25q-2 -8 -7 -13.5t-15 -9.5t-26.5 -6t-40.5 -2t-40 2t-24.5 6t-11.5 9.5t-1 13.5l158 789h-465l-101 -502q-4 -21 -7 -47t-3 -43q0 -51 21.5 -74.5t69.5 -23.5q27 0 47 4.5t34.5 9.5t25.5 9.5t19 4.5t12.5 -5.5t4.5 -20.5q0 -13 -2.5 -28.5t-6.5 -30.5t-10 -27
t-13 -19q-8 -7 -24 -14t-37 -12.5t-44.5 -8.5t-46.5 -3q-56 0 -97 12t-69 37.5t-41.5 64t-13.5 92.5q0 12 1 26.5t3.5 30.5l5 32t5.5 30l101 506h-125q-11 0 -17 6.5t-6 25.5q0 14 3 32.5t9 34.5t15.5 27t22.5 11h126l43 214q1 7 6.5 13t15.5 10.5t26.5 6.5t40.5 2t40 -2
t24.5 -6.5t11 -10.5t0.5 -13l-43 -214h579q30 0 38.5 -13.5t2.5 -39.5zM1158 1228q-5 -28 -13 -47t-22 -30.5t-35 -16.5t-51 -5q-29 0 -48 5t-28 16.5t-10 30.5t4 47q6 28 15 46.5t22.5 31t34 17t50.5 4.5t48.5 -4.5t28 -17t10 -31t-5.5 -46.5zM670 951zM1111 -162
q0 -6 -2 -24.5t-9 -44.5t-20.5 -54.5t-37 -52.5t-58.5 -39.5t-84 -15.5q-37 0 -65.5 9.5t-51.5 24.5t-42.5 32t-38 32t-37 24.5t-40.5 9.5q-40 0 -59 -29t-25 -77q-1 -7 -4 -12.5t-10 -8.5t-19 -4t-32 -1q-17 0 -27 1.5t-15 5t-7 9t-2 13.5q0 6 1.5 25t8.5 45t21 54t37 51.5
t57.5 39t83.5 15.5q37 0 65.5 -9.5t52 -24.5t43 -32t37.5 -32t36.5 -24.5t40.5 -9.5q35 0 57 26.5t28 78.5q1 16 13.5 21.5t46.5 5.5q37 0 47 -6.5t10 -21.5zM155 -538z" />
    <glyph glyph-name="t_uni1E2F.liga" unicode="t&#x1e2f;" horiz-adv-x="1141" 
d="M900 25q-2 -8 -7 -13.5t-15 -9.5t-26.5 -6t-40.5 -2t-40 2t-24.5 6t-11.5 9.5t-1 13.5l158 789h-465l-101 -502q-4 -21 -7 -47t-3 -43q0 -51 21.5 -74.5t69.5 -23.5q27 0 47 4.5t34.5 9.5t25.5 9.5t19 4.5t12.5 -5.5t4.5 -20.5q0 -13 -2.5 -28.5t-6.5 -30.5t-10 -27
t-13 -19q-8 -7 -24 -14t-37 -12.5t-44.5 -8.5t-46.5 -3q-56 0 -97 12t-69 37.5t-41.5 64t-13.5 92.5q0 12 1 26.5t3.5 30.5l5 32t5.5 30l101 506h-125q-11 0 -17 6.5t-6 25.5q0 14 3 32.5t9 34.5t15.5 27t22.5 11h126l43 214q1 7 6.5 13t15.5 10.5t26.5 6.5t40.5 2t40 -2
t24.5 -6.5t11 -10.5t0.5 -13l-43 -214h579q30 0 38.5 -13.5t2.5 -39.5zM1169 1593q8 11 15.5 18t18.5 11.5t26.5 6t39.5 1.5q38 0 55 -6.5t17 -17.5q0 -10 -14 -22l-171 -171l-16 -16t-14 -9.5t-19.5 -5t-32.5 -1.5q-29 0 -41 4.5t-12 13.5t13 25zM1329 1216
q-5 -27 -13 -45.5t-20.5 -29t-31 -15t-45.5 -4.5q-51 0 -69 19.5t-7 74.5q8 54 32 74t76 20q53 0 69.5 -20t8.5 -74zM975 1216q-8 -55 -33 -74.5t-76 -19.5q-27 0 -44 4.5t-26 15t-10 29t3 45.5q8 54 32 74t76 20q53 0 69.5 -20t8.5 -74zM789 951z" />
    <glyph glyph-name="t_uni0268.liga" unicode="t&#x268;" horiz-adv-x="1141" 
d="M900 25q-2 -8 -7 -13.5t-15 -9.5t-26.5 -6t-40.5 -2t-40 2t-24.5 6t-11.5 9.5t-1 13.5l158 789h-465l-101 -502q-4 -21 -7 -47t-3 -43q0 -51 21.5 -74.5t69.5 -23.5q27 0 47 4.5t34.5 9.5t25.5 9.5t19 4.5t12.5 -5.5t4.5 -20.5q0 -13 -2.5 -28.5t-6.5 -30.5t-10 -27
t-13 -19q-8 -7 -24 -14t-37 -12.5t-44.5 -8.5t-46.5 -3q-56 0 -97 12t-69 37.5t-41.5 64t-13.5 92.5q0 12 1 26.5t3.5 30.5l5 32t5.5 30l101 506h-125q-11 0 -17 6.5t-6 25.5q0 14 3 32.5t9 34.5t15.5 27t22.5 11h126l43 214q1 7 6.5 13t15.5 10.5t26.5 6.5t40.5 2t40 -2
t24.5 -6.5t11 -10.5t0.5 -13l-43 -214h579q30 0 38.5 -13.5t2.5 -39.5zM1158 1228q-5 -28 -13.5 -47t-22.5 -30.5t-34.5 -16.5t-50.5 -5t-48.5 5t-27 16.5t-9.5 30.5t4 47t13.5 46.5t23 31t34.5 17t50 4.5t48.5 -4.5t27.5 -17t10 -31t-5 -46.5zM687 448q-22 0 -22 32
q0 8 2 24t7 32.5t14.5 29t24.5 12.5h436q11 0 18 -7t7 -26q0 -8 -2.5 -24.5t-8.5 -32.5t-15.5 -28t-23.5 -12h-437z" />
    <glyph glyph-name="t_t_uni01D0.liga" unicode="tt&#x1d0;" horiz-adv-x="1753" 
d="M1513 25q-3 -8 -7.5 -13.5t-15 -9.5t-27 -6t-40.5 -2t-39.5 2t-24.5 6t-11.5 9.5t-0.5 13.5l158 789h-466l-100 -502q-5 -21 -7.5 -47t-2.5 -43q0 -51 21 -74.5t70 -23.5q27 0 46.5 4.5t34 9.5t25 9.5t19.5 4.5q8 0 12.5 -5.5t4.5 -20.5q0 -13 -2.5 -28.5t-6.5 -30.5
t-9.5 -27t-12.5 -19q-8 -7 -24 -14t-37.5 -12.5t-45 -8.5t-45.5 -3q-56 0 -98 12t-69.5 37.5t-41 64t-13.5 92.5q0 12 1.5 26.5t3.5 30.5t4.5 32t5.5 30l102 506h-447l-101 -502q-4 -21 -7 -47t-3 -43q0 -51 21.5 -74.5t69.5 -23.5q27 0 47 4.5t34.5 9.5t25.5 9.5t19 4.5
t12.5 -5.5t4.5 -20.5q0 -13 -2.5 -28.5t-6.5 -30.5t-10 -27t-13 -19q-8 -7 -24 -14t-37 -12.5t-44.5 -8.5t-46.5 -3q-56 0 -97 12t-69 37.5t-41.5 64t-13.5 92.5q0 12 1 26.5t3.5 30.5l5 32t5.5 30l101 506h-125q-11 0 -17 6.5t-6 25.5q0 14 3 32.5t9 34.5t15.5 27t22.5 11
h126l43 214q1 7 6.5 13t15.5 10.5t26.5 6.5t40.5 2t39.5 -2t24 -6.5t11 -10.5t1.5 -13l-43 -214h447l51 257q2 8 7 14t15.5 9.5t26.5 6t41 2.5q23 0 38.5 -2.5t24.5 -6t11.5 -9.5t1.5 -14l-51 -257h579q29 0 37.5 -13.5t3.5 -39.5zM1711 1117q-7 -8 -15 -13t-19.5 -7.5
t-27 -4t-38.5 -1.5q-20 0 -34 1.5t-23 4.5t-14.5 8t-9.5 12l-119 229q-8 14 -10.5 25t2.5 17.5t19 10t41 3.5q20 0 32 -1.5t19 -5t11.5 -9t8.5 -14.5l95 -181l166 181q7 9 14.5 14.5t17.5 9t23 5t32 1.5q26 0 41 -3.5t19 -10t-1.5 -17t-18.5 -25.5zM1085 951z" />
    <glyph glyph-name="t_t_uni0209.liga" unicode="tt&#x209;" horiz-adv-x="1753" 
d="M1513 25q-3 -8 -7.5 -13.5t-15 -9.5t-27 -6t-40.5 -2t-39.5 2t-24.5 6t-11.5 9.5t-0.5 13.5l158 789h-466l-100 -502q-5 -21 -7.5 -47t-2.5 -43q0 -51 21 -74.5t70 -23.5q27 0 46.5 4.5t34 9.5t25 9.5t19.5 4.5q8 0 12.5 -5.5t4.5 -20.5q0 -13 -2.5 -28.5t-6.5 -30.5
t-9.5 -27t-12.5 -19q-8 -7 -24 -14t-37.5 -12.5t-45 -8.5t-45.5 -3q-56 0 -98 12t-69.5 37.5t-41 64t-13.5 92.5q0 12 1.5 26.5t3.5 30.5t4.5 32t5.5 30l102 506h-447l-101 -502q-4 -21 -7 -47t-3 -43q0 -51 21.5 -74.5t69.5 -23.5q27 0 47 4.5t34.5 9.5t25.5 9.5t19 4.5
t12.5 -5.5t4.5 -20.5q0 -13 -2.5 -28.5t-6.5 -30.5t-10 -27t-13 -19q-8 -7 -24 -14t-37 -12.5t-44.5 -8.5t-46.5 -3q-56 0 -97 12t-69 37.5t-41.5 64t-13.5 92.5q0 12 1 26.5t3.5 30.5l5 32t5.5 30l101 506h-125q-11 0 -17 6.5t-6 25.5q0 14 3 32.5t9 34.5t15.5 27t22.5 11
h126l43 214q1 7 6.5 13t15.5 10.5t26.5 6.5t40.5 2t39.5 -2t24 -6.5t11 -10.5t1.5 -13l-43 -214h447l51 257q2 8 7 14t15.5 9.5t26.5 6t41 2.5q23 0 38.5 -2.5t24.5 -6t11.5 -9.5t1.5 -14l-51 -257h579q29 0 37.5 -13.5t3.5 -39.5zM1531 1334q-22 26 -7.5 38t77.5 12
q22 0 38 -1.5t27 -5t18 -9t12 -13.5l171 -258q11 -16 -0.5 -23t-49.5 -7q-34 0 -49.5 4.5t-25.5 16.5zM1189 1335q-22 25 -7.5 37t70.5 12q26 0 43 -1.5t28 -4.5t17.5 -8t11.5 -12l182 -262q19 -29 -51 -29q-33 0 -50 3.5t-29 17.5zM1189 951z" />
    <glyph glyph-name="t_t_uni020B.liga" unicode="tt&#x20b;" horiz-adv-x="1753" 
d="M1513 25q-3 -8 -7.5 -13.5t-15 -9.5t-27 -6t-40.5 -2t-39.5 2t-24.5 6t-11.5 9.5t-0.5 13.5l158 789h-466l-100 -502q-5 -21 -7.5 -47t-2.5 -43q0 -51 21 -74.5t70 -23.5q27 0 46.5 4.5t34 9.5t25 9.5t19.5 4.5q8 0 12.5 -5.5t4.5 -20.5q0 -13 -2.5 -28.5t-6.5 -30.5
t-9.5 -27t-12.5 -19q-8 -7 -24 -14t-37.5 -12.5t-45 -8.5t-45.5 -3q-56 0 -98 12t-69.5 37.5t-41 64t-13.5 92.5q0 12 1.5 26.5t3.5 30.5t4.5 32t5.5 30l102 506h-447l-101 -502q-4 -21 -7 -47t-3 -43q0 -51 21.5 -74.5t69.5 -23.5q27 0 47 4.5t34.5 9.5t25.5 9.5t19 4.5
t12.5 -5.5t4.5 -20.5q0 -13 -2.5 -28.5t-6.5 -30.5t-10 -27t-13 -19q-8 -7 -24 -14t-37 -12.5t-44.5 -8.5t-46.5 -3q-56 0 -97 12t-69 37.5t-41.5 64t-13.5 92.5q0 12 1 26.5t3.5 30.5l5 32t5.5 30l101 506h-125q-11 0 -17 6.5t-6 25.5q0 14 3 32.5t9 34.5t15.5 27t22.5 11
h126l43 214q1 7 6.5 13t15.5 10.5t26.5 6.5t40.5 2t39.5 -2t24 -6.5t11 -10.5t1.5 -13l-43 -214h447l51 257q2 8 7 14t15.5 9.5t26.5 6t41 2.5q23 0 38.5 -2.5t24.5 -6t11.5 -9.5t1.5 -14l-51 -257h579q29 0 37.5 -13.5t3.5 -39.5zM1398 1117q0 11 4.5 36t16.5 56t33.5 64
t55 60t81.5 44.5t112 17.5q65 0 108 -15.5t68.5 -41.5t36 -60.5t10.5 -73.5q0 -9 -1 -24t-3 -29.5t-5.5 -26.5t-8.5 -15q-7 -8 -21 -10.5t-33 -2.5q-35 0 -45.5 5.5t-10.5 17.5q0 11 1.5 24.5t1.5 28.5q0 46 -22.5 76t-84.5 30q-60 0 -107 -35.5t-67 -116.5q-4 -16 -17 -23
t-49 -7t-45 5.5t-9 15.5zM1398 951z" />
    <glyph glyph-name="t_t_uni1E2D.liga" unicode="tt&#x1e2d;" horiz-adv-x="1753" 
d="M1513 25q-3 -8 -7.5 -13.5t-15 -9.5t-27 -6t-40.5 -2t-39.5 2t-24.5 6t-11.5 9.5t-0.5 13.5l158 789h-466l-100 -502q-5 -21 -7.5 -47t-2.5 -43q0 -51 21 -74.5t70 -23.5q27 0 46.5 4.5t34 9.5t25 9.5t19.5 4.5q8 0 12.5 -5.5t4.5 -20.5q0 -13 -2.5 -28.5t-6.5 -30.5
t-9.5 -27t-12.5 -19q-8 -7 -24 -14t-37.5 -12.5t-45 -8.5t-45.5 -3q-56 0 -98 12t-69.5 37.5t-41 64t-13.5 92.5q0 12 1.5 26.5t3.5 30.5t4.5 32t5.5 30l102 506h-447l-101 -502q-4 -21 -7 -47t-3 -43q0 -51 21.5 -74.5t69.5 -23.5q27 0 47 4.5t34.5 9.5t25.5 9.5t19 4.5
t12.5 -5.5t4.5 -20.5q0 -13 -2.5 -28.5t-6.5 -30.5t-10 -27t-13 -19q-8 -7 -24 -14t-37 -12.5t-44.5 -8.5t-46.5 -3q-56 0 -97 12t-69 37.5t-41.5 64t-13.5 92.5q0 12 1 26.5t3.5 30.5l5 32t5.5 30l101 506h-125q-11 0 -17 6.5t-6 25.5q0 14 3 32.5t9 34.5t15.5 27t22.5 11
h126l43 214q1 7 6.5 13t15.5 10.5t26.5 6.5t40.5 2t39.5 -2t24 -6.5t11 -10.5t1.5 -13l-43 -214h447l51 257q2 8 7 14t15.5 9.5t26.5 6t41 2.5q23 0 38.5 -2.5t24.5 -6t11.5 -9.5t1.5 -14l-51 -257h579q29 0 37.5 -13.5t3.5 -39.5zM1723 -162q0 -6 -2 -24.5t-9 -44.5
t-20.5 -54.5t-37 -52.5t-58.5 -39.5t-84 -15.5q-37 0 -65.5 9.5t-51.5 24.5t-42.5 32t-38 32t-37 24.5t-40.5 9.5q-40 0 -59 -29t-25 -77q-1 -7 -4 -12.5t-10 -8.5t-19 -4t-32 -1q-17 0 -27 1.5t-15 5t-7 9t-2 13.5q0 6 1.5 25t8.5 45t21 54t37 51.5t57.5 39t83.5 15.5
q37 0 65.5 -9.5t52 -24.5t43 -32t37.5 -32t36.5 -24.5t40.5 -9.5q35 0 57 26.5t28 78.5q1 16 13.5 21.5t46.5 5.5q37 0 47 -6.5t10 -21.5zM767 -538zM1770 1228q-5 -28 -13 -47t-22 -30.5t-35 -16.5t-51 -5q-29 0 -48 5t-28 16.5t-10 30.5t4 47q6 28 15 46.5t22.5 31t34 17
t50.5 4.5t48.5 -4.5t28 -17t10 -31t-5.5 -46.5zM1282 951z" />
    <glyph glyph-name="t_t_uni1E2F.liga" unicode="tt&#x1e2f;" horiz-adv-x="1753" 
d="M1513 25q-3 -8 -7.5 -13.5t-15 -9.5t-27 -6t-40.5 -2t-39.5 2t-24.5 6t-11.5 9.5t-0.5 13.5l158 789h-466l-100 -502q-5 -21 -7.5 -47t-2.5 -43q0 -51 21 -74.5t70 -23.5q27 0 46.5 4.5t34 9.5t25 9.5t19.5 4.5q8 0 12.5 -5.5t4.5 -20.5q0 -13 -2.5 -28.5t-6.5 -30.5
t-9.5 -27t-12.5 -19q-8 -7 -24 -14t-37.5 -12.5t-45 -8.5t-45.5 -3q-56 0 -98 12t-69.5 37.5t-41 64t-13.5 92.5q0 12 1.5 26.5t3.5 30.5t4.5 32t5.5 30l102 506h-447l-101 -502q-4 -21 -7 -47t-3 -43q0 -51 21.5 -74.5t69.5 -23.5q27 0 47 4.5t34.5 9.5t25.5 9.5t19 4.5
t12.5 -5.5t4.5 -20.5q0 -13 -2.5 -28.5t-6.5 -30.5t-10 -27t-13 -19q-8 -7 -24 -14t-37 -12.5t-44.5 -8.5t-46.5 -3q-56 0 -97 12t-69 37.5t-41.5 64t-13.5 92.5q0 12 1 26.5t3.5 30.5l5 32t5.5 30l101 506h-125q-11 0 -17 6.5t-6 25.5q0 14 3 32.5t9 34.5t15.5 27t22.5 11
h126l43 214q1 7 6.5 13t15.5 10.5t26.5 6.5t40.5 2t39.5 -2t24 -6.5t11 -10.5t1.5 -13l-43 -214h447l51 257q2 8 7 14t15.5 9.5t26.5 6t41 2.5q23 0 38.5 -2.5t24.5 -6t11.5 -9.5t1.5 -14l-51 -257h579q29 0 37.5 -13.5t3.5 -39.5zM1781 1593q8 11 15.5 18t18.5 11.5t26.5 6
t39.5 1.5q38 0 55 -6.5t17 -17.5q0 -10 -14 -22l-171 -171l-16 -16t-14 -9.5t-19.5 -5t-32.5 -1.5q-29 0 -41 4.5t-12 13.5t13 25zM1941 1216q-5 -27 -13 -45.5t-20.5 -29t-31 -15t-45.5 -4.5q-51 0 -69 19.5t-7 74.5q8 54 32 74t76 20q53 0 69.5 -20t8.5 -74zM1587 1216
q-8 -55 -33 -74.5t-76 -19.5q-27 0 -44 4.5t-26 15t-10 29t3 45.5q8 54 32 74t76 20q53 0 69.5 -20t8.5 -74zM1401 951z" />
    <glyph glyph-name="t_t_uni0268.liga" unicode="tt&#x268;" horiz-adv-x="1753" 
d="M1513 25q-3 -8 -7.5 -13.5t-15 -9.5t-27 -6t-40.5 -2t-39.5 2t-24.5 6t-11.5 9.5t-0.5 13.5l158 789h-466l-100 -502q-5 -21 -7.5 -47t-2.5 -43q0 -51 21 -74.5t70 -23.5q27 0 46.5 4.5t34 9.5t25 9.5t19.5 4.5q8 0 12.5 -5.5t4.5 -20.5q0 -13 -2.5 -28.5t-6.5 -30.5
t-9.5 -27t-12.5 -19q-8 -7 -24 -14t-37.5 -12.5t-45 -8.5t-45.5 -3q-56 0 -98 12t-69.5 37.5t-41 64t-13.5 92.5q0 12 1.5 26.5t3.5 30.5t4.5 32t5.5 30l102 506h-447l-101 -502q-4 -21 -7 -47t-3 -43q0 -51 21.5 -74.5t69.5 -23.5q27 0 47 4.5t34.5 9.5t25.5 9.5t19 4.5
t12.5 -5.5t4.5 -20.5q0 -13 -2.5 -28.5t-6.5 -30.5t-10 -27t-13 -19q-8 -7 -24 -14t-37 -12.5t-44.5 -8.5t-46.5 -3q-56 0 -97 12t-69 37.5t-41.5 64t-13.5 92.5q0 12 1 26.5t3.5 30.5l5 32t5.5 30l101 506h-125q-11 0 -17 6.5t-6 25.5q0 14 3 32.5t9 34.5t15.5 27t22.5 11
h126l43 214q1 7 6.5 13t15.5 10.5t26.5 6.5t40.5 2t39.5 -2t24 -6.5t11 -10.5t1.5 -13l-43 -214h447l51 257q2 8 7 14t15.5 9.5t26.5 6t41 2.5q23 0 38.5 -2.5t24.5 -6t11.5 -9.5t1.5 -14l-51 -257h579q29 0 37.5 -13.5t3.5 -39.5zM1771 1228q-5 -28 -13.5 -47t-22.5 -30.5
t-34.5 -16.5t-50.5 -5t-49 5t-28 16.5t-10 30.5t4 47q6 28 15 46.5t22.5 31t34.5 17t51 4.5q29 0 47.5 -4.5t28 -17t10.5 -31t-5 -46.5zM1300 448q-22 0 -22 32q0 8 2 24t7 32.5t14.5 29t24.5 12.5h436q11 0 18 -7t7 -26q0 -8 -2.5 -24.5t-8.5 -32.5t-15.5 -28t-23.5 -12
h-437z" />
    <glyph glyph-name="f_f_uni0237.liga" unicode="ff&#x237;" horiz-adv-x="1655" 
d="M1404 -21q-16 -79 -40 -140.5t-62 -104.5t-93 -65t-132 -22q-32 0 -56.5 3t-41 7t-26.5 9t-13 8q-5 4 -7 10.5t-2 13.5t1.5 17.5t3.5 22t6 23.5t9 21t10.5 15t13.5 6q9 0 16 -2.5t17.5 -6.5t26.5 -6.5t42 -2.5q32 0 57.5 10t44.5 33t33.5 60t25.5 91l168 835h-405
l-165 -829q-18 -92 -48 -158t-72.5 -108.5t-99 -63t-127.5 -20.5q-51 0 -87.5 7.5t-48.5 20.5q-10 8 -10 28q0 7 2.5 23t7.5 33t12 30t17 13q7 0 17 -2.5t23 -6t28.5 -6.5t34.5 -3q42 0 72 13t51.5 39t36.5 66.5t26 96.5l165 827h-405l-171 -852q-17 -84 -46 -145.5
t-71 -102t-97 -60t-124 -19.5q-45 0 -73.5 7t-35.5 13q-4 5 -6 11t-2 16q0 4 1.5 13.5t3.5 20t5 22t7 21.5t9 16t12 6t13.5 -1.5t14 -3t18 -3t26.5 -1.5q42 0 72.5 13t52 40.5t36 69.5t26.5 101l164 818h-128q-10 0 -15.5 6.5t-5.5 24.5q0 8 1 19.5t3.5 23.5t6.5 23t10 20
t12.5 14.5t16.5 5.5h126l23 112q17 83 46.5 144t72 101.5t98 60.5t123.5 20q22 0 45.5 -2.5t44 -7t36.5 -10.5t22 -12q5 -5 8 -14t3 -19q0 -4 -1 -12.5t-2.5 -19t-4.5 -22.5t-7 -21.5t-9 -15.5t-11 -6q-7 0 -17.5 4t-24.5 8.5t-33 8.5t-41 4q-44 0 -74.5 -13t-52 -40.5
t-37 -69.5t-26.5 -99l-15 -79h405l24 123q17 83 46.5 144.5t71.5 102t97 60.5t124 20q23 0 45 -2.5t40 -7t31 -9.5t19 -11q5 -5 6 -13t1 -18q0 -3 -0.5 -11.5t-2.5 -19t-4.5 -22t-6.5 -21t-9 -16t-11 -6.5q-8 0 -17.5 3t-22 6.5t-28.5 7t-38 3.5q-42 0 -71 -13t-50 -40.5
t-35.5 -69.5t-26.5 -99l-17 -91h519q27 0 35.5 -13.5t5.5 -37.5z" />
    <glyph glyph-name=".notdef" horiz-adv-x="1038" 
d="M986 1294v-1294h-933v1294h933zM900 81v1132h-762v-1132h762zM773 898q0 -52 -15.5 -103.5t-50 -92.5t-89.5 -68t-133 -32l-36 -152q-2 -10 -17.5 -14t-42.5 -4q-14 0 -24 1t-16 3t-8.5 5t-1.5 9l32 188q5 27 20.5 38.5t38.5 11.5h8q61 0 100.5 18.5t62.5 48t32.5 64.5
t9.5 68q0 25 -7.5 46.5t-24 37.5t-43 25.5t-66.5 9.5t-72 -7.5t-55.5 -17t-39 -17.5t-22.5 -8q-10 0 -13 6t-3 20q0 5 1 14.5t3.5 20.5t6.5 20t10 15q8 7 28.5 16.5t49.5 18.5t63 14.5t68 5.5q68 0 115 -19t76 -49.5t42 -67.5t13 -73zM442 305q0 -8 -1.5 -19.5t-5 -24.5
t-9 -24.5t-12.5 -18.5q-10 -10 -26 -15t-38 -5t-35 3.5t-20 9.5t-9.5 14t-2.5 18q0 9 2 21t5.5 24t9.5 23t14 19q9 9 25 14t41 5q19 0 31.5 -3t19.5 -9t9 -14t2 -18zM0 -397z" />
    <glyph glyph-name="glyph1" 
 />
    <glyph glyph-name="glyph1" 
 />
    <glyph glyph-name="uni000D" unicode="&#xd;" 
 />
    <glyph glyph-name="space" unicode=" " horiz-adv-x="463" 
 />
    <glyph glyph-name="space" unicode="&#xa0;" horiz-adv-x="463" 
 />
    <glyph glyph-name="exclam" unicode="!" horiz-adv-x="667" 
d="M425 373q-1 -8 -6 -14t-15 -10t-24.5 -6t-35.5 -2q-22 0 -35 2t-20.5 6t-9.5 10t0 14l172 954q3 13 9 22t18 14.5t30 8t44 2.5q27 0 44 -2.5t26.5 -8.5t11.5 -15t-1 -21zM410 156q0 -14 -3 -33.5t-8.5 -39t-13 -37t-18.5 -27.5q-14 -15 -36 -22t-57 -7q-26 0 -43.5 4
t-27 11.5t-13 19.5t-3.5 27q0 13 2.5 32t7.5 39t13 38.5t18 29.5q16 16 37 21.5t54 5.5q29 0 47 -4.5t27.5 -12.5t13 -20t3.5 -25z" />
    <glyph glyph-name="quotedbl" unicode="&#x22;" horiz-adv-x="821" 
d="M729 902q-1 -8 -5.5 -14t-13 -10t-20.5 -6t-30 -2t-29.5 2t-18 6t-8.5 10t-1 14l72 463q1 8 6.5 14t17 10t28.5 6t40 2q48 0 65.5 -8t13.5 -24zM374 902q-1 -8 -5.5 -14t-12.5 -10t-21 -6t-31 -2t-29.5 2t-17.5 6t-8 10t-1 14l72 463q1 8 6.5 14t17 10t28.5 6t40 2
q48 0 65.5 -8t13.5 -24z" />
    <glyph glyph-name="numbersign" unicode="#" horiz-adv-x="1020" 
d="M1071 917q0 -9 -3 -25t-9 -31.5t-15.5 -27t-23.5 -11.5h-129l-109 -331h117q12 0 18.5 -9t6.5 -25q0 -11 -3 -27t-9 -31t-16 -25t-24 -10h-133l-109 -342q-6 -16 -24 -22t-63 -6q-23 0 -36.5 1.5t-20 5t-7.5 9t2 12.5l111 342h-278l-111 -342q-3 -8 -7 -13t-13 -8.5
t-23 -5t-37 -1.5t-37.5 1.5t-22 5t-9 9t0.5 12.5l111 342h-116q-24 0 -24 34q0 10 2 25.5t8 31t15.5 26t24.5 10.5h132l108 331h-120q-14 0 -20 9.5t-6 27.5q0 14 4 30t10.5 29.5t15.5 22.5t20 9h137l105 321q1 8 6.5 13.5t15.5 9t26 5t38 1.5q23 0 36.5 -2t19.5 -5.5t7 -9
t-1 -11.5l-105 -322h277l104 321q3 15 20.5 22t62.5 7q23 0 37 -2t20.5 -5.5t8 -9t-0.5 -11.5l-103 -322h115q13 0 19 -9.5t6 -23.5zM464 822l-108 -331h278l108 331h-278z" />
    <glyph glyph-name="dollar" unicode="$" horiz-adv-x="1038" 
d="M916 416q0 -80 -29.5 -153t-93 -129t-160 -92.5t-229.5 -41.5l-66 -217q-5 -13 -18 -20.5t-53 -7.5q-22 0 -35.5 2.5t-20.5 6t-8 10t2 14.5l66 217q-63 8 -116 24t-86 37q-23 15 -30.5 27t-7.5 34q0 5 1.5 16t3.5 22.5t5.5 24t8.5 22.5t11.5 16.5t14.5 6.5q12 0 33 -14
t57 -31.5t88 -31.5t128 -14q101 0 169 23t108.5 59t58 81t17.5 89q0 47 -22.5 78.5t-58.5 55.5t-83 42t-96 38t-96 43t-83 56t-58.5 80t-22.5 113q0 70 25 138t79 122t139 89.5t203 42.5l61 201q2 6 5.5 11.5t11 9.5t20.5 5.5t33 1.5q22 0 36 -2t21 -6.5t8 -10.5t-2 -14
l-61 -202q52 -9 100 -26.5t75 -37.5q19 -13 24 -22.5t5 -20.5q0 -7 -1.5 -18t-3.5 -23t-5.5 -25t-8 -23t-11 -16.5t-14.5 -6.5q-12 0 -31.5 13.5t-52 29t-80 29t-116.5 13.5q-79 0 -132.5 -21.5t-86.5 -55t-47 -74.5t-14 -81q0 -43 22.5 -73t59 -53t83.5 -41.5t96 -38
t96 -44t84 -59t59 -82.5t22 -115z" />
    <glyph glyph-name="percent" unicode="%" horiz-adv-x="1464" 
d="M740 1086q0 -35 -5.5 -82.5t-19.5 -98t-39 -99.5t-64 -88t-94 -62.5t-129 -23.5q-57 0 -100 15t-71 43t-42 69.5t-14 95.5q0 38 5.5 87t20.5 99.5t40 98.5t63.5 85t92.5 60.5t126 23.5q64 0 108.5 -17t71.5 -46.5t38.5 -70.5t11.5 -89zM600 1079q0 58 -22.5 88.5
t-82.5 30.5q-40 0 -70 -19.5t-51.5 -50.5t-35.5 -69t-22 -75t-11 -69.5t-3 -52.5q0 -64 25 -91.5t79 -27.5q40 0 70.5 19t52 49t35 67.5t21.5 75.5t11.5 70.5t3.5 54.5zM1374 439q0 -35 -5.5 -82.5t-19.5 -98t-39 -99.5t-64 -88t-94 -62.5t-129 -23.5q-57 0 -100 15t-71 43
t-42 69.5t-14 95.5q0 38 5.5 87t20.5 99.5t40 98.5t63.5 85t92.5 60.5t126 23.5q64 0 108.5 -17t71.5 -46.5t38.5 -70.5t11.5 -89zM1234 432q0 58 -22.5 88.5t-82.5 30.5q-40 0 -70 -19.5t-51.5 -50.5t-35.5 -69t-22 -75t-11 -69.5t-3 -52.5q0 -64 25 -91.5t79 -27.5
q40 0 70.5 19t52 49t35 67.5t21.5 75.5t11.5 70.5t3.5 54.5zM254 -8q-7 -9 -15 -13.5t-19.5 -8t-26 -5t-34.5 -1.5q-44 0 -53 14.5t12 37.5l1158 1289q8 8 16 13.5t19 8.5t25.5 4.5t34.5 1.5q22 0 35.5 -3.5t18 -10.5t1.5 -17t-14 -21z" />
    <glyph glyph-name="ampersand" unicode="&#x26;" horiz-adv-x="1397" 
d="M904 134q-97 -70 -209 -111t-235 -41q-89 0 -160 20.5t-120.5 59.5t-76 94t-26.5 122q0 62 20 122.5t63 117.5t110.5 110.5t162.5 101.5q-28 51 -46 94.5t-27.5 79.5t-13.5 64.5t-4 49.5q0 33 8.5 71t27.5 75.5t50 71.5t77 60.5t108.5 42t143.5 15.5q94 0 157 -19.5
t101.5 -51.5t55 -72t16.5 -80q0 -59 -20 -113t-69 -107t-132 -108t-209 -114q32 -53 62.5 -97.5t62.5 -85.5t65.5 -81t71.5 -82q55 63 91.5 131.5t50.5 122.5t16.5 72t7 25.5t14.5 12t25.5 6.5t40.5 2q44 0 60 -5.5t16 -18.5t-9 -55.5t-25 -92t-42 -102t-61 -103.5t-78 -96
q64 -61 105.5 -88.5t72.5 -27.5q21 0 28 -6t6 -21q0 -7 -2 -21t-6 -29.5t-9 -29t-12 -20.5t-24 -11.5t-36 -4.5t-42.5 8t-53 25.5t-66.5 46.5t-83 71zM585 801q102 48 165 89t98 78t47.5 71t12.5 68q0 16 -7 35.5t-25 36.5t-48.5 28t-79.5 11q-69 0 -113 -19.5t-70.5 -49
t-37.5 -63t-11 -61.5q0 -19 3 -41t10.5 -49.5t20.5 -60t35 -73.5zM504 612q-59 -31 -105 -65t-77 -72.5t-47.5 -82t-16.5 -93.5q0 -33 11 -65t38 -57t71 -40t110 -15q40 0 81.5 8.5t81.5 23t76 35t67 44.5q-42 46 -79.5 90.5t-73 90.5t-69.5 95t-68 103zM0 1294z" />
    <glyph glyph-name="quotesingle" unicode="'" horiz-adv-x="452" 
d="M376 902q-3 -15 -19 -23.5t-52 -8.5q-18 0 -29.5 2t-18 6t-8.5 10t-1 14l72 463q1 16 24 24t69 8q48 0 66 -8t14 -24z" />
    <glyph glyph-name="parenleft" unicode="(" horiz-adv-x="621" 
d="M681 1378q-109 -165 -185 -327.5t-123.5 -317.5t-69.5 -300.5t-22 -275.5q0 -53 3.5 -111.5t10 -118t17 -118t24.5 -109.5q3 -12 2.5 -20.5t-7.5 -14t-22 -8t-40 -2.5q-17 0 -29.5 1t-21 4t-13 7t-6.5 9q-37 115 -59.5 244.5t-22.5 279.5q0 129 20.5 268t68.5 288
t127 308.5t196 327.5q4 7 10.5 12t17 8.5t26.5 5t39 1.5t37 -3t21.5 -8t7.5 -13t-7 -17z" />
    <glyph glyph-name="parenright" unicode=")" horiz-adv-x="621" 
d="M-31 -304q109 164 185 326.5t123.5 318.5t69.5 301t22 275q0 53 -3.5 111.5t-10 118t-17 117.5t-24.5 110q-3 11 -2 19.5t7.5 14.5t21.5 8.5t40 2.5q18 0 30.5 -1.5t21 -4t12.5 -6.5t6 -10q37 -114 60 -243.5t23 -280.5q0 -129 -20.5 -267.5t-69 -287.5t-127 -308.5
t-195.5 -328.5q-5 -6 -11.5 -11t-17 -8.5t-26.5 -5t-39 -1.5t-37 3t-21 8t-7 12.5t6 17.5z" />
    <glyph glyph-name="asterisk" unicode="*" horiz-adv-x="1020" 
d="M982 1229q16 -40 13 -60t-18 -26l-261 -105l215 -109q13 -5 10 -21.5t-31 -53.5q-31 -41 -46.5 -48.5t-26.5 2.5l-185 153l-24 -262q0 -15 -17 -23t-61 -8q-47 0 -62.5 8t-9.5 23l81 262l-235 -153q-18 -13 -32.5 -2.5t-29.5 48.5q-16 41 -13 61t18 25l263 107l-211 101
q-9 4 -13 10t-3 15.5t8.5 23t22.5 32.5q15 20 26.5 32t20.5 16.5t17 3t15 -8.5l176 -149l25 261q1 16 18 24t61 8q48 0 63 -8t10 -24l-83 -261l243 156q14 9 28 -1t28 -49z" />
    <glyph glyph-name="plus" unicode="+" horiz-adv-x="1020" 
d="M976 609q0 -6 -1.5 -16t-4 -22t-7 -24t-10.5 -21.5t-14.5 -15.5t-18.5 -6h-328l-74 -364q-1 -8 -6 -13.5t-14.5 -9.5t-24 -6.5t-35.5 -2.5q-20 0 -34 2.5t-21.5 6.5t-10.5 9.5t-2 13.5l74 364h-328q-12 0 -19.5 8.5t-7.5 29.5q0 6 1 16.5t3.5 22.5t7 23.5t10 21t14 15.5
t18.5 6h329l73 364q2 8 7 14.5t14.5 11t24.5 7t35 2.5q21 0 34.5 -2.5t21.5 -7t10.5 -11t0.5 -14.5l-73 -364h329q13 0 20 -9.5t7 -28.5z" />
    <glyph glyph-name="comma" unicode="," horiz-adv-x="511" 
d="M310 172q0 -57 -25.5 -114.5t-72.5 -113.5l-179 -206q-13 -15 -34 -21.5t-58 -6.5q-18 0 -29 2.5t-15 6.5t-2.5 12t8.5 19l188 275l23 118q5 27 13 43t20.5 24t31 11t46.5 3q25 0 41.5 -2.5t26 -9t13.5 -16t4 -24.5z" />
    <glyph glyph-name="hyphen" unicode="-" horiz-adv-x="627" 
d="M569 540q0 -6 -0.5 -16t-3.5 -21.5t-7 -23t-9.5 -21.5t-14 -16t-18.5 -6h-419q-13 0 -19 9t-6 27q0 5 1 14.5t3.5 21t6.5 23.5t10 21.5t13.5 15t18.5 5.5h419q14 0 19.5 -9t5.5 -24z" />
    <glyph glyph-name="hyphen" unicode="&#x2010;" horiz-adv-x="627" 
d="M569 540q0 -6 -0.5 -16t-3.5 -21.5t-7 -23t-9.5 -21.5t-14 -16t-18.5 -6h-419q-13 0 -19 9t-6 27q0 5 1 14.5t3.5 21t6.5 23.5t10 21.5t13.5 15t18.5 5.5h419q14 0 19.5 -9t5.5 -24z" />
    <glyph glyph-name="hyphen" unicode="&#xad;" horiz-adv-x="627" 
d="M569 540q0 -6 -0.5 -16t-3.5 -21.5t-7 -23t-9.5 -21.5t-14 -16t-18.5 -6h-419q-13 0 -19 9t-6 27q0 5 1 14.5t3.5 21t6.5 23.5t10 21.5t13.5 15t18.5 5.5h419q14 0 19.5 -9t5.5 -24z" />
    <glyph glyph-name="period" unicode="." horiz-adv-x="517" 
d="M298 153q0 -14 -2.5 -33t-7.5 -39t-12.5 -37t-19.5 -29t-34 -18t-56 -6q-28 0 -46 4t-28 13.5t-14 23t-4 30.5q0 16 2.5 35.5t8 38.5t13 35.5t19 28t32 18t58.5 6.5q29 0 46.5 -5t27.5 -14.5t13.5 -22.5t3.5 -29z" />
    <glyph glyph-name="slash" unicode="/" horiz-adv-x="794" 
d="M33 -241q-7 -13 -15.5 -20.5t-20.5 -11.5t-27.5 -6t-36.5 -2q-27 0 -44 3.5t-24.5 10t-7 16t8.5 22.5l937 1659q7 13 15.5 20.5t20 12t27.5 6t37 1.5q26 0 43 -3.5t24.5 -9.5t7.5 -16t-7 -23z" />
    <glyph glyph-name="zero" unicode="0" horiz-adv-x="1038" 
d="M1033 925q0 -44 -5.5 -107.5t-18 -137t-32.5 -152.5t-49 -154t-68.5 -143t-90.5 -118q-59 -60 -142.5 -96t-195.5 -36q-94 0 -161 25.5t-110 75t-63 122t-20 165.5q0 44 5.5 107.5t18 137t32.5 152t49.5 154t68.5 143t90 118.5q31 31 67.5 56t79 41.5t90.5 25.5t102 9
q95 0 162 -26t109.5 -75.5t62 -122t19.5 -164.5zM858 923q0 127 -47.5 188t-151.5 61q-59 0 -106.5 -20.5t-87.5 -59.5q-40 -40 -71 -99t-55 -127.5t-40 -141t-26.5 -140t-15.5 -123t-5 -90.5q0 -127 48 -188t151 -61q60 0 107.5 20.5t86.5 59.5t70.5 98.5t55.5 128
t40.5 141t27 139.5t15 123t4.5 91z" />
    <glyph glyph-name="one" unicode="1" horiz-adv-x="1038" 
d="M851 102q0 -6 -1.5 -16.5t-4 -22t-6.5 -22.5t-10 -20.5t-13.5 -15t-16.5 -5.5h-677q-12 0 -19.5 10t-7.5 27q0 5 1.5 14.5t4 20.5t7 23t10.5 21t14 15.5t18 6.5h270l195 974l-281 -148q-16 -8 -26 -10.5t-16.5 0.5t-9 11t-2.5 20q0 11 2.5 27.5t8 33t14.5 31.5t23 23
l337 191q5 3 11.5 5t15.5 4t21.5 2.5t29.5 0.5q25 0 40.5 -2t24 -5.5t10 -9t0.5 -11.5l-226 -1137h234q14 0 19.5 -9.5t5.5 -26.5z" />
    <glyph glyph-name="two" unicode="2" horiz-adv-x="1038" 
d="M850 105q0 -6 -1.5 -17t-4.5 -22.5t-7.5 -23.5t-11 -21t-14.5 -15t-18 -6h-715q-13 0 -22 3t-14 8.5t-7.5 13t-2.5 17.5t1.5 26t7.5 35t18 38.5t33 37.5l333 292q78 68 134.5 127.5t95 111t61.5 95t36 79.5t17 65.5t4 52.5q0 24 -7.5 51.5t-26 51.5t-52.5 40t-86 16
q-57 0 -109 -17t-94 -37.5t-70.5 -38t-39.5 -17.5q-10 0 -16 10t-6 29q0 8 1.5 17.5t3 20.5t5 22t8 21t10 19.5t12.5 16.5q11 11 43.5 29t78.5 35t102 29.5t116 12.5q96 0 159 -27t99.5 -68t51 -89t14.5 -91q0 -41 -6 -84t-23.5 -90.5t-49 -100.5t-82 -114.5t-122 -133
t-170.5 -155.5l-250 -214h552q17 0 24 -12.5t7 -28.5z" />
    <glyph glyph-name="three" unicode="3" horiz-adv-x="1038" 
d="M896 413q0 -49 -12.5 -100t-39.5 -99t-68.5 -90.5t-100 -74t-133.5 -50t-170 -18.5q-50 0 -94.5 6t-84 16.5t-72 25t-58.5 31.5q-15 9 -21.5 21.5t-6.5 28.5q0 6 1 16.5t3 22.5t5 25.5t7.5 24t11 17t14.5 6.5q9 0 32.5 -15.5t61.5 -34t89.5 -34t118.5 -15.5
q84 0 145.5 26t101.5 66.5t59.5 90t19.5 98.5q0 40 -14.5 75t-46 60.5t-82 40.5t-121.5 15h-139q-16 0 -24.5 8.5t-8.5 27.5q0 7 1.5 18t4.5 21.5t7.5 21.5t11 20t14.5 14t19 5h113q74 0 136 22.5t106.5 62t69.5 91.5t25 111q0 71 -40.5 112t-134.5 41q-57 0 -109 -17.5
t-94 -38t-71.5 -38.5t-41.5 -18q-9 0 -14 8.5t-5 23.5q0 8 2 23t6.5 32t12 33t17.5 26q11 11 43 29.5t78 36t103.5 30t118.5 12.5q79 0 138.5 -18.5t98.5 -53t58.5 -84t19.5 -110.5q0 -70 -22.5 -131.5t-64 -109.5t-98.5 -82.5t-125 -49.5v-2q66 -7 112.5 -31.5t75.5 -60
t42 -79t13 -88.5z" />
    <glyph glyph-name="four" unicode="4" horiz-adv-x="1038" 
d="M963 401q0 -8 -1.5 -18t-4.5 -22t-7.5 -23.5t-11 -20.5t-14.5 -14.5t-17 -5.5h-146l-54 -272q-2 -8 -7 -13.5t-16 -9.5t-27.5 -6t-40.5 -2q-25 0 -40.5 2t-24 6t-11.5 9.5t0 13.5l53 272h-534q-20 0 -27.5 9t-7.5 27q0 7 1 18t3.5 24t6.5 27.5t9 28.5t11.5 27t15.5 24
l624 787q6 8 17.5 14t28 10t39.5 5.5t54 1.5q33 0 56.5 -2.5t38.5 -6.5t21.5 -10.5t5.5 -15.5l-166 -826h146q15 0 21 -10.5t6 -27.5zM762 1140h-2l-555 -701h418z" />
    <glyph glyph-name="five" unicode="5" horiz-adv-x="1038" 
d="M913 493q0 -64 -15.5 -127t-46 -120t-77.5 -105.5t-110 -84t-142.5 -55.5t-176.5 -20q-44 0 -86 5.5t-79 14.5t-68.5 21t-55.5 24q-14 7 -20.5 17.5t-6.5 26.5q0 6 1 16.5t3.5 23t6 25t8.5 23.5t11.5 18t15.5 7q10 0 30 -12.5t53.5 -27t82 -27.5t115.5 -13
q93 0 163.5 29.5t117 78t69.5 112t23 134.5q0 35 -12.5 67t-44 56t-82.5 37.5t-128 13.5q-72 0 -121.5 -6t-88.5 -6q-27 0 -36 13t-2 50l106 527q6 33 24.5 49t47.5 16h573q14 0 21 -9t7 -28q0 -7 -1.5 -18t-4.5 -24t-7.5 -25.5t-10.5 -22.5t-14.5 -16.5t-19.5 -6.5h-483
l-72 -363q35 4 64.5 6t66.5 2q110 0 186.5 -23.5t124.5 -63.5t69.5 -94.5t21.5 -114.5z" />
    <glyph glyph-name="six" unicode="6" horiz-adv-x="1038" 
d="M956 514q0 -55 -12.5 -116.5t-38 -120.5t-65.5 -112.5t-98 -94.5t-133.5 -65t-171.5 -24q-91 0 -153.5 26.5t-102.5 73.5t-57.5 112.5t-17.5 143.5q0 39 5 101t17.5 138.5t35 160t59 165t87.5 156t120.5 131t160 90t203.5 33.5q65 0 117.5 -10t90.5 -24
q24 -10 32.5 -20.5t8.5 -28.5q0 -7 -1 -16.5t-3 -20.5t-5.5 -22t-8 -20t-11 -14.5t-15.5 -5.5q-11 0 -27.5 7t-42.5 15.5t-62.5 15.5t-85.5 7q-94 0 -168 -38t-129.5 -101t-94 -145.5t-59.5 -173.5q58 31 133.5 54t170.5 23q87 0 147.5 -22t99.5 -59.5t57 -88.5t18 -110z
M780 492q0 37 -10.5 68t-33 53t-59.5 33.5t-88 11.5q-37 0 -75.5 -6t-75.5 -17.5t-71 -27t-64 -33.5q-14 -69 -19.5 -125t-5.5 -101q0 -123 48.5 -175.5t140.5 -52.5q53 0 97 16.5t79 45t60.5 66t42.5 79t25.5 84t8.5 81.5z" />
    <glyph glyph-name="seven" unicode="7" horiz-adv-x="1038" 
d="M1097 1257q0 -12 -2.5 -29.5t-7 -37.5t-13.5 -41.5t-22 -41.5l-681 -1073q-8 -13 -17.5 -20.5t-23 -12t-32 -6t-44.5 -1.5q-34 0 -53 3t-27 10t-6 16t10 22l709 1098h-616q-14 0 -20.5 10t-6.5 27q0 6 1 17.5t4 24t7.5 25.5t11 23.5t15 17t19.5 6.5h754q27 0 34 -10.5
t7 -26.5z" />
    <glyph glyph-name="eight" unicode="8" horiz-adv-x="1038" 
d="M930 374q0 -45 -12 -92t-37.5 -91t-65.5 -82t-96.5 -66.5t-130 -45t-166.5 -16.5q-97 0 -168 20.5t-117 56.5t-68.5 85t-22.5 105q0 68 24 127t71 110.5t116 96.5t158 85q-98 56 -142 122t-44 149q0 45 11.5 90t35 86.5t60 77.5t87 63t115 42.5t145.5 15.5q101 0 166 -24
t103.5 -60.5t53.5 -80t15 -84.5q0 -66 -23.5 -123t-65 -105.5t-101 -89t-132.5 -75.5q62 -34 106 -68t71.5 -70.5t40.5 -75.5t13 -83zM849 1043q0 25 -9.5 49.5t-31 44t-57 31t-87.5 11.5q-70 0 -120 -20.5t-82 -52t-47 -72t-15 -78.5q0 -32 6.5 -58t24.5 -50.5t51.5 -49.5
t88.5 -56q66 31 117.5 63.5t87 70t54.5 79t19 88.5zM754 360q0 32 -11 60.5t-36 56.5t-65.5 56.5t-97.5 60.5q-95 -42 -157 -81t-99 -78t-52 -79.5t-15 -85.5q0 -30 11 -58.5t37 -50t69.5 -34t108.5 -12.5q81 0 139 21t95.5 55.5t55 78.5t17.5 90z" />
    <glyph glyph-name="nine" unicode="9" horiz-adv-x="1038" 
d="M157 780q0 55 12 116.5t37.5 120.5t65.5 112.5t98 94.5t133.5 65t171.5 24q91 0 153.5 -26.5t102.5 -73.5t57.5 -112.5t17.5 -142.5q0 -39 -4.5 -101.5t-17 -138.5t-35.5 -160.5t-60 -166.5t-89.5 -156t-124.5 -130.5t-166 -90t-213 -33.5q-33 0 -63.5 3t-57.5 8.5
t-51 12.5t-43 14q-23 10 -31.5 20t-8.5 28q0 5 1 15.5t3 21.5t5.5 22t8 20t11 14.5t15.5 5.5q11 0 29.5 -7t46.5 -16t66 -16t87 -7q101 0 177 36.5t132.5 99t95 145.5t62.5 176q-59 -31 -134 -54t-170 -23q-86 0 -147 21.5t-99.5 59.5t-56 89t-17.5 110zM332 802
q0 -37 10 -68t33 -53t59.5 -34t88.5 -12q37 0 75.5 6.5t75 18t70.5 26.5t64 33q13 69 19.5 126t6.5 101q0 123 -48.5 176.5t-140.5 53.5q-53 0 -97 -16.5t-78.5 -45.5t-60.5 -66.5t-43 -79.5t-25.5 -84.5t-8.5 -81.5z" />
    <glyph glyph-name="colon" unicode=":" horiz-adv-x="548" 
d="M464 800q-6 -32 -15.5 -54t-24 -35.5t-36 -19.5t-52.5 -6q-30 0 -49 6t-28.5 19.5t-10 35.5t6.5 54q6 33 15 55.5t23 36t35.5 19.5t52.5 6q30 0 49.5 -6t29.5 -19.5t10.5 -36t-6.5 -55.5zM325 106q-5 -32 -14.5 -54t-24.5 -35.5t-36.5 -19.5t-52.5 -6t-50 5t-28.5 18
t-9.5 35.5t6 56.5q6 32 15 54.5t23.5 36t35.5 19.5t51 6q32 0 51.5 -6t28.5 -19.5t10 -36t-5 -54.5z" />
    <glyph glyph-name="semicolon" unicode=";" horiz-adv-x="548" 
d="M464 801q-6 -33 -15 -55t-23.5 -35t-36 -19.5t-53.5 -6.5q-31 0 -50 6t-28 19t-9.5 35t6.5 56q7 36 17 59t24 35.5t35.5 17t51.5 4.5q32 0 51.5 -6.5t28 -20t8.5 -36t-7 -53.5zM337 172q0 -57 -26 -114.5t-73 -113.5l-178 -204q-7 -8 -15 -13t-19 -8.5t-24.5 -5.5
t-32.5 -2t-29.5 2.5t-14.5 7t-2 12t9 18.5l187 274l24 118q5 27 12.5 43t19.5 24t30.5 11t46.5 3q25 0 41.5 -2.5t26 -9t13.5 -16t4 -24.5z" />
    <glyph glyph-name="less" unicode="&#x3c;" horiz-adv-x="1020" 
d="M1030 1026q0 -22 -4.5 -45t-12.5 -42.5t-20 -35t-26 -21.5l-705 -311l579 -311q26 -15 26 -40q0 -13 -2 -28t-5 -30t-7.5 -28.5t-11 -23t-14 -13t-16.5 1.5l-710 398q-7 4 -10.5 13.5t-3.5 27.5q0 12 2.5 30t8 35.5t15 32t22.5 20.5l858 393q20 9 28.5 3t8.5 -26z" />
    <glyph glyph-name="equal" unicode="=" horiz-adv-x="1020" 
d="M911 416q0 -6 -1 -16t-3.5 -22t-6.5 -23.5t-10.5 -21t-15 -15.5t-18.5 -6h-754q-13 0 -21 9t-8 29q0 11 3 28.5t9.5 34t17 28.5t26.5 12h755q14 0 20.5 -10t6.5 -27zM989 805q0 -7 -1 -17t-3.5 -21t-6.5 -23t-10.5 -21.5t-15 -16t-19.5 -6.5h-754q-12 0 -20 9t-8 30
q0 11 3 28t9.5 33.5t17 28.5t26.5 12h755q14 0 20.5 -9.5t6.5 -26.5z" />
    <glyph glyph-name="greater" unicode="&#x3e;" horiz-adv-x="1020" 
d="M34 124q0 22 5 45t13 43t20 35t26 21l705 311l-580 313q-25 13 -25 39q0 12 1.5 27.5t4.5 30.5t8 28.5t11 23t14 13t17 -1.5l709 -399q7 -4 11 -13.5t4 -25.5q0 -12 -2.5 -30t-8.5 -35.5t-15 -32.5t-22 -21l-858 -394q-20 -9 -29 -2.5t-9 25.5z" />
    <glyph glyph-name="question" unicode="?" horiz-adv-x="949" 
d="M964 1049q0 -81 -24.5 -157t-76 -136.5t-131.5 -99.5t-191 -46l-54 -239q-4 -15 -23 -22.5t-58 -7.5q-21 0 -35.5 1.5t-23 5t-11.5 9.5t-1 14l48 277q4 23 11.5 37.5t19 24t25.5 13t33 3.5h6q87 0 146 27.5t96 71t53.5 97t16.5 105.5q0 45 -13 83.5t-38.5 66t-64.5 43.5
t-93 16q-60 0 -107.5 -13.5t-82.5 -30t-57.5 -29.5t-34.5 -13q-10 0 -14 8.5t-4 30.5q0 10 1.5 24.5t5.5 28.5t10 26.5t14 20.5q13 13 44 28t72.5 27.5t88.5 21t91 8.5q65 0 116.5 -12t91 -33.5t67.5 -52t46.5 -66.5t26.5 -77t8 -84zM472 156q0 -14 -3 -33.5t-8 -39t-13 -37
t-17 -27.5q-16 -15 -37.5 -22t-55.5 -7q-27 0 -44 4t-26.5 11.5t-13.5 19.5t-4 27q0 13 2.5 32t7.5 39t13 38.5t19 29.5q16 16 37 21.5t54 5.5q28 0 45.5 -4.5t27.5 -12.5t13 -20t3 -25z" />
    <glyph glyph-name="at" unicode="@" horiz-adv-x="1831" 
d="M1701 853q0 -55 -9.5 -127.5t-32 -149t-58.5 -151t-88 -132.5t-121 -93t-158 -35q-46 0 -82.5 12t-61.5 35.5t-36.5 57t-8.5 76.5q-30 -44 -69.5 -78t-81.5 -57t-83.5 -34.5t-78.5 -11.5q-39 0 -69.5 8t-53 23t-38 36t-25 47.5t-14 56t-4.5 63.5q0 51 11 112.5
t34.5 124.5t58.5 122.5t84 105.5t111 74t138 28q33 0 61.5 -7.5t54 -24t48 -40.5t44.5 -57l27 89q5 14 19.5 21t51.5 7t50 -7t8 -21l-138 -433q-32 -104 -14.5 -151.5t84.5 -47.5q47 0 87 26.5t72 71t56 101.5t40 118t24 121.5t8 110.5q0 69 -20 132.5t-71 112.5t-137 78
t-219 29q-131 0 -235.5 -32t-185 -85t-138.5 -122.5t-99 -146t-66.5 -154t-40 -147.5t-19.5 -127t-5 -89q0 -50 7.5 -99t27 -94t54.5 -83t89.5 -66.5t132.5 -44.5t184 -16q76 0 136.5 9t104.5 19t71 18.5t35 8.5q11 0 15 -7.5t4 -22.5q0 -12 -2.5 -26t-6.5 -28t-10 -25.5
t-13 -19.5q-7 -7 -37.5 -17t-78 -19.5t-110.5 -15.5t-135 -6q-125 0 -219.5 20t-163.5 55.5t-114.5 84.5t-73 106.5t-38.5 121t-11 129.5q0 45 7 114t26 151.5t51.5 173t83.5 177.5t123 166.5t169 139t222 95t282 35.5q152 0 261.5 -35t179.5 -97.5t103 -149.5t33 -191z
M1110 707q-30 63 -65.5 96t-85.5 33q-45 0 -83 -21.5t-69 -56t-54 -79t-39 -90t-24 -89.5t-8 -77q0 -65 23 -95t74 -30q34 0 78 23.5t86 64t77.5 94t53.5 114.5zM0 1294z" />
    <glyph glyph-name="A" unicode="A" horiz-adv-x="1185" 
d="M1060 61q3 -22 1.5 -35.5t-11 -20.5t-29.5 -9t-54 -2q-22 0 -38 1.5t-24.5 5t-12.5 9.5t-5 15l-48 315h-539l-169 -312q-5 -10 -11.5 -16.5t-18 -10.5t-30 -5.5t-45.5 -1.5q-30 0 -48 2.5t-25 9.5t-4 20.5t14 35.5l674 1202q7 11 15 18t21 11t33 5.5t49 1.5
q33 0 53.5 -1.5t33 -5.5t17.5 -11.5t7 -18.5zM723 1122h-1l-350 -645h448z" />
    <glyph glyph-name="B" unicode="B" horiz-adv-x="1114" 
d="M1051 1042q0 -61 -16.5 -115.5t-47 -100.5t-74 -81t-98.5 -58q42 -8 78.5 -29t62.5 -52.5t40.5 -74.5t14.5 -95q0 -53 -14 -106.5t-42.5 -102t-71 -90t-99.5 -72.5t-127.5 -48t-163.5 -17h-343q-33 0 -49.5 16.5t-7.5 53.5l230 1154q7 39 32 54.5t52 15.5h278
q99 0 166 -16.5t111.5 -48.5t66.5 -79t22 -108zM868 1011q0 33 -11 59t-35.5 44.5t-62 29t-98.5 10.5h-182l-83 -419h195q79 0 130 26t83.5 66.5t48 89.5t15.5 94zM829 424q0 83 -59 128.5t-182 45.5h-221l-90 -456h241q82 0 138.5 23.5t94.5 62t58 89.5t20 107z" />
    <glyph glyph-name="C" unicode="C" horiz-adv-x="1070" 
d="M1145 1162q0 -21 -7 -52t-18.5 -49t-24.5 -18q-14 0 -33 18.5t-51 40t-82.5 40t-126.5 18.5q-84 0 -153 -31.5t-124.5 -85t-97.5 -123.5t-69.5 -146.5t-41.5 -154.5t-14 -148q0 -80 20 -142.5t58 -105.5t93 -65t125 -22q78 0 134.5 17.5t97 39t67.5 39t44 17.5
q11 0 16 -8t5 -24q0 -5 -1.5 -14.5t-3.5 -20.5t-4.5 -24t-6.5 -24.5t-8.5 -21t-15 -19.5t-44 -29.5t-82 -37t-109 -30t-128.5 -12.5q-102 0 -184 30.5t-139.5 90t-89 148t-31.5 203.5q0 95 20 195.5t59 195.5t97.5 179t136 147.5t174.5 100t213 36.5q73 0 136.5 -16.5
t108.5 -41.5t65 -44.5t20 -45.5z" />
    <glyph glyph-name="D" unicode="D" horiz-adv-x="1260" 
d="M1221 828q0 -65 -9 -135.5t-28.5 -141t-50.5 -138.5t-75.5 -129.5t-103 -113.5t-133.5 -90t-167 -59t-221 -21h-287q-13 0 -24.5 3.5t-19.5 11.5t-11 21.5t2 33.5l230 1154q7 39 30.5 54.5t53.5 15.5h273q149 0 247 -31.5t163.5 -91.5t98 -146.5t32.5 -196.5zM1039 813
q0 74 -20.5 136t-64.5 106.5t-112.5 70t-181.5 25.5h-180l-201 -1007h178q122 0 204 29.5t145 80t107 117.5t72 141t41 151.5t13 149.5z" />
    <glyph glyph-name="E" unicode="E" horiz-adv-x="1000" 
d="M1038 1261q0 -5 -0.5 -15.5t-3 -22.5t-6 -25t-9.5 -23.5t-14.5 -17t-18.5 -6.5h-505l-82 -406h435q12 0 18 -8t6 -24q0 -5 -1.5 -15.5t-3.5 -23t-6 -24.5t-9.5 -21.5t-13.5 -16t-18 -6.5h-434l-94 -463h515q10 0 16.5 -8t6.5 -25q0 -6 -1 -17t-3.5 -23t-6 -24.5t-9.5 -23
t-14.5 -16.5t-18.5 -6h-622q-11 0 -21.5 3.5t-18 12t-10.5 22t2 32.5l231 1154q7 39 31 54.5t47 15.5h613q23 0 23 -33z" />
    <glyph glyph-name="F" unicode="F" horiz-adv-x="941" 
d="M1006 1260q0 -6 -0.5 -16t-3 -22.5t-6.5 -25.5t-10 -24t-14 -17.5t-18 -6.5h-473l-88 -440h448q12 0 17.5 -8.5t5.5 -23.5q0 -8 -1 -18.5t-3.5 -22t-6.5 -24.5t-10 -23t-14 -16.5t-18 -6.5h-447l-108 -539q-1 -8 -6.5 -14t-16 -9.5t-27.5 -6t-42 -2.5t-41.5 2.5t-25.5 6
t-12 9.5t-1 14l240 1198q7 39 31 54.5t47 15.5h581q14 0 18.5 -9.5t4.5 -24.5z" />
    <glyph glyph-name="G" unicode="G" horiz-adv-x="1292" 
d="M1279 1153q0 -7 -1.5 -17.5t-4 -22t-6.5 -24t-9 -22t-11 -15t-13 -5.5q-15 0 -40.5 18t-68 40.5t-103.5 41t-146 18.5q-89 0 -166.5 -26.5t-142.5 -73t-116 -110t-86.5 -138t-54 -156.5t-18.5 -166q0 -88 25.5 -155.5t73.5 -113.5t116 -69.5t152 -23.5q62 0 129.5 14.5
t125.5 44.5l75 375h-299q-12 0 -18.5 8.5t-6.5 24.5q0 7 1.5 18.5t4 23.5t7 24t10.5 21.5t13.5 15t16.5 5.5h411q28 0 40.5 -19t5.5 -51l-100 -498q-4 -19 -10.5 -30.5t-14.5 -20.5q-9 -9 -45.5 -26.5t-92 -35.5t-125 -31.5t-145.5 -13.5q-130 0 -229 33.5t-166 97.5
t-102 155t-35 206q0 107 24.5 210.5t70.5 196.5t113.5 172t155 136t192.5 90t227 33q70 0 131 -12.5t109 -30t81 -38.5t45 -32t16 -21t4 -25z" />
    <glyph glyph-name="H" unicode="H" horiz-adv-x="1276" 
d="M1016 25q-2 -7 -7.5 -13t-16 -9.5t-27 -6t-42.5 -2.5q-24 0 -40 2.5t-25.5 6t-12.5 9.5t0 13l114 575h-589l-114 -575q-2 -7 -7 -13t-16 -9.5t-28 -6t-41 -2.5q-26 0 -42 2.5t-25 6t-12 9.5t-1 13l248 1244q1 7 7 13t17 9.5t27.5 6t41.5 2.5q24 0 40.5 -2.5t25.5 -6
t11.5 -9.5t1.5 -13l-103 -519h588l104 519q1 7 6.5 13t16.5 9.5t27.5 6t42.5 2.5q24 0 40 -2.5t25.5 -6t12 -9.5t0.5 -13z" />
    <glyph glyph-name="I" unicode="I" horiz-adv-x="516" 
d="M256 25q-1 -7 -6.5 -13t-16.5 -9.5t-28 -6t-41 -2.5q-26 0 -42 2.5t-25 6t-12 9.5t-1 13l248 1244q1 7 7.5 13t17.5 9.5t27.5 6t40.5 2.5t40 -2.5t25.5 -6t12.5 -9.5t1 -13z" />
    <glyph glyph-name="J" unicode="J" horiz-adv-x="653" 
d="M454 312q-14 -71 -39 -131.5t-65 -104.5t-96.5 -69t-134.5 -25q-47 0 -86 7.5t-65.5 20t-33 23t-6.5 24.5q0 7 1.5 19t4 25t7 27t9.5 25t11 18.5t13 7.5q11 0 22 -7.5t26.5 -16t37.5 -16t54 -7.5q38 0 65 10t46.5 33.5t33.5 60.5t25 92l188 941q1 7 7 13t17 10t27.5 6
t41.5 2q23 0 39 -2t25 -5.5t13 -9.5t3 -14z" />
    <glyph glyph-name="K" unicode="K" horiz-adv-x="1064" 
d="M1151 1267q0 -13 -10.5 -28t-32.5 -36l-537 -524l339 -603q9 -17 12.5 -27.5t3.5 -18.5q0 -9 -4 -16t-13.5 -11t-27 -6.5t-44.5 -2.5q-28 0 -45.5 2t-28 5.5t-16 10t-9.5 15.5l-354 646l-128 -647q-1 -8 -6.5 -14t-16.5 -9.5t-28 -6t-41 -2.5q-25 0 -41.5 2.5t-25.5 6
t-12 9.5t-1 14l248 1243q1 7 7 13t17 9.5t28 6t41 2.5t40.5 -2.5t25.5 -6t12 -9.5t2 -13l-115 -576l566 574q8 9 17.5 15.5t22 10t30.5 5.5t42 2q26 0 42 -2.5t25 -6.5t12.5 -10t3.5 -14z" />
    <glyph glyph-name="L" unicode="L" horiz-adv-x="861" 
d="M769 115q0 -5 -1.5 -16t-4 -24t-6 -26t-9.5 -24t-14 -18t-18 -7h-573q-12 0 -22.5 3.5t-18.5 12t-11 22t2 32.5l239 1199q1 7 7 13t17 9.5t28 6t41 2.5t40.5 -2.5t25.5 -6t12 -9.5t1 -13l-223 -1120h464q13 0 18.5 -9t5.5 -25z" />
    <glyph glyph-name="M" unicode="M" horiz-adv-x="1751" 
d="M1491 25q-2 -7 -7 -13t-15 -9.5t-26.5 -6t-41.5 -2.5q-24 0 -40 2.5t-25 6t-11.5 9.5t-0.5 13l225 1127h-2l-689 -1131q-8 -14 -29 -20.5t-61 -6.5q-41 0 -58 7.5t-18 19.5l-215 1132h-2l-225 -1128q-2 -7 -7 -13t-15 -9.5t-26.5 -6t-41.5 -2.5q-24 0 -40 2.5t-24.5 6
t-11 9.5t-0.5 13l237 1191q4 20 13 35t21 24.5t25.5 14t27.5 4.5h100q32 0 53.5 -6.5t36 -19.5t22.5 -33t12 -48l187 -935h5l578 935q15 27 30 46.5t33.5 33t41 20.5t50.5 7h114q15 0 27 -4.5t20.5 -14t11 -24t-1.5 -35.5z" />
    <glyph glyph-name="N" unicode="N" horiz-adv-x="1320" 
d="M1068 71q-3 -20 -12 -34t-20.5 -23t-24.5 -13t-26 -4h-65q-26 0 -44 6t-31.5 20.5t-24 38t-22.5 58.5l-243 690q-25 74 -49.5 147.5t-47.5 147.5h-2q-13 -82 -28 -163t-31 -162l-150 -754q-2 -8 -7.5 -14t-16 -9.5t-27 -6t-39.5 -2.5t-38.5 2.5t-23.5 6t-10.5 9.5
t-0.5 14l238 1194q8 40 33.5 57t51.5 17h79q24 0 42 -5t31 -18t23 -33.5t22 -52.5l245 -699q23 -65 45.5 -130t44.5 -131h2q14 82 30.5 170t32.5 170l141 701q2 8 7 13.5t15 9.5t25.5 6t39.5 2q23 0 38.5 -2t24 -6t11.5 -9.5t2 -13.5z" />
    <glyph glyph-name="O" unicode="O" horiz-adv-x="1340" 
d="M1298 860q0 -77 -14 -172t-47 -193t-87.5 -190.5t-134.5 -164t-190 -115.5t-252 -44q-114 0 -200 28.5t-143.5 85t-86.5 139.5t-29 192q0 86 15 185t49.5 197.5t90 189.5t136 161.5t188.5 112t248 41.5q113 0 198.5 -29.5t143 -87t86.5 -142t29 -194.5zM1114 848
q0 70 -16 128.5t-51 100.5t-93 65.5t-140 23.5q-104 0 -182.5 -38.5t-136 -100.5t-95 -140.5t-60 -158.5t-32 -155t-9.5 -130q0 -71 15.5 -128.5t51.5 -98.5t93.5 -63.5t140.5 -22.5q103 0 181 37.5t135 98.5t95 138.5t61 157t32.5 154.5t9.5 132z" />
    <glyph glyph-name="P" unicode="P" horiz-adv-x="1058" 
d="M1064 990q0 -53 -12.5 -111t-39.5 -113.5t-68.5 -105t-100.5 -87.5t-135.5 -59.5t-180.5 -21.5h-178l-93 -467q-2 -7 -7 -13t-16.5 -9.5t-28 -6t-41.5 -2.5q-23 0 -39 2t-25.5 5.5t-13 9.5t-1.5 14l238 1195q8 40 33 57t58 17h255q50 0 88.5 -3.5t74.5 -11.5
q54 -12 97.5 -37t73.5 -61.5t46 -84.5t16 -106zM882 972q0 62 -30.5 106.5t-94.5 62.5q-24 7 -53 9t-62 2h-162l-102 -519h163q71 0 120 16t86 42t62.5 61t41.5 72.5t23.5 76t7.5 71.5z" />
    <glyph glyph-name="Q" unicode="Q" horiz-adv-x="1360" 
d="M1289 -74q0 -8 -1.5 -20t-4.5 -25t-7.5 -25.5t-10.5 -22.5t-13 -16t-16 -6q-8 0 -28 6t-47.5 18t-62 31.5t-72 46.5t-75.5 61t-75 76q-62 -34 -136.5 -51.5t-167.5 -17.5q-114 0 -199.5 28.5t-143 85t-86.5 139.5t-29 192q0 86 14.5 185t49 197.5t90 189.5t136 161.5
t188.5 112t248 41.5q113 0 198.5 -29.5t143 -87t86.5 -142t29 -194.5q0 -50 -5.5 -110t-19 -123.5t-35.5 -129.5t-53 -129.5t-73.5 -121.5t-98.5 -109q56 -54 101.5 -86t80 -50t56 -27t28 -15t9 -12.5t2.5 -20.5zM1113 848q0 70 -16 128.5t-51 100.5t-92.5 65.5t-140.5 23.5
q-104 0 -182.5 -38.5t-135.5 -100.5t-95 -140.5t-60.5 -158.5t-32 -155t-9.5 -130q0 -71 15.5 -128.5t51.5 -98.5t94 -63.5t141 -22.5q102 0 180 37.5t135 98.5t95.5 138.5t61 157t32 154.5t9.5 132z" />
    <glyph glyph-name="R" unicode="R" horiz-adv-x="1112" 
d="M1062 1023q0 -69 -19.5 -131t-59 -114t-99 -92.5t-138.5 -65.5q53 -19 86 -80t51 -161l53 -286q3 -19 5.5 -35.5t2.5 -29.5q0 -9 -5 -15.5t-16 -10.5t-30.5 -6t-47.5 -2q-26 0 -42 2t-24.5 7t-12 12.5t-5.5 20.5l-51 304q-8 53 -22.5 96t-40.5 74.5t-66.5 49t-98.5 17.5
h-115l-111 -552q-2 -7 -7 -13t-16 -9.5t-28 -6t-42 -2.5q-23 0 -39.5 2t-25.5 5.5t-12.5 9.5t-1.5 14l240 1199q8 39 32 54.5t53 15.5h281q92 0 161.5 -18t116.5 -52.5t70.5 -85t23.5 -115.5zM876 996q0 34 -12 63t-37.5 50t-67 32t-98.5 11h-179l-88 -436h152
q89 0 151.5 24t102 63.5t58 89.5t18.5 103z" />
    <glyph glyph-name="S" unicode="S" horiz-adv-x="926" 
d="M921 1196q0 -8 -1 -18.5t-3.5 -22t-6 -24t-8.5 -22t-11.5 -15.5t-14.5 -6q-11 0 -30.5 13t-50 27.5t-72.5 27.5t-97 13q-61 0 -107 -18.5t-77 -50t-46.5 -71.5t-15.5 -83q0 -44 19.5 -77t51 -60t72 -51t82.5 -49t83 -53.5t72.5 -66t51 -86t19.5 -112.5q0 -85 -35 -159.5
t-99.5 -130t-155.5 -88t-203 -32.5q-61 0 -113.5 10.5t-94.5 26t-71 32t-42 29.5t-13 38q0 6 1.5 17t4.5 24t6.5 25.5t9 23t12 17t15.5 6.5q16 0 40 -16t59.5 -34.5t84.5 -34.5t115 -16q70 0 125 19.5t92.5 53t57.5 78.5t20 96q0 45 -19 78.5t-50 60.5t-71.5 50t-82 48
t-81.5 53.5t-71 66t-50.5 86t-19.5 113.5q0 79 31 148t88 121t138 82t181 30q48 0 91.5 -8t78.5 -19.5t60 -25t34 -22.5t13 -18.5t4 -23.5z" />
    <glyph glyph-name="T" unicode="T" horiz-adv-x="998" 
d="M1139 1259q0 -6 -0.5 -16.5t-3 -22.5t-6.5 -25.5t-10 -23.5t-14.5 -16.5t-18.5 -6.5h-364l-225 -1122q-2 -8 -7.5 -14t-16 -9.5t-27.5 -6t-42 -2.5t-41 2.5t-25 6t-12 9.5t-1 14l224 1122h-362q-14 0 -19 9t-5 25q0 7 1.5 17.5t4 23.5t6.5 25t10 22.5t13.5 17t17.5 6.5
h900q13 0 18 -9.5t5 -25.5z" />
    <glyph glyph-name="U" unicode="U" horiz-adv-x="1314" 
d="M1145 471q-24 -122 -76 -214t-127 -153t-169 -92t-204 -31q-116 0 -201.5 31.5t-137 94t-67.5 155.5t9 216l158 790q1 8 6.5 14t16.5 9.5t27.5 6t41.5 2.5t41 -2.5t25.5 -6t12 -9.5t0.5 -14l-157 -788q-17 -88 -9.5 -154t38.5 -110t85.5 -66t130.5 -22q75 0 138.5 23
t113 67.5t84 110t51.5 149.5l158 790q1 8 6.5 14t16 9.5t27 6t41.5 2.5q24 0 40 -2.5t25.5 -6t12.5 -9.5t2 -14z" />
    <glyph glyph-name="V" unicode="V" horiz-adv-x="1162" 
d="M608 30q-7 -11 -15 -18t-21 -11t-33 -5.5t-50 -1.5q-32 0 -53 1.5t-33 5.5t-17.5 11.5t-6.5 18.5l-183 1210q-3 19 -2.5 31t9 18t26 8t48.5 2q30 0 47.5 -1.5t27.5 -5.5t13.5 -11t5.5 -17l151 -1088h1l577 1089q5 10 11.5 16.5t17.5 10.5t29.5 5.5t48.5 1.5q31 0 49 -2.5
t25 -9.5t4 -20.5t-15 -35.5z" />
    <glyph glyph-name="W" unicode="W" horiz-adv-x="1823" 
d="M1325 37q-6 -14 -15.5 -22.5t-24.5 -13t-36 -6t-50 -1.5q-31 0 -52 1.5t-34 6t-19 12.5t-7 21l-77 980h-2l-442 -978q-5 -14 -14.5 -22.5t-22.5 -13t-34.5 -6t-52.5 -1.5q-34 0 -56 1.5t-35.5 6t-19.5 13.5t-7 23l-103 1199q-2 20 -0.5 33t10 19.5t26 8.5t49.5 2
q25 0 45.5 -2t29.5 -7t12 -14t3 -23l72 -1074h2l494 1082q5 11 11.5 18.5t17.5 11.5t29.5 6t49.5 2q27 0 43 -1.5t25 -6t11.5 -12t3.5 -18.5l82 -1082h2l502 1086q4 10 10 16.5t17.5 10.5t30 5.5t46.5 1.5q29 0 46 -2.5t24 -9.5t4 -20.5t-12 -35.5z" />
    <glyph glyph-name="X" unicode="X" horiz-adv-x="1063" 
d="M681 661l242 -598q7 -22 7.5 -35.5t-9 -21t-30 -10t-55.5 -2.5q-29 0 -46 1.5t-26.5 5.5t-13.5 9.5t-7 14.5l-196 519l-392 -519q-7 -9 -14.5 -15t-19.5 -9.5t-31 -5t-48 -1.5q-33 0 -53.5 2.5t-28 10t-2.5 20.5t21 35l479 604l-221 566q-8 22 -7.5 35t10.5 20.5t31 10
t55 2.5q27 0 43.5 -1.5t26 -6.5t14.5 -12.5t9 -19.5l176 -473l365 482q7 8 14 14.5t19 10t30 5t47 1.5q33 0 53.5 -2.5t28 -10t3 -20.5t-19.5 -35z" />
    <glyph glyph-name="Y" unicode="Y" horiz-adv-x="998" 
d="M592 503l-95 -478q-2 -7 -7.5 -13t-16.5 -9.5t-28 -6t-41 -2.5q-25 0 -41 2.5t-25 6t-12 9.5t-2 13l96 478l-220 730q-6 22 -7.5 35t6.5 20t26.5 9.5t53.5 2.5q27 0 44 -1.5t27 -6.5t14.5 -12.5t8.5 -20.5l103 -355q18 -62 32 -119.5t27 -119.5h2q36 60 73 119t78 119
l245 361q6 10 13.5 17t19.5 11.5t30 6t48 1.5q36 0 55 -3.5t24.5 -11.5t-0.5 -21t-19 -31z" />
    <glyph glyph-name="Z" unicode="Z" horiz-adv-x="959" 
d="M998 1294q20 0 32 -11.5t12 -31.5q0 -12 -4.5 -38t-9.5 -44q-3 -9 -6.5 -17t-10.5 -18t-17.5 -24.5t-27.5 -34.5l-774 -930h625q13 0 18 -8.5t5 -24.5q0 -6 -1 -16.5t-3 -23t-5.5 -25.5t-9 -23.5t-13.5 -17t-19 -6.5h-765q-24 0 -36 13.5t-12 32.5q0 6 1.5 17t4 23
t5.5 24t6 19t7 15.5t11 18.5t17.5 24t26.5 32l774 931h-584q-25 0 -25 35q0 5 1 15.5t3.5 22.5t6 25t9.5 23t15 16.5t20 6.5h723z" />
    <glyph glyph-name="bracketleft" unicode="[" horiz-adv-x="628" 
d="M717 1371q0 -6 -1.5 -15t-3.5 -19t-5.5 -21t-8.5 -19.5t-11.5 -14t-14.5 -5.5h-163l-295 -1476h163q10 0 15 -7.5t5 -20.5q0 -7 -1 -16t-3.5 -19.5t-6 -21t-8.5 -19t-11.5 -13t-14.5 -4.5h-256q-12 0 -22 3.5t-17.5 11.5t-10.5 21.5t2 33.5l315 1579q8 39 31.5 54.5
t47.5 15.5h255q20 0 20 -28z" />
    <glyph glyph-name="backslash" unicode="\" horiz-adv-x="787" 
d="M642 -223q2 -17 0.5 -27t-10 -15t-25 -7t-42.5 -2t-42 1.5t-25 4t-12.5 8.5t-5.5 14l-273 1659q-3 17 -1.5 27t10.5 15t25.5 6.5t43.5 1.5q26 0 41 -1t23.5 -4.5t11.5 -8.5t5 -13z" />
    <glyph glyph-name="bracketright" unicode="]" horiz-adv-x="628" 
d="M294 -250q-7 -40 -30.5 -55t-46.5 -15h-256q-9 0 -14.5 7.5t-5.5 21.5q0 6 1.5 15t3 19t5.5 20.5t9 19t11.5 13.5t14.5 5h162l295 1476h-162q-11 0 -16 7t-5 20q0 6 1 15.5t3 20t5.5 21.5t8.5 19t11.5 13.5t16.5 5.5h255q12 0 22.5 -3.5t18 -12t10 -22t-0.5 -32.5z" />
    <glyph glyph-name="asciicircum" unicode="^" horiz-adv-x="1020" 
d="M931 624q6 -19 4.5 -30.5t-10.5 -17.5t-27.5 -7.5t-46.5 -1.5q-27 0 -43.5 1.5t-25.5 5.5t-13 10t-5 14l-123 551l-3 -3l-328 -548q-6 -8 -13.5 -14t-20 -10t-30 -5.5t-43.5 -1.5q-28 0 -44.5 1.5t-23 8t-3 17.5t14.5 30l413 648q6 9 15 15.5t22.5 10.5t31.5 6t43 2
t42.5 -2t29 -6t18 -10.5t8.5 -15.5z" />
    <glyph glyph-name="underscore" unicode="_" horiz-adv-x="1020" 
d="M875 -267q0 -6 -1 -15.5t-3.5 -20t-6.5 -21.5t-10 -20.5t-13 -15t-17 -5.5h-963q-13 0 -18 9.5t-5 23.5q0 6 1 15.5t3 20t6 22t9.5 21.5t13 15.5t17.5 5.5h962q13 0 19 -9.5t6 -25.5z" />
    <glyph glyph-name="grave" unicode="`" horiz-adv-x="596" 
d="M607 1134q7 -11 8.5 -19t-4 -13t-19 -8t-35.5 -3q-20 0 -33 1t-22 4.5t-16 10t-14 16.5l-171 233q-7 9 -7.5 17.5t7 15t25 10t46.5 3.5q24 0 40 -1.5t27 -5.5t18.5 -11.5t14.5 -18.5zM0 951z" />
    <glyph glyph-name="a" unicode="a" horiz-adv-x="1053" 
d="M812 25q-4 -17 -22 -24t-60 -7q-20 0 -33 2t-21 5.5t-11 9t0 14.5l33 170q-13 -32 -47 -70t-80.5 -70t-103.5 -53t-116 -21q-80 0 -132.5 28t-83.5 74t-42.5 104t-11.5 119q0 56 10.5 127t34 145t61 144t90.5 125.5t123 89t159 33.5t152.5 -36t113.5 -99l19 91
q4 16 23 23t59 7q20 0 33.5 -1.5t21.5 -5.5t10 -10t1 -13zM781 690q-47 69 -101.5 103.5t-122.5 34.5q-54 0 -97.5 -25.5t-77 -67.5t-58 -95.5t-40 -110.5t-23 -112t-7.5 -99q0 -35 5.5 -69.5t21 -63t42.5 -46t70 -17.5q55 0 110.5 30.5t103.5 84.5t85 127t55 161z" />
    <glyph glyph-name="b" unicode="b" horiz-adv-x="1053" 
d="M976 644q0 -60 -11 -132.5t-35.5 -146t-61.5 -143t-90.5 -123t-123 -86t-156.5 -32.5q-90 0 -154 34t-114 98l-18 -88q-2 -17 -21.5 -24t-59.5 -7q-42 0 -56 8t-10 23l266 1336q2 8 6.5 14t15 10t27 6t41.5 2q24 0 39 -2t24 -6t11 -10t1 -14l-80 -402q-5 -26 -12 -54
t-14.5 -55.5t-15 -52t-13.5 -42.5q16 35 50.5 72.5t81 69t101.5 52.5t111 21q60 0 103 -16t73 -42.5t48.5 -60.5t28.5 -70t14 -71.5t4 -65.5zM803 630q0 27 -5 62t-19.5 65t-42 50.5t-73.5 20.5q-54 0 -110 -31t-104 -85.5t-85.5 -128t-54.5 -160.5l-33 -166
q47 -69 101 -102t122 -33q52 0 94 24t76 64t59 91.5t41.5 108t25 113.5t8.5 107z" />
    <glyph glyph-name="c" unicode="c" horiz-adv-x="852" 
d="M854 846q0 -18 -3.5 -37t-10.5 -35.5t-16.5 -27.5t-21.5 -11q-14 0 -29 14.5t-39.5 32.5t-62 33t-95.5 15q-64 0 -113.5 -26.5t-86 -69t-60.5 -96.5t-39 -109t-21.5 -106.5t-6.5 -89.5q0 -103 45 -156t134 -53q65 0 111.5 16t79 36.5t53.5 36.5t37 16q8 0 12.5 -7.5
t4.5 -21.5q0 -12 -2 -28.5t-6.5 -34t-11 -32.5t-18.5 -27.5t-42 -30.5t-69.5 -32.5t-85.5 -24t-95 -9.5q-161 0 -240.5 82t-79.5 244q0 61 10.5 133.5t35.5 146t64 142.5t96 122.5t132 85.5t172 32q40 0 77 -6.5t69.5 -17.5t59 -27.5t41 -29.5t18 -22t3.5 -20z" />
    <glyph glyph-name="d" unicode="d" horiz-adv-x="1053" 
d="M813 25q-3 -17 -21 -24t-60 -7q-21 0 -34 2t-21 5.5t-10.5 9t-0.5 14.5l32 168q-13 -33 -47 -70.5t-80.5 -69t-103.5 -52t-116 -20.5t-102.5 15.5t-73 41.5t-48 60.5t-29 71t-14 73.5t-3.5 68q0 58 11 130t35 144.5t61.5 142t90.5 123t122.5 86.5t157.5 33q43 0 81 -9.5
t69 -26t57 -39.5t47 -48l102 510q1 7 6 13.5t15 10t26 6t41 2.5q24 0 39.5 -2.5t24.5 -6t11.5 -10t0.5 -13.5zM781 687q-47 69 -101.5 105t-122.5 36q-53 0 -95.5 -24.5t-76.5 -65.5t-58.5 -94t-40.5 -109.5t-24 -111.5t-8 -101q0 -97 33 -148.5t106 -51.5q55 0 110.5 30
t103.5 83t85 126t55 160z" />
    <glyph glyph-name="e" unicode="e" horiz-adv-x="978" 
d="M925 741q0 -69 -32 -124t-100 -94t-174 -60t-254 -21h-106q-7 -33 -9.5 -64t-2.5 -58q0 -100 49.5 -153t160.5 -53q64 0 115 9.5t88.5 20.5t61.5 20.5t33 9.5t13.5 -6.5t4.5 -18.5q0 -10 -2 -24t-6 -28.5t-10.5 -27.5t-14.5 -22q-12 -12 -42.5 -23.5t-72.5 -21t-92 -15.5
t-100 -6q-89 0 -156 20t-111.5 61.5t-66.5 103.5t-22 146q0 65 12.5 139.5t39.5 147.5t70 140t102.5 118t137.5 82t176 31q84 0 142.5 -21t96 -54t54.5 -73.5t17 -80.5zM756 726q0 51 -40 82.5t-114 31.5q-65 0 -115 -22.5t-88.5 -60.5t-66 -88.5t-44.5 -106.5h102
q105 0 175.5 13t113 35.5t60 52.5t17.5 63z" />
    <glyph glyph-name="f" unicode="f" horiz-adv-x="625" 
d="M817 1335q0 -4 -1 -12.5t-2.5 -19t-4.5 -22t-7 -21.5t-9 -16t-11 -6q-7 0 -17.5 4t-24.5 8.5t-33 8.5t-42 4q-43 0 -73.5 -13t-52.5 -40.5t-37 -69.5t-26 -99l-17 -90h201q11 0 17.5 -7.5t6.5 -24.5q0 -11 -2 -23t-5 -23.5t-7.5 -22t-10 -18.5t-12.5 -13t-14 -5h-202
l-171 -852q-17 -84 -46 -145.5t-71 -102t-97 -60t-124 -19.5q-45 0 -73.5 7t-35.5 13q-4 5 -6 11t-2 16q0 4 1.5 13.5t3.5 20t5 22t7 21.5t9 16t12 6t13.5 -1.5t14 -3t18 -3t26.5 -1.5q42 0 72.5 13t52 40.5t36 69.5t26.5 101l164 818h-128q-10 0 -15.5 6.5t-5.5 24.5
q0 8 1 19.5t3.5 23.5t6.5 23t10 20t12.5 14.5t16.5 5.5h126l25 125q16 82 46 143.5t72.5 101.5t98 59.5t122.5 19.5q22 0 46 -2.5t44.5 -7t36 -10.5t21.5 -12q6 -5 9 -14t3 -19z" />
    <glyph glyph-name="g" unicode="g" horiz-adv-x="1053" 
d="M797 -46q-16 -80 -51.5 -140t-90.5 -99.5t-130.5 -59.5t-171.5 -20q-83 0 -151.5 16.5t-109.5 39.5q-15 10 -20.5 19.5t-5.5 24.5q0 6 0.5 17t3 22t6 23t9 21.5t13.5 15t17 5.5q12 0 30 -10.5t48 -23.5t74.5 -24t109.5 -11q54 0 97.5 11t76 33t53 56t30.5 81
q17 91 34 151t28 93q-16 -37 -51 -74.5t-81 -69t-101 -51t-112 -19.5q-75 0 -127 25t-83.5 68.5t-45.5 103t-14 128.5q0 58 11 130.5t35 146t61.5 143t90.5 124t122.5 87.5t157.5 33q89 0 152.5 -36t113.5 -99l19 91q4 16 23 23t59 7q20 0 33.5 -1.5t21.5 -5.5t10 -10t1 -13
zM781 690q-47 69 -101.5 103.5t-122.5 34.5q-54 0 -97 -25t-76.5 -66.5t-58.5 -95.5t-40.5 -110.5t-23 -112t-7.5 -100.5q0 -43 7.5 -79t24 -61.5t43 -40.5t64.5 -15q55 0 110.5 30.5t103.5 84.5t85 127.5t55 160.5z" />
    <glyph glyph-name="h" unicode="h" horiz-adv-x="1053" 
d="M817 25q-2 -8 -7 -13.5t-15.5 -9.5t-26.5 -6t-41 -2q-24 0 -39.5 2t-24 6t-11 9.5t-1.5 13.5l111 556q5 26 8.5 58.5t3.5 56.5q0 29 -6 53t-19.5 41.5t-35 27.5t-52.5 10q-53 0 -108.5 -31t-103 -85.5t-85 -128.5t-54.5 -159l-80 -399q-2 -8 -7 -13.5t-15 -9.5t-26.5 -6
t-40.5 -2q-25 0 -40.5 2t-24 6t-11 9.5t-0.5 13.5l266 1336q2 8 6.5 14t15 10t27 6t41.5 2q24 0 39.5 -2t24 -6t10.5 -10t1 -14l-80 -407q-5 -26 -12 -53t-14.5 -53.5t-15 -50.5t-13.5 -42q16 35 50 72.5t80 69t101.5 52.5t114.5 21q64 0 109 -18.5t73.5 -51t41.5 -77.5
t13 -97q0 -36 -4 -70t-11 -69z" />
    <glyph glyph-name="i" unicode="i" horiz-adv-x="470" 
d="M489 1228q-5 -28 -13.5 -47t-22.5 -30.5t-35 -16.5t-51 -5q-29 0 -48 5t-28 16.5t-10 30.5t4 47q6 28 15 46.5t22.5 31t34.5 17t51 4.5q29 0 47.5 -4.5t28 -17t10.5 -31t-5 -46.5zM230 25q-2 -8 -7 -13.5t-15 -9.5t-26.5 -6t-40.5 -2q-25 0 -40.5 2t-24 6t-11 9.5
t-0.5 13.5l179 900q1 7 6 13t15 10t26.5 6t41.5 2q24 0 39.5 -2t24 -6t11 -10t1.5 -13z" />
    <glyph glyph-name="j" unicode="j" horiz-adv-x="490" 
d="M508 1228q-6 -28 -14.5 -47t-22 -30.5t-34 -16.5t-50.5 -5q-29 0 -47.5 5t-28.5 16.5t-10.5 30.5t4.5 47q6 28 14 46.5t22.5 31t34.5 17t50 4.5t49 -4.5t28 -17t10 -31t-5 -46.5zM235 -34q-15 -78 -39 -139.5t-62 -104t-92 -65t-128 -22.5q-41 0 -68.5 6t-34.5 12
q-4 5 -6 11t-2 16q0 5 1.5 14.5t3.5 20.5t5 23t8 21.5t11 15.5t13 6t12 -1t11 -1.5t15.5 -1.5t24.5 -1q33 0 59 9.5t45.5 32.5t33.5 60t25 91l191 956q2 7 7 13t15.5 10t27 6t40.5 2q23 0 39 -2t24.5 -6t11 -10t1.5 -13z" />
    <glyph glyph-name="k" unicode="k" horiz-adv-x="931" 
d="M947 928q0 -12 -8.5 -25t-33.5 -36l-391 -335l269 -453q10 -18 14 -30.5t4 -19.5q0 -9 -4 -15.5t-14.5 -10.5t-28 -6.5t-43.5 -2.5q-28 0 -44 1.5t-26 5.5t-15 10t-9 15l-288 498l-99 -499q-2 -8 -7 -13.5t-15.5 -9.5t-27 -6t-40.5 -2t-39.5 2t-24 5.5t-11.5 9.5t-1 14
l267 1336q2 8 6.5 14t15 10t27 6t41.5 2q24 0 39.5 -2t24 -6t10.5 -10t1 -14l-163 -814l417 377q8 9 18 15.5t23 10t30.5 5t41.5 1.5t40.5 -1.5t26 -5t13.5 -9t4 -12.5z" />
    <glyph glyph-name="l" unicode="l" horiz-adv-x="470" 
d="M230 25q-2 -8 -7 -13.5t-15 -9.5t-26.5 -6t-40.5 -2q-25 0 -40.5 2t-24 6t-11 9.5t-0.5 13.5l266 1336q2 8 6.5 14t15 10t27 6t41.5 2q24 0 39.5 -2t24 -6t10.5 -10t1 -14z" />
    <glyph glyph-name="m" unicode="m" horiz-adv-x="1620" 
d="M1383 25q-1 -8 -6 -13.5t-15.5 -9.5t-27 -6t-40.5 -2t-39.5 2t-24 6t-11.5 9.5t-1 13.5l111 556q5 29 8.5 55t3.5 52q0 64 -24.5 102t-85.5 38q-50 0 -103.5 -30.5t-101.5 -84t-85 -127t-54 -159.5l-80 -402q-2 -8 -7 -13.5t-15.5 -9.5t-27 -6t-40.5 -2t-39.5 2t-23.5 6
t-11 9.5t-2 13.5l111 556q7 30 9.5 59t2.5 54q0 61 -25 97.5t-85 36.5q-51 0 -104 -30.5t-101 -84t-85 -127t-54 -159.5l-80 -402q-2 -8 -7 -13.5t-15 -9.5t-26.5 -6t-40.5 -2q-25 0 -40.5 2t-24 6t-11 9.5t-0.5 13.5l181 901q1 7 5.5 13t14 10t24 5.5t34.5 1.5
q21 0 34.5 -1.5t21 -5.5t9.5 -10t1 -13l-34 -172q15 34 49.5 72t80.5 70t100.5 53t111.5 21q60 0 103 -16.5t70.5 -45t40.5 -68t16 -86.5q20 35 55 73t81 69.5t100 52.5t110 21q67 0 112 -19t73 -52t40 -77t12 -96q0 -35 -4 -69t-11 -70z" />
    <glyph glyph-name="n" unicode="n" horiz-adv-x="1053" 
d="M944 726q0 -35 -4 -69t-11 -70l-113 -562q-2 -8 -6.5 -13.5t-15 -9.5t-26.5 -6t-41 -2q-24 0 -39.5 2t-24 6t-11 9.5t-1.5 13.5l111 556q7 31 9.5 60t2.5 51q0 61 -26 98.5t-87 37.5q-53 0 -108.5 -30.5t-103 -84t-85 -127t-54.5 -159.5l-80 -402q-2 -8 -7 -13.5
t-15 -9.5t-26.5 -6t-40.5 -2q-25 0 -40.5 2t-24 6t-11 9.5t-0.5 13.5l181 901q1 7 5.5 13t14 10t24 5.5t34.5 1.5q21 0 34.5 -1.5t21 -5.5t9.5 -10t1 -13l-34 -172q15 34 49 72t81 70t103.5 53t117.5 21q67 0 112 -20.5t73 -54t40 -77.5t12 -92z" />
    <glyph glyph-name="o" unicode="o" horiz-adv-x="1051" 
d="M977 627q0 -74 -14 -151t-42.5 -148.5t-72.5 -134.5t-103.5 -110t-135 -74.5t-168.5 -27.5q-96 0 -164.5 23t-112.5 67t-65 108t-21 145q0 74 13.5 151t42.5 148t72.5 134.5t103 110.5t135 74.5t168.5 27.5q96 0 164.5 -23.5t113 -67.5t65.5 -108t21 -144zM803 617
q0 50 -10.5 90t-35 67.5t-64 42.5t-95.5 15q-60 0 -109 -21.5t-87.5 -58t-67 -85.5t-47 -104.5t-27.5 -114t-9 -114.5q0 -50 11 -90t35.5 -68t63.5 -43t95 -15q61 0 109.5 21.5t87 58.5t67 86t47 105t27.5 114t9 114z" />
    <glyph glyph-name="p" unicode="p" horiz-adv-x="1053" 
d="M976 644q0 -58 -11 -130.5t-35 -146.5t-61.5 -143.5t-90.5 -123.5t-122.5 -86.5t-157.5 -32.5q-45 0 -82 9t-68 25t-57 37.5t-48 47.5l-85 -432q-2 -8 -6.5 -14t-14.5 -10t-26.5 -6t-41.5 -2q-23 0 -38.5 2t-24.5 6t-11.5 10t-1.5 14l253 1258q2 16 20 23t60 7
q21 0 34 -1.5t21 -5t10 -9.5t1 -14l-34 -171q14 33 47.5 70.5t80 70t103.5 53.5t116 21q76 0 127.5 -26t83.5 -69.5t46 -103t14 -127.5zM803 633q0 43 -7.5 79t-24 62t-43 40t-65.5 14q-54 0 -110 -30t-104 -84t-85.5 -127.5t-54.5 -160.5l-33 -165q47 -70 101 -104.5
t122 -34.5q53 0 96.5 25t77 67t58 95t41 110t24 113t7.5 101z" />
    <glyph glyph-name="q" unicode="q" horiz-adv-x="1053" 
d="M741 -332q-2 -8 -7 -14t-15 -10t-26.5 -6t-41.5 -2q-23 0 -38.5 2t-24 6t-11.5 10t-2 14l66 325q5 26 12 53t14.5 53.5t14.5 50.5t14 42q-16 -34 -51 -71.5t-81 -68.5t-101 -51t-112 -20q-71 0 -122.5 23t-84 66t-48 102.5t-15.5 132.5q0 55 10.5 126.5t34 145
t60.5 144.5t90 126t123 89t160 34q89 0 152.5 -36t113.5 -99l19 91q4 16 23 23.5t59 7.5q20 0 33.5 -2t21.5 -6t10 -10t1 -13zM781 690q-47 69 -101.5 103.5t-122.5 34.5q-56 0 -100.5 -26.5t-78 -70.5t-57.5 -99t-39 -112t-21.5 -110t-6.5 -92q0 -99 35.5 -147.5
t103.5 -48.5q55 0 110.5 30.5t103.5 84.5t85 127.5t55 160.5z" />
    <glyph glyph-name="r" unicode="r" horiz-adv-x="702" 
d="M754 924q0 -4 -1.5 -15.5t-3.5 -26.5t-6 -31t-10 -29.5t-12.5 -22.5t-14.5 -9t-17.5 3.5t-21 8.5t-26.5 8.5t-35 3.5q-34 0 -78.5 -29.5t-87.5 -81.5t-78.5 -123t-52.5 -154l-79 -401q-2 -8 -7 -13.5t-15 -9.5t-26.5 -6t-40.5 -2q-25 0 -40.5 2t-24 6t-11 9.5t-0.5 13.5
l179 901q1 7 6 13t15 10t24.5 5.5t34.5 1.5q21 0 34.5 -1.5t21 -5.5t9.5 -10t1 -13l-33 -164q23 41 54.5 79t68.5 66.5t77.5 45.5t79.5 17q17 0 34.5 -2.5t32.5 -6t26.5 -8t17.5 -10.5t6 -19z" />
    <glyph glyph-name="s" unicode="s" horiz-adv-x="797" 
d="M747 876q0 -10 -3 -26.5t-8.5 -32.5t-13 -27t-16.5 -11q-12 0 -28.5 9.5t-40.5 21.5t-57.5 22t-79.5 10q-44 0 -78 -12.5t-57 -34t-35 -49t-12 -57.5q0 -40 26.5 -66.5t66.5 -47.5t86.5 -41.5t86 -50t66 -71t26.5 -104.5q0 -70 -27.5 -130.5t-79 -104t-124.5 -68
t-163 -24.5q-47 0 -88.5 7t-75 18t-57.5 24.5t-37 25.5q-8 8 -11.5 16.5t-3.5 20.5q0 8 1 19t4 23t6.5 23t8.5 20t10 14.5t12 5.5q12 0 29 -13.5t44.5 -29t68.5 -29t102 -13.5q55 0 94.5 13.5t65.5 36t38.5 52.5t12.5 63q0 42 -26 68.5t-65.5 48t-85.5 42.5t-85.5 49.5
t-66 70t-26.5 105.5q0 66 26 122.5t73.5 98t114 64.5t147.5 23q38 0 73.5 -6t65.5 -15t52 -20t33 -22q11 -10 11 -31z" />
    <glyph glyph-name="t" unicode="t" horiz-adv-x="686" 
d="M709 915q0 -9 -1 -19.5t-4 -21.5t-8 -22t-10.5 -19.5t-12.5 -13.5t-16 -5h-230l-101 -502q-4 -21 -7 -47t-3 -43q0 -51 21.5 -74.5t69.5 -23.5q27 0 47 4.5t34.5 9.5t25.5 9.5t19 4.5t12.5 -5.5t4.5 -20.5q0 -13 -2.5 -28.5t-6.5 -30.5t-10 -27t-13 -19q-8 -7 -24 -14
t-37 -12.5t-44.5 -8.5t-46.5 -3q-56 0 -97 12t-69 37.5t-41.5 64t-13.5 92.5q0 12 1 26.5t3.5 30.5l5 32t5.5 30l101 506h-125q-11 0 -17 6.5t-6 25.5q0 14 3 32.5t9 34.5t15.5 27t22.5 11h126l43 214q1 7 6.5 13t15.5 10.5t26.5 6.5t40.5 2t39.5 -2t24 -6.5t11 -10.5
t1.5 -13l-43 -214h230q15 0 20 -11t5 -25z" />
    <glyph glyph-name="u" unicode="u" horiz-adv-x="1053" 
d="M812 25q-1 -8 -6 -14t-14 -9.5t-23.5 -5.5t-35.5 -2q-20 0 -33.5 2t-21 5.5t-10 9.5t-0.5 14l33 169q-16 -34 -50.5 -71.5t-81 -69.5t-102 -52t-112.5 -20q-68 0 -114.5 18.5t-75 51t-41 77t-12.5 97.5q0 33 4.5 67.5t11.5 69.5l111 564q2 7 7 13t15.5 10t27 5.5
t40.5 1.5t39.5 -1.5t24 -5.5t11 -10t1.5 -13l-110 -558q-6 -26 -9 -54t-3 -57q0 -30 5.5 -54.5t19 -42.5t35 -28t52.5 -10q53 0 108.5 30.5t103.5 84.5t85.5 128.5t55.5 162.5l79 398q1 7 6.5 13t16 10t27 5.5t40.5 1.5t39.5 -1.5t24 -5.5t11 -10t1.5 -13z" />
    <glyph glyph-name="v" unicode="v" horiz-adv-x="913" 
d="M931 933q0 -10 -3 -20.5t-7 -21.5q-37 -109 -83.5 -220.5t-103 -222t-124 -217t-147.5 -205.5q-7 -11 -16 -17t-21.5 -9.5t-28.5 -4.5t-38 -1q-31 0 -50 2t-29.5 6t-15 11t-5.5 17l-133 853q-1 11 -1.5 19.5t-0.5 15.5q0 13 4 20t13 11t24.5 5.5t41.5 1.5t42 -1.5
t24.5 -5t11.5 -10t4 -15.5l108 -742v-12l5 6q59 89 108 172.5t91 172.5t79.5 187t76.5 216q3 9 8.5 15.5t16 10t28 5t43.5 1.5q24 0 39 -1.5t23.5 -4t12 -7t3.5 -10.5z" />
    <glyph glyph-name="w" unicode="w" horiz-adv-x="1464" 
d="M1474 933q0 -11 -2.5 -22.5t-5.5 -19.5q-38 -109 -83.5 -220.5t-100 -222t-117.5 -217t-135 -205.5q-7 -11 -17.5 -17t-24 -9.5t-30.5 -4.5t-38 -1q-26 0 -43.5 2t-28 6t-15 11t-4.5 17l-67 660l-303 -657q-5 -11 -13 -18.5t-21 -12t-32.5 -6.5t-47.5 -2t-48 2t-32.5 6
t-18.5 11t-6 17l-95 855q-1 9 -1.5 17.5t-0.5 14.5q0 12 4 19.5t13.5 12t26 6t42.5 1.5t41.5 -1.5t24 -5t11.5 -10t4 -15.5l70 -744v-9l4 9l341 744q4 8 9 14.5t14 10.5t24 5.5t38 1.5t38.5 -1.5t24.5 -5t13 -9.5t5 -14l74 -741v-8l5 8q46 72 92 159.5t89 184t81.5 197.5
t70.5 198q2 9 8 15.5t16.5 10t27.5 5t43 1.5q24 0 39.5 -1.5t23.5 -4t10.5 -7t2.5 -10.5z" />
    <glyph glyph-name="x" unicode="x" horiz-adv-x="887" 
d="M557 484l196 -440q6 -14 4.5 -23.5t-12.5 -15.5t-30.5 -8.5t-50.5 -2.5q-28 0 -44 1.5t-25 5t-12 9t-6 12.5l-150 355l-283 -355q-6 -7 -12.5 -12.5t-18.5 -8.5t-30.5 -5t-48.5 -2q-29 0 -47 2.5t-26.5 8.5t-7 15t11.5 23l374 444l-185 420q-6 14 -5 23.5t10.5 15.5
t28.5 8t50 2q28 0 44 -1.5t24.5 -4.5t12 -8t6.5 -12l143 -336l270 336q6 6 12 11t17 8.5t27.5 5t43.5 1.5q30 0 49 -2t28 -7t7.5 -14.5t-14.5 -23.5z" />
    <glyph glyph-name="y" unicode="y" horiz-adv-x="916" 
d="M931 932q0 -11 -2 -22.5t-7 -21.5q-33 -91 -72 -189.5t-91 -206t-121.5 -224.5t-165.5 -246l-259 -353q-6 -8 -15 -14t-22 -10.5t-31.5 -6.5t-43.5 -2q-27 0 -44.5 2.5t-26.5 8.5t-8 16t12 24l244 313l-149 879q-2 12 -3 22t-1 17q0 11 3.5 18.5t13.5 12t26.5 6t40.5 1.5
q27 0 42.5 -1.5t24 -5t12 -10.5t4.5 -17l117 -734h2q62 87 112 177t92 182.5t77.5 187t66.5 191.5q2 8 7.5 13.5t16 9.5t28.5 5.5t45 1.5q45 0 60 -6t15 -18z" />
    <glyph glyph-name="z" unicode="z" horiz-adv-x="809" 
d="M787 917q0 -5 -1 -14.5t-3 -20l-4 -21t-4 -17.5q-6 -22 -18.5 -41.5t-34.5 -45.5l-509 -618h413q12 0 18 -9t6 -26q0 -8 -1 -19t-4 -22t-7 -22.5t-10 -20.5t-13 -14.5t-16 -5.5h-557q-19 0 -28 10.5t-9 28.5q0 7 2 18t4 22.5t4.5 21.5t4.5 15q2 8 5 14.5t9 15t15 20.5
t22 28l512 618h-376q-13 0 -19.5 8.5t-6.5 26.5q0 9 1.5 20t4 22.5t7 23t10.5 20t13.5 13.5t16.5 5h519q19 0 26.5 -9t7.5 -25z" />
    <glyph glyph-name="braceleft" unicode="{" horiz-adv-x="644" 
d="M759 1371q0 -13 -3 -28.5t-9 -29.5t-15.5 -23.5t-22.5 -9.5h-31q-28 0 -49 -8.5t-37.5 -33t-30 -67.5t-27.5 -112l-37 -187q-11 -58 -30 -109.5t-47 -93t-67.5 -70t-93.5 -39.5q37 -8 61.5 -29.5t38.5 -49.5t20 -60t6 -60q0 -26 -3 -53t-8 -52l-50 -246q-7 -41 -11 -72
t-4 -55q0 -44 15 -60.5t43 -16.5h46q15 0 21 -9.5t6 -22.5q0 -7 -2 -18.5t-5.5 -23t-8.5 -22.5t-11 -17q-4 -4 -10.5 -6.5t-16 -4.5t-23 -3t-31.5 -1q-52 0 -86 13t-53.5 36t-28 56.5t-8.5 75.5q0 26 4 68.5t14 95.5l50 243q4 19 7 44t3 44q0 30 -6 56t-19 45.5t-33.5 32
t-49.5 16.5q-14 3 -19 10t-5 22q0 8 2 20t4.5 23t7 20.5t9.5 13.5q8 9 22 11.5t31.5 6.5t38.5 14t44 33q30 30 50.5 79t32.5 108l44 226q17 79 38.5 138.5t54.5 99.5t79.5 59.5t112.5 19.5q16 0 28.5 -0.5t23 -2t17.5 -4t11 -5.5q4 -4 5 -10.5t1 -14.5z" />
    <glyph glyph-name="bar" unicode="|" horiz-adv-x="943" 
d="M389 -333q-2 -8 -7 -14t-14.5 -10t-25 -6t-37.5 -2q-23 0 -37.5 2t-22.5 6t-10.5 10t-0.5 14l347 1736q1 7 6.5 13t15 10t25 6t37.5 2q23 0 37.5 -2t22.5 -6t10.5 -10t0.5 -13z" />
    <glyph glyph-name="braceright" unicode="}" horiz-adv-x="644" 
d="M-28 -285q0 12 3 28t9 30t15.5 23.5t22.5 9.5h31q28 0 49 8.5t37.5 33t30 67.5t27.5 112l46 233q11 57 29.5 109t47.5 93.5t68.5 69.5t92.5 39q-38 8 -62 29.5t-38 50t-20 60t-6 59.5t2.5 54.5t8.5 51.5l41 201q7 40 11 71t4 55q0 44 -15 60.5t-43 16.5h-45
q-16 0 -22 9.5t-6 23.5q0 6 2 17.5t5 23t8.5 22.5t11.5 17q4 4 10 7t16 5t23.5 2.5t31.5 0.5q51 0 85 -13t54.5 -36t29 -56.5t8.5 -75.5q0 -26 -4.5 -68.5t-15.5 -95.5l-40 -197q-4 -19 -7 -44.5t-3 -44.5q0 -29 6 -55t18.5 -46t33.5 -32.5t50 -16.5q14 -2 19 -9.5t5 -21.5
q0 -9 -1.5 -20.5t-5 -22.5t-8 -21t-8.5 -14q-8 -8 -21.5 -11l-31.5 -7t-39 -14t-44 -33q-30 -30 -50.5 -78t-32.5 -108l-54 -272q-16 -79 -37.5 -138.5t-54.5 -99t-80 -59.5t-112 -20q-16 0 -28.5 0.5t-23 2t-17.5 4t-11 5.5q-3 4 -4.5 10.5t-1.5 14.5z" />
    <glyph glyph-name="asciitilde" unicode="~" horiz-adv-x="1020" 
d="M1066 1072q0 -63 -19.5 -119t-55.5 -98.5t-87 -67t-114 -24.5q-61 0 -102 17.5t-69.5 43.5t-49.5 56.5t-42.5 56.5t-47.5 43.5t-65 17.5q-34 0 -59 -14.5t-41 -38.5t-25.5 -55t-11.5 -66q-1 -18 -18 -23.5t-50 -5.5q-39 0 -50.5 7t-11.5 22q0 62 17 118t52 98t87 67.5
t124 25.5q59 0 99.5 -17.5t70 -43.5t51.5 -56t43.5 -56t46.5 -43t61 -17q34 0 58 13t41.5 36.5t26.5 55.5t11 70q1 16 18.5 21.5t48.5 5.5q20 0 31.5 -1.5t19 -5.5t10 -9.5t2.5 -13.5z" />
    <glyph glyph-name="exclamdown" unicode="&#xa1;" horiz-adv-x="667" 
d="M292.052 809.046q1 7.99902 5.99902 13.998q5 5.99902 14.998 9.99902q9.99902 3.99902 24.4971 5.99902q14.499 2 35.4961 2q21.9971 0 34.9961 -2q12.998 -2 20.4971 -5.99902q7.49902 -4 9.49902 -9.99902t0 -13.998l-171.979 -953.884
q-2.99902 -12.998 -8.99805 -21.9971q-6 -8.99902 -17.998 -14.499q-11.999 -5.49902 -29.9961 -7.99902q-17.998 -2.49902 -43.9951 -2.49902q-26.9971 0 -43.9951 2.49902q-16.9971 2.5 -26.4961 8.49902q-9.49902 6 -11.499 14.998q-1.99902 8.99902 1 20.998z
M307.05 1026.02q0 13.998 3 33.4951q2.99902 19.498 8.49902 38.9951q5.49902 19.498 12.998 36.9961t18.498 27.4961q13.998 14.998 35.9951 21.998q21.998 6.99902 56.9932 6.99902q25.9971 0 43.4951 -4q17.498 -3.99902 26.9961 -11.498
q9.49902 -7.49902 12.999 -19.498q3.49902 -11.998 3.49902 -26.9971q0 -12.998 -2.49902 -31.9961q-2.5 -18.9971 -7.49902 -38.9951q-5 -19.9971 -12.999 -38.4951t-17.998 -29.4961q-15.998 -15.998 -36.9951 -21.4971q-20.9971 -5.5 -53.9932 -5.5
q-28.9961 0 -46.9941 4.5q-17.998 4.49902 -27.4971 12.498t-12.998 19.998q-3.5 11.998 -3.5 24.9971z" />
    <glyph glyph-name="cent" unicode="&#xa2;" horiz-adv-x="1020" 
d="M999 1002q0 -7 -1.5 -17.5t-4 -22t-6 -24t-9 -22t-13 -16t-16.5 -6.5q-13 0 -29 16t-41 35.5t-63.5 35.5t-97.5 16q-64 0 -114.5 -24.5t-88.5 -64.5t-64.5 -91.5t-42.5 -106t-23.5 -107.5t-7.5 -94q0 -49 10 -89t32.5 -68.5t60 -44t92.5 -15.5q59 0 103.5 17.5t78 38.5
t57.5 38.5t43 17.5q8 0 12.5 -7.5t4.5 -22.5q0 -11 -2.5 -28t-7 -35.5t-11.5 -34.5t-17 -26q-15 -15 -40 -30.5t-55.5 -28.5t-63.5 -22.5t-67 -14.5l-29 -145q-3 -15 -20 -23t-59 -8q-21 0 -35 2t-22 6t-10.5 10t-0.5 13l31 147q-70 11 -119.5 40t-80.5 72t-45 99t-14 122
q0 52 9 117t30.5 132.5t55.5 133t84.5 119.5t118 91.5t155.5 48.5l29 145q1 7 6 13t14 10t23.5 6t35.5 2t34.5 -2t21 -6t9.5 -10t1 -13l-28 -145q49 -7 89.5 -25.5t78.5 -49.5q16 -15 22.5 -26.5t6.5 -27.5z" />
    <glyph glyph-name="sterling" unicode="&#xa3;" horiz-adv-x="1038" 
d="M874 105q0 -6 -1 -16t-4 -22t-7 -23.5t-10 -21t-13.5 -16t-16.5 -6.5h-795q-12 0 -19.5 10t-7.5 27q0 7 1.5 17t4.5 21.5t8 22.5t11 20.5t13 15t15 5.5h123l92 454h-123q-12 0 -19.5 10t-7.5 26q0 5 1.5 15t4 21t6.5 22.5t10 20t13.5 14.5t16.5 6h123l29 140
q24 122 68 206t103.5 137t134.5 76t161 23q36 0 71.5 -5.5t69.5 -17t63 -28t52 -39.5q11 -10 16 -21.5t5 -24.5q0 -7 -1 -17.5t-3 -22.5t-5.5 -24t-8.5 -21t-12 -15.5t-16 -6.5q-14 0 -29.5 16t-41.5 35.5t-64.5 35.5t-98.5 16q-118 0 -192.5 -81t-106.5 -239l-24 -122h327
q15 0 21 -11t6 -25q0 -6 -1 -16t-4 -21t-7 -22t-10 -20t-13 -14.5t-17 -5.5h-328l-91 -454h503q12 0 18.5 -9.5t6.5 -24.5z" />
    <glyph glyph-name="currency" unicode="&#xa4;" horiz-adv-x="1020" 
d="M875 856q14 -23 22.5 -47t12.5 -46t5 -40.5t1 -29.5q0 -54 -10 -106.5t-30 -102.5t-51 -96t-72 -85l103 -204q8 -17 8.5 -29t-7.5 -19.5t-25.5 -11t-45.5 -3.5q-24 0 -39.5 1t-25 4t-13.5 7.5t-7 12.5l-76 170q-40 -19 -83 -29.5t-92 -10.5q-45 0 -83 7.5t-66 22.5
l-142 -171q-7 -7 -15 -12t-20 -8t-29.5 -4t-40.5 -1q-28 0 -44.5 4t-21.5 11.5t-0.5 19.5t19.5 29l186 207q-22 29 -35.5 75t-13.5 101q0 52 9.5 105t29 102.5t48.5 95t69 84.5l-103 207q-7 17 -7.5 29t7.5 20t25.5 11.5t45.5 3.5q24 0 39 -1.5t24.5 -4t14 -7.5t7.5 -13
l76 -169q38 18 84.5 28.5t97.5 10.5q49 0 89 -9.5t72 -29.5l142 172q7 8 15 13t20 7.5t29 4t42 1.5q28 0 44 -4t21 -12.5t0.5 -20.5t-18.5 -29zM760 664q0 35 -9 68.5t-29.5 59.5t-52.5 41.5t-79 15.5q-58 0 -102 -17.5t-76.5 -47t-54 -67t-34 -76.5t-18.5 -76t-6 -66
q0 -88 44.5 -134.5t134.5 -46.5q77 0 130.5 33.5t87 85t49 112.5t15.5 115z" />
    <glyph glyph-name="yen" unicode="&#xa5;" horiz-adv-x="1038" 
d="M634 614l-11 -53h277q12 0 16.5 -9.5t4.5 -19.5q0 -7 -1 -16t-3.5 -19t-6 -20.5t-9 -18.5t-12 -13t-13.5 -5h-277l-31 -160h276q12 0 16.5 -9t4.5 -20q0 -5 -1 -14t-3 -19.5t-5.5 -20.5t-9 -19t-12 -14t-14.5 -5h-277l-26 -135q-1 -8 -6.5 -13.5t-16.5 -9t-28 -5.5
t-41 -2q-25 0 -41.5 2t-25.5 5.5t-12 9t-1 13.5l26 135h-276q-10 0 -15.5 8.5t-5.5 22.5q0 7 2.5 22t8 30t13.5 26.5t21 11.5h276l31 160h-276q-10 0 -15 8.5t-5 24.5q0 5 1 13.5t3.5 18t6 20t8.5 18.5t11.5 13t14.5 5h276l11 53l-238 619q-8 21 -9.5 34.5t7 20.5t28 9.5
t52.5 2.5q28 0 45 -1.5t26 -5t13.5 -9.5t8.5 -15l182 -504l378 504q7 9 15 15t20.5 9.5t32 5t48.5 1.5q31 0 49 -2.5t24 -9.5t-0.5 -20.5t-22.5 -34.5z" />
    <glyph glyph-name="brokenbar" unicode="&#xa6;" horiz-adv-x="1020" 
d="M645 759q-3 -7 -7.5 -13t-14 -10.5t-25 -6t-37.5 -1.5q-23 0 -37.5 1.5t-22.5 6t-11 10.5t0 13l132 663q2 7 7 13t14.5 10t25 6.5t38.5 2.5q22 0 36.5 -2.5t22.5 -6.5t10.5 -10t1.5 -13zM421 -360q-2 -7 -6.5 -13t-14.5 -10t-25 -6t-38 -2q-22 0 -37 2t-23 6t-10.5 10
t-0.5 13l135 673q1 7 5.5 13t15 10.5t25.5 6.5t38 2q22 0 36.5 -2t22.5 -6.5t10.5 -10.5t1.5 -13z" />
    <glyph glyph-name="section" unicode="&#xa7;" horiz-adv-x="1020" 
d="M928 1249q0 -6 -1 -15t-3.5 -20.5t-6 -23t-8 -21.5t-11 -16t-13.5 -6q-9 0 -23 11t-37 24t-57 24.5t-84 11.5q-43 0 -78 -14.5t-59 -37.5t-36.5 -54t-12.5 -65q0 -37 18.5 -64.5t48.5 -48t69 -38t79.5 -36t79.5 -40t69 -52t48.5 -71.5t18.5 -97t-19 -106t-51 -93
t-74.5 -77.5t-88.5 -58.5q25 -32 36.5 -67.5t11.5 -63.5q0 -37 -10 -76.5t-30.5 -76.5t-52.5 -70.5t-77 -58.5t-103.5 -40t-132.5 -15q-48 0 -88 7t-71.5 18.5t-55 25t-37.5 25.5q-8 8 -12.5 16.5t-4.5 22.5q0 6 1.5 16.5t4 21.5t6 22.5t8.5 20.5t12 15t15 6q14 0 31 -13.5
t44 -29.5t67.5 -29.5t100.5 -13.5q56 0 96.5 16t67 42t39 59t12.5 69q0 35 -19 60t-49 45.5t-69.5 38t-79.5 36t-79 40.5t-69.5 52.5t-49 71t-18.5 96.5q0 57 20 108.5t53 94.5t75.5 77t87.5 57q-25 30 -35.5 63t-10.5 66q0 43 10 84t30.5 77t51.5 66t72 52t92 34t112 12
q39 0 74 -5.5t63 -14t48.5 -20t32.5 -22.5q11 -12 11 -34zM764 579q0 33 -13 57t-35 42.5t-50.5 33t-60 28t-64 28t-60.5 33.5q-35 -14 -67 -36.5t-55 -52t-37 -64.5t-14 -73q0 -33 13 -57t35.5 -42.5t51 -33t60 -28.5t63.5 -29t60 -33q35 14 66.5 36.5t55 52t37.5 64.5
t14 74z" />
    <glyph glyph-name="dieresis" unicode="&#xa8;" horiz-adv-x="804" 
d="M823 1216q-5 -27 -13 -45.5t-20.5 -29t-31.5 -15t-45 -4.5t-43 4.5t-25.5 15t-10.5 29t3 45.5q4 27 11.5 45t20.5 29t31.5 15.5t44.5 4.5t43 -4.5t26.5 -15.5t11 -29t-2.5 -45zM469 1216q-4 -27 -12 -45.5t-21 -29t-32 -15t-44 -4.5q-27 0 -44 4.5t-26 15t-10 29t3 45.5
t11.5 45t20.5 29t31.5 15.5t44.5 4.5t43 -4.5t26.5 -15.5t11 -29t-2.5 -45zM0 951z" />
    <glyph glyph-name="copyright" unicode="&#xa9;" horiz-adv-x="1709" 
d="M804 97q110 0 198 25t155 67t116 98.5t83 120t55.5 129.5t33 128.5t16 117.5t4.5 95q0 51 -7 101.5t-26 95.5t-52 83t-85 66t-126 44t-174 16q-112 0 -200.5 -25.5t-156 -68.5t-116.5 -100t-83 -120.5t-55 -130t-32 -128.5t-15 -115.5t-4 -91.5q0 -51 7 -101.5
t25.5 -95.5t51.5 -83.5t85 -66.5t126.5 -44t175.5 -16zM1597 896q0 -49 -5.5 -114.5t-20.5 -139t-41.5 -150.5t-69 -151t-103 -139.5t-143 -114.5t-189 -77.5t-242.5 -28.5q-117 0 -206 19.5t-153.5 54.5t-107 82.5t-68.5 103.5t-36.5 117.5t-10.5 125.5q0 48 5.5 113.5
t20.5 139.5t41.5 151.5t68.5 151.5t103 139t143.5 114.5t189.5 78t243 28.5q116 0 204.5 -19.5t153 -54t107.5 -82t69 -103.5t36.5 -118t10.5 -127zM1240 1018q0 -16 -3.5 -32.5t-9.5 -31t-14.5 -24t-20.5 -9.5q-13 0 -27 13.5t-36.5 30t-56.5 29.5t-87 13q-60 0 -105.5 -24
t-79 -62t-56 -86.5t-36 -98t-19.5 -96.5t-6 -80q0 -93 41 -140.5t124 -47.5q60 0 102.5 15t72 32.5t49 32t33.5 14.5q8 0 13 -6t5 -20q0 -10 -2.5 -24t-6 -29t-9.5 -28.5t-13 -20.5q-17 -15 -44.5 -31t-62.5 -29.5t-77.5 -21.5t-87.5 -8q-146 0 -218.5 73t-72.5 217
q0 53 10 118.5t32 131t57.5 127t86.5 109t120 76.5t157 29q76 0 130.5 -19.5t92.5 -48.5q13 -11 19 -20.5t6 -22.5z" />
    <glyph glyph-name="ordfeminine" unicode="&#xaa;" horiz-adv-x="882" 
d="M739 438q0 -7 -2 -22.5t-8.5 -31t-16.5 -27.5t-25 -12h-550q-14 0 -19 7t-5 25q0 8 2 23.5t7 31t15 27t26 11.5h550q14 0 20 -7.5t6 -24.5zM766 644q-5 -12 -21.5 -18t-55.5 -6q-19 0 -31.5 1.5t-20 4.5t-10 7.5t-0.5 10.5l21 116q-12 -23 -36.5 -49.5t-59 -49t-76.5 -37
t-87 -14.5q-61 0 -100.5 20t-63 53t-33 76t-9.5 88q0 41 8 91t25.5 101t45.5 99.5t67.5 86t92 60.5t119.5 23q65 0 113 -23.5t85 -69.5l12 59q2 12 21.5 18t57.5 6t51 -6t10 -18zM701 1091q-32 44 -69.5 69.5t-84.5 25.5q-36 0 -65.5 -16t-52.5 -42.5t-39.5 -61.5t-27 -71.5
t-15.5 -73t-5 -66.5q0 -22 4 -43.5t14.5 -38t29 -26.5t46.5 -10q34 0 73 21t74 59.5t63 90.5t41 115z" />
    <glyph glyph-name="guillemotleft" unicode="&#xab;" horiz-adv-x="1049" 
d="M137 480q-10 24 -9 44t19 41l286 347q7 8 13.5 13t17 8t25 4t36.5 1q25 0 40.5 -3t22 -9t5.5 -14t-9 -19l-294 -383l138 -363q4 -10 3 -18.5t-8 -15t-22 -9.5t-40 -3q-22 0 -35 1t-20.5 4t-11 8t-6.5 13zM506 482q-10 22 -9 41.5t19 40.5l279 329q7 7 14 12.5t17 8.5
t25 3.5t37 0.5q25 0 41 -2.5t23.5 -8t6.5 -13t-8 -17.5l-294 -366l146 -350q3 -10 2.5 -17t-8 -12t-23.5 -7.5t-41 -2.5q-22 0 -35 0.5t-20.5 3.5t-11 7t-6.5 13z" />
    <glyph glyph-name="logicalnot" unicode="&#xac;" horiz-adv-x="1020" 
d="M894 321q-3 -8 -7.5 -14.5t-14.5 -11t-24.5 -6.5t-34.5 -2t-34 2t-21.5 6.5t-10.5 11t-1 14.5l37 181h-679q-12 0 -19 8t-7 27q0 7 1 17.5t4 22t7.5 23.5t10 21.5t13.5 15.5t19 6h754q39 0 53 -14t5 -53z" />
    <glyph glyph-name="registered" unicode="&#xae;" horiz-adv-x="1038" 
d="M1020 1054q0 -93 -35 -171t-93.5 -134t-133.5 -88t-156 -32q-89 0 -157.5 28.5t-114.5 76.5t-69.5 110.5t-23.5 130.5q0 96 34.5 175.5t93.5 136.5t134.5 88.5t156.5 31.5q88 0 155.5 -27.5t113.5 -75t70.5 -112t24.5 -138.5zM930 1046q0 62 -18 113.5t-53 89.5t-87 59
t-121 21q-67 0 -126.5 -26.5t-103.5 -72t-69.5 -108t-25.5 -134.5q0 -67 20 -119t57 -88t89 -54.5t116 -18.5q67 0 125.5 26t102.5 71t69 107t25 134zM772 856q2 -14 2 -22t-5.5 -12.5t-17 -5.5t-33.5 -1q-33 0 -42.5 5t-11.5 21l-6 59q-6 38 -20 56t-47 18h-29l-28 -142
q-2 -9 -13 -13t-41 -4q-32 0 -40 4t-6 13l72 361q4 21 17.5 34t37.5 13h105q39 0 68 -7t47.5 -21t27.5 -33.5t9 -46.5q0 -26 -9.5 -47.5t-25 -37.5t-37 -27t-44.5 -17q23 -7 38.5 -28t21.5 -58zM708 1121q0 8 -2.5 15.5t-9.5 13t-20 9t-34 3.5h-44l-22 -112h41
q27 0 44.5 5.5t28 15t14.5 22.5t4 28z" />
    <glyph glyph-name="macron" unicode="&#xaf;" horiz-adv-x="807" 
d="M832 1262q0 -6 -1 -15t-3.5 -19.5t-6 -22t-8.5 -20.5t-12 -15t-16 -6h-479q-13 0 -19.5 7.5t-6.5 24.5q0 7 2 23.5t8 32.5t15.5 28.5t26.5 12.5h479q12 0 16.5 -8.5t4.5 -22.5zM0 951z" />
    <glyph glyph-name="macron" unicode="&#x2c9;" horiz-adv-x="807" 
d="M832 1262q0 -6 -1 -15t-3.5 -19.5t-6 -22t-8.5 -20.5t-12 -15t-16 -6h-479q-13 0 -19.5 7.5t-6.5 24.5q0 7 2 23.5t8 32.5t15.5 28.5t26.5 12.5h479q12 0 16.5 -8.5t4.5 -22.5zM0 951z" />
    <glyph glyph-name="degree" unicode="&#xb0;" horiz-adv-x="694" 
d="M722 1151q0 -56 -20 -103t-55.5 -80.5t-82.5 -52t-100 -18.5q-54 0 -96.5 16t-72.5 44.5t-45.5 67t-15.5 82.5q0 57 21 104.5t56.5 80.5t83 51t100.5 18q52 0 94 -16t72 -44.5t45.5 -67t15.5 -82.5zM598 1144q0 47 -30 79.5t-85 32.5q-25 0 -47.5 -10t-39.5 -28
t-27.5 -43.5t-10.5 -57.5q0 -50 29.5 -83t85.5 -33q24 0 46.5 10.5t40 29t28 44.5t10.5 59zM0 1294z" />
    <glyph glyph-name="plusminus" unicode="&#xb1;" horiz-adv-x="1020" 
d="M997 753q0 -8 -1.5 -19t-4 -22t-7 -22.5t-10.5 -20t-14 -14.5t-17 -6h-324l-73 -360q-2 -7 -6.5 -12.5t-14 -9.5t-23.5 -6.5t-35 -2.5q-19 0 -32.5 2.5t-21 6.5t-10.5 9.5t-1 12.5l72 360h-325q-13 0 -19.5 11t-6.5 30q0 7 1 17t4 21t7.5 22t10.5 19.5t14 14t18 5.5h324
l72 362q2 7 7.5 13t15 10.5t24 7t34.5 2.5t33 -2.5t20.5 -7t9.5 -10.5t1 -13l-73 -362h327q13 0 18.5 -9.5t5.5 -26.5zM860 105q0 -13 -3.5 -31t-10.5 -34.5t-17 -28t-25 -11.5h-774q-11 0 -19 9.5t-8 28.5q0 14 3 32t10 34t17 27t23 11h778q14 0 20 -10t6 -27z" />
    <glyph glyph-name="uni00B2" unicode="&#xb2;" horiz-adv-x="688" 
d="M679 809q0 -9 -2 -23.5t-6.5 -29t-12 -25t-18.5 -10.5h-471q-22 0 -29.5 7.5t-7.5 23.5q0 11 2.5 24t8.5 27.5t15 28.5t24 26l191 156q59 48 99.5 89t64 75.5t33 65t9.5 58.5q0 36 -22.5 60t-74.5 24q-37 0 -69 -10t-57 -21t-42.5 -21t-28.5 -10q-6 0 -11 6t-5 22
q0 10 2 23t5.5 26t8.5 24t12 18q11 11 35 22.5t55 22t67 17t69 6.5q63 0 106 -15.5t69.5 -41t38 -57.5t11.5 -64q0 -46 -15.5 -90.5t-48.5 -91t-87 -98.5t-132 -113l-127 -102h323q10 0 14 -7t4 -22z" />
    <glyph glyph-name="uni00B3" unicode="&#xb3;" horiz-adv-x="685" 
d="M697 968q0 -57 -24 -104.5t-68.5 -82.5t-109 -54t-145.5 -19q-56 0 -108 10t-95 33q-9 6 -13.5 13t-4.5 22q0 7 2.5 22t7 29.5t11.5 25.5t16 11t22.5 -8.5t35 -17.5t52 -17t74.5 -8q39 0 73 8.5t59.5 25.5t40 43t14.5 60q0 22 -8.5 40.5t-28.5 32.5t-52.5 21.5t-80.5 7.5
h-73q-11 0 -16 8t-5 20q0 13 3 27.5t9 26.5t13 20t16 8h69q42 0 78.5 9t63 27t42.5 46t16 64q0 15 -4.5 29t-15.5 25t-30.5 18t-49.5 7q-37 0 -70 -9.5t-60 -21t-45.5 -21t-27.5 -9.5q-14 0 -14 24q0 10 2.5 22.5t7 25t10 24t11.5 17.5q8 8 29.5 18.5t51.5 20.5t66.5 16.5
t75.5 6.5q60 0 101.5 -13.5t67.5 -36.5t37.5 -53t11.5 -63q0 -47 -16 -84.5t-42 -66t-61.5 -46.5t-74.5 -26v-2q39 -3 67.5 -17.5t47.5 -36t28.5 -47t9.5 -51.5z" />
    <glyph glyph-name="acute" unicode="&#xb4;" horiz-adv-x="598" 
d="M425 1123q-7 -10 -13.5 -16t-16 -9.5t-22.5 -5t-33 -1.5q-22 0 -35 3t-18 8t-3 13t9 19l154 231q7 11 15.5 18t20 11t28.5 6t42 2q28 0 44.5 -3.5t23 -10t5 -15t-9.5 -17.5zM0 951z" />
    <glyph glyph-name="mu" unicode="&#xb5;" horiz-adv-x="1102" 
d="M1008 120q0 -5 -1 -19.5t-5.5 -32.5t-10.5 -35t-16 -26q-5 -6 -16.5 -10.5t-26.5 -7.5t-32 -5t-34 -2q-94 0 -136.5 53t-24.5 158q-16 -34 -50.5 -71t-80.5 -68t-99 -51t-106 -20q-29 0 -53 6t-41.5 16.5t-30 23t-18.5 26.5l-24 -167l-44 -220q-2 -8 -6 -14t-14.5 -10
t-27 -6t-40.5 -2t-39.5 2t-24.5 6t-11.5 10t-1.5 14l251 1258q1 7 6 13t15.5 10t27 5.5t41.5 1.5q23 0 38.5 -1.5t24 -5.5t11 -10t1.5 -13l-113 -567q-10 -55 -11.5 -98.5t9 -74t35.5 -47t67 -16.5q54 0 109.5 30t104 83.5t86 127.5t56.5 162l80 400q1 7 6.5 13t15.5 10
t27 5.5t41 1.5q23 0 38.5 -1.5t24 -5.5t11.5 -10t2 -13l-132 -654q-8 -42 -10 -70.5t3.5 -45.5t18 -25t34.5 -8q33 0 51 5.5t33 5.5q6 0 9 -3.5t3 -10.5z" />
    <glyph glyph-name="paragraph" unicode="&#xb6;" horiz-adv-x="1200" 
d="M887 -205q-2 -7 -6 -12.5t-13 -8.5t-23 -5.5t-36 -2.5q-42 0 -55 8t-11 21l275 1370h-198l-274 -1370q-2 -7 -6.5 -12.5t-13.5 -8.5t-23.5 -5.5t-34.5 -2.5q-42 0 -55.5 8t-10.5 21l148 738q-92 0 -159.5 22t-112 61.5t-66 96t-21.5 124.5q0 59 13.5 115t40.5 107t69 94
t99 74.5t129 49t160 17.5h428q29 0 40 -17t6 -43z" />
    <glyph glyph-name="periodcentered" unicode="&#xb7;" horiz-adv-x="517" 
d="M396 633q0 -17 -3.5 -36.5t-9 -39t-13.5 -36.5t-19 -27q-16 -17 -41 -22t-51 -5t-43.5 4t-28.5 13t-15 21t-4 29t3.5 36.5t9 39t13.5 36t17 24.5q13 13 34 21t60 8q29 0 47 -5t27.5 -13.5t13 -20.5t3.5 -27z" />
    <glyph glyph-name="periodcentered" unicode="&#x2219;" horiz-adv-x="517" 
d="M396 633q0 -17 -3.5 -36.5t-9 -39t-13.5 -36.5t-19 -27q-16 -17 -41 -22t-51 -5t-43.5 4t-28.5 13t-15 21t-4 29t3.5 36.5t9 39t13.5 36t17 24.5q13 13 34 21t60 8q29 0 47 -5t27.5 -13.5t13 -20.5t3.5 -27z" />
    <glyph glyph-name="cedilla" unicode="&#xb8;" horiz-adv-x="629" 
d="M364 -175q0 -49 -15.5 -85t-44 -59t-69 -34.5t-90.5 -11.5q-26 0 -52 2t-47.5 6t-37 8.5t-21.5 8.5q-5 3 -7.5 8t-2.5 14q0 10 2 23t6.5 25t12.5 20.5t20 8.5h124q16 0 30.5 3.5t26 11.5t18.5 21.5t7 33.5q0 10 -2.5 26t-5.5 32l-29 113h140l19 -74q9 -33 13.5 -56.5
t4.5 -44.5z" />
    <glyph glyph-name="uni00B9" unicode="&#xb9;" horiz-adv-x="504" 
d="M426 739q-2 -7 -6.5 -11.5t-13.5 -7t-23.5 -4t-34.5 -1.5q-19 0 -31.5 1t-20.5 4t-11 7.5t-2 11.5l124 620l-162 -78q-26 -11 -33.5 -5t-7.5 22q0 12 1.5 25.5t5.5 26t11 22.5t17 16l209 111q5 3 10.5 4.5t13 2.5t18 1.5t26.5 0.5q20 0 32.5 -1.5t19 -3.5t8 -5.5
t1.5 -7.5z" />
    <glyph glyph-name="ordmasculine" unicode="&#xba;" horiz-adv-x="865" 
d="M868 1062q0 -47 -9 -99t-28.5 -102.5t-51 -96t-76.5 -79.5t-104.5 -54.5t-134.5 -20.5q-84 0 -138 23.5t-85 59.5t-42.5 80t-11.5 85q0 45 8 96t27 101.5t50 96.5t76 81t105.5 56t139.5 21q83 0 136.5 -23.5t84.5 -59t42.5 -79.5t11.5 -86zM705 1048q0 28 -6 53t-21 44
t-40.5 30.5t-64.5 11.5q-45 0 -79 -16.5t-59 -43.5t-41 -61t-26 -69t-14 -67.5t-4 -56.5q0 -28 6 -53t21 -44t40.5 -30.5t65.5 -11.5q44 0 78 16t59 42.5t41 60t26 68.5t14 68t4 59zM725 438q0 -7 -2.5 -22.5t-8.5 -31t-16 -27.5t-25 -12h-519q-14 0 -19.5 7t-5.5 25
q0 8 2 23.5t8 31t15.5 27t25.5 11.5h519q14 0 20 -7.5t6 -24.5z" />
    <glyph glyph-name="guillemotright" unicode="&#xbb;" horiz-adv-x="1049" 
d="M932 559q10 -24 9 -44t-19 -42l-287 -346q-6 -8 -12.5 -13t-17 -8t-25 -4t-36.5 -1q-26 0 -41 3t-22 9t-5.5 14t9.5 18l294 384l-139 363q-3 10 -2 18.5t8.5 15t22.5 9.5t40 3q22 0 34.5 -1t20 -4t11 -8t6.5 -13zM562 557q11 -22 10 -41.5t-19 -40.5l-280 -329
q-6 -8 -13 -13t-17.5 -7.5t-25 -3.5t-36.5 -1q-25 0 -41 2.5t-23 8t-6.5 13t7.5 17.5l294 366l-146 350q-4 10 -3 17t8.5 12t23 8t41.5 3q22 0 35 -1t20 -4t11 -7.5t7 -12.5z" />
    <glyph glyph-name="onequarter" unicode="&#xbc;" horiz-adv-x="1303" 
d="M1175 211q0 -5 -2.5 -18.5t-7 -27.5t-11.5 -24.5t-18 -10.5h-74l-22 -113q-1 -6 -6 -10t-15 -7t-24 -4.5t-34 -1.5q-19 0 -31 1.5t-18.5 4.5t-8.5 7t-2 10l23 113h-286q-13 0 -18 5.5t-5 18.5q0 11 2.5 26.5t7.5 31.5t11.5 32t16.5 27l309 362q8 8 31.5 14t71.5 6
q27 0 45.5 -2t30.5 -5.5t17.5 -7.5t4.5 -10l-79 -394h73q10 0 14 -6.5t4 -16.5zM1004 530h-2l-254 -296h197zM155 -8q-7 -9 -15 -13.5t-19.5 -8t-26 -5t-34.5 -1.5q-44 0 -53 14.5t12 37.5l1158 1289q8 8 16 13.5t19 8.5t25.5 4.5t34.5 1.5q22 0 35.5 -3.5t18 -10.5t1.5 -17
t-14 -21zM444 664q-1 -6 -5.5 -10.5t-13.5 -7.5t-23 -4t-34 -1q-19 0 -32 1t-21 4t-11 7.5t-2 10.5l99 497l-165 -79q-24 -11 -32 -6t-8 21q0 12 2 26t7 27t12.5 24t17.5 16l207 109q3 2 8 3t12.5 1.5t18.5 1t28 0.5q20 0 32.5 -1t19 -3t8.5 -4.5t1 -7.5z" />
    <glyph glyph-name="onehalf" unicode="&#xbd;" horiz-adv-x="1375" 
d="M444 664q-1 -6 -5.5 -10.5t-13.5 -7.5t-23 -4t-34 -1q-19 0 -32 1t-21 4t-11 7.5t-2 10.5l99 497l-165 -79q-24 -11 -32 -6t-8 21q0 12 2 26t7 27t12.5 24t17.5 16l207 109q3 2 8 3t12.5 1.5t18.5 1t28 0.5q20 0 32.5 -1t19 -3t8.5 -4.5t1 -7.5zM1205 84q0 -9 -2 -23.5
t-7 -27.5t-11.5 -23t-16.5 -10h-412q-20 0 -28 7t-8 24q0 9 2 22t7 27t14 28t23 24l160 125q51 40 84.5 71t53 57t28 49t8.5 48q0 12 -4 23.5t-14 20.5t-26 15.5t-38 6.5q-34 0 -61.5 -8t-49 -17.5t-36 -17t-21.5 -7.5q-8 0 -12.5 7.5t-4.5 20.5q0 10 2 23t6 25.5t11.5 23.5
t17.5 16q44 23 91.5 35.5t97.5 12.5q57 0 95 -14.5t61 -37t32.5 -50.5t9.5 -55q0 -43 -13 -80t-42.5 -73.5t-77 -76.5t-117.5 -89l-101 -75h281q11 0 14.5 -8t3.5 -19zM155 -8q-7 -9 -15 -13.5t-19.5 -8t-26 -5t-34.5 -1.5q-44 0 -53 14.5t12 37.5l1158 1289q8 8 16 13.5
t19 8.5t25.5 4.5t34.5 1.5q22 0 35.5 -3.5t18 -10.5t1.5 -17t-14 -21z" />
    <glyph glyph-name="threequarters" unicode="&#xbe;" horiz-adv-x="1383" 
d="M627 856q0 -33 -10 -62.5t-28.5 -54t-45 -44.5t-60.5 -34t-74.5 -21.5t-87.5 -7.5q-53 0 -97.5 9.5t-82.5 29.5q-12 5 -16.5 11.5t-4.5 19.5q0 6 2 20t5.5 27t9.5 23t13 10q8 0 19.5 -6.5t31.5 -15.5t48 -15.5t69 -6.5q34 0 62.5 7t49 21.5t32 36t11.5 49.5q0 17 -7 30.5
t-23.5 23.5t-44 15.5t-68.5 5.5h-68q-10 0 -15 6.5t-5 19.5q0 7 2 19.5t6 24.5t11 21t18 9h64q80 0 124.5 32t44.5 81q0 11 -4 22.5t-14.5 20.5t-28.5 15.5t-47 6.5q-32 0 -58.5 -8t-48 -17.5t-37 -17t-23.5 -7.5t-12.5 5.5t-4.5 19.5q0 13 2.5 26t7.5 23.5t12 19t15 13.5
q17 10 37.5 18.5t44 15t49.5 10t55 3.5q52 0 90 -10.5t63 -30.5t37.5 -48t12.5 -62q0 -33 -12.5 -62t-34.5 -51.5t-53 -38.5t-68 -24q35 -3 60.5 -15t42 -29.5t24.5 -38.5t8 -43zM234 -8q-7 -9 -15 -13.5t-19.5 -8t-26 -5t-34.5 -1.5q-44 0 -53 14.5t12 37.5l1158 1289
q8 8 16 13.5t19 8.5t25.5 4.5t34.5 1.5q22 0 35.5 -3.5t18 -10.5t1.5 -17t-14 -21zM1255 211q0 -5 -2.5 -18.5t-7 -27.5t-11.5 -24.5t-18 -10.5h-74l-22 -113q-1 -6 -6 -10t-15 -7t-24 -4.5t-34 -1.5q-19 0 -31 1.5t-18.5 4.5t-8.5 7t-2 10l23 113h-286q-13 0 -18 5.5
t-5 18.5q0 11 2.5 26.5t7.5 31.5t11.5 32t16.5 27l309 362q8 8 31.5 14t71.5 6q27 0 45.5 -2t30.5 -5.5t17.5 -7.5t4.5 -10l-79 -394h73q10 0 14 -6.5t4 -16.5zM1084 530h-2l-254 -296h197z" />
    <glyph glyph-name="questiondown" unicode="&#xbf;" horiz-adv-x="949" 
d="M34.1172 133.128q0 80.9902 24.4971 156.981q24.4971 75.9902 75.9912 136.482q51.4941 60.4932 131.484 99.4883t190.977 45.9941l53.9932 238.971q3.99902 14.998 22.9971 22.498q18.998 7.49902 57.9932 7.49902q20.9971 0 35.4951 -1.5t22.9971 -5
q8.49902 -3.49902 11.499 -9.49805q3 -6 1 -13.999l-47.9941 -276.966q-4 -22.9971 -11.499 -37.4951t-18.9971 -23.9971q-11.499 -9.49902 -25.4971 -12.999q-13.998 -3.49902 -32.9961 -3.49902h-5.99902q-86.9893 0 -145.982 -27.4971
q-58.9932 -27.4961 -95.9883 -70.9912t-53.4932 -96.9883t-16.498 -105.487q0 -44.9941 12.998 -83.4893q12.999 -38.4951 38.4951 -65.9922q25.4971 -27.4971 64.4922 -43.4951t92.9893 -15.998q59.9922 0 107.486 13.499q47.4941 13.498 82.4902 29.9961
q34.9951 16.498 57.4932 29.4961q22.4971 12.999 34.4951 12.999q9.99902 0 13.999 -8.49902q3.99902 -8.49902 3.99902 -30.4961q0 -9.99902 -1.5 -24.4971q-1.49902 -14.498 -5.49902 -28.4971q-4 -13.998 -9.99902 -26.4961q-5.99902 -12.499 -13.998 -20.498
q-12.998 -12.998 -43.9951 -27.9961q-30.9961 -14.999 -72.4902 -27.4971q-41.4951 -12.498 -88.4893 -20.9971q-46.9951 -8.49902 -90.9893 -8.49902q-64.9922 0 -116.485 11.998q-51.4941 11.999 -90.9893 33.4961t-67.4922 51.9941q-27.9961 30.4961 -46.4941 66.4912
q-18.498 35.9961 -26.4961 76.9912q-8 40.9941 -8 83.9893zM526.058 1026.02q0 13.998 3 33.4951q2.99902 19.498 7.99902 38.9951q4.99902 19.498 12.998 36.9961t16.998 27.4961q15.998 14.998 37.4951 21.998q21.4971 6.99902 55.4932 6.99902q26.9971 0 43.9951 -4
q16.998 -3.99902 26.4961 -11.498q9.49902 -7.49902 13.499 -19.498q3.99902 -11.998 3.99902 -26.9971q0 -12.998 -2.49902 -31.9961q-2.5 -18.9971 -7.5 -38.9951q-4.99902 -19.9971 -12.998 -38.4951t-18.998 -29.4961q-15.998 -15.998 -36.9951 -21.4971
q-20.9971 -5.5 -53.9932 -5.5q-27.9971 0 -45.4941 4.5q-17.498 4.49902 -27.4971 12.498t-12.998 19.998q-3 11.998 -3 24.9971z" />
    <glyph glyph-name="Agrave" unicode="&#xc0;" horiz-adv-x="1185" 
d="M1060 61q3 -22 1.5 -35.5t-11 -20.5t-29.5 -9t-54 -2q-22 0 -38 1.5t-24.5 5t-12.5 9.5t-5 15l-48 315h-539l-169 -312q-5 -10 -11.5 -16.5t-18 -10.5t-30 -5.5t-45.5 -1.5q-30 0 -48 2.5t-25 9.5t-4 20.5t14 35.5l674 1202q7 11 15 18t21 11t33 5.5t49 1.5
q33 0 53.5 -1.5t33 -5.5t17.5 -11.5t7 -18.5zM723 1122h-1l-350 -645h448zM839 1438q9 -11 11.5 -19t-3.5 -13.5t-19.5 -8t-35.5 -2.5q-21 0 -35 1.5t-24.5 5t-19.5 9t-19 15.5l-217 212q-10 10 -12 19t5 16t25 11.5t48 4.5q25 0 42 -1t31 -5t24 -11.5t20 -20.5zM112 1294z
" />
    <glyph glyph-name="Aacute" unicode="&#xc1;" horiz-adv-x="1185" 
d="M1060 61q3 -22 1.5 -35.5t-11 -20.5t-29.5 -9t-54 -2q-22 0 -38 1.5t-24.5 5t-12.5 9.5t-5 15l-48 315h-539l-169 -312q-5 -10 -11.5 -16.5t-18 -10.5t-30 -5.5t-45.5 -1.5q-30 0 -48 2.5t-25 9.5t-4 20.5t14 35.5l674 1202q7 11 15 18t21 11t33 5.5t49 1.5
q33 0 53.5 -1.5t33 -5.5t17.5 -11.5t7 -18.5zM723 1122h-1l-350 -645h448zM864 1426q-11 -9 -20 -15t-20 -9.5t-25.5 -5t-34.5 -1.5q-46 0 -55 10.5t11 32.5l197 213q11 12 22.5 19.5t25 11.5t31 5.5t42.5 1.5q30 0 47 -4.5t24 -11.5t3.5 -16t-13.5 -19zM364 1294z" />
    <glyph glyph-name="Acircumflex" unicode="&#xc2;" horiz-adv-x="1185" 
d="M1060 61q3 -22 1.5 -35.5t-11 -20.5t-29.5 -9t-54 -2q-22 0 -38 1.5t-24.5 5t-12.5 9.5t-5 15l-48 315h-539l-169 -312q-5 -10 -11.5 -16.5t-18 -10.5t-30 -5.5t-45.5 -1.5q-30 0 -48 2.5t-25 9.5t-4 20.5t14 35.5l674 1202q7 11 15 18t21 11t33 5.5t49 1.5
q33 0 53.5 -1.5t33 -5.5t17.5 -11.5t7 -18.5zM723 1122h-1l-350 -645h448zM1119 1433q7 -10 6.5 -17.5t-7.5 -12t-21 -6.5t-36 -2q-30 0 -47 1.5t-27 4t-15 7t-9 9.5l-118 173l-193 -168q-10 -8 -19.5 -14t-23 -8.5t-32.5 -3.5t-46 -1q-25 0 -38.5 2.5t-18 7t-0.5 11.5
t16 17l269 227q9 9 18.5 14.5t21 9t26.5 4.5t36 1t34.5 -1t23 -4.5t16.5 -9t14 -14.5zM151 1294z" />
    <glyph glyph-name="Atilde" unicode="&#xc3;" horiz-adv-x="1185" 
d="M1060 61q3 -22 1.5 -35.5t-11 -20.5t-29.5 -9t-54 -2q-22 0 -38 1.5t-24.5 5t-12.5 9.5t-5 15l-48 315h-539l-169 -312q-5 -10 -11.5 -16.5t-18 -10.5t-30 -5.5t-45.5 -1.5q-30 0 -48 2.5t-25 9.5t-4 20.5t14 35.5l674 1202q7 11 15 18t21 11t33 5.5t49 1.5
q33 0 53.5 -1.5t33 -5.5t17.5 -11.5t7 -18.5zM723 1122h-1l-350 -645h448zM1044 1614q1 7 5 11t12 6.5t20 3.5t28 1q34 0 44 -6.5t10 -18.5q0 -4 -1.5 -21.5t-8.5 -41.5t-20 -50.5t-36.5 -49t-59.5 -37.5t-87 -15q-52 0 -90 18t-68.5 39.5t-59 39t-60.5 17.5
q-43 0 -62.5 -25t-24.5 -67q-1 -6 -5 -10t-11.5 -6.5t-19.5 -4t-28 -1.5q-33 0 -44.5 5.5t-11.5 19.5q0 11 3 32t11.5 44.5t23.5 48t39 45t58 33t81 12.5q51 0 88.5 -18t68.5 -39t59 -39t60 -18q36 0 59 20.5t28 71.5zM138 1294z" />
    <glyph glyph-name="Adieresis" unicode="&#xc4;" horiz-adv-x="1185" 
d="M1060 61q3 -22 1.5 -35.5t-11 -20.5t-29.5 -9t-54 -2q-22 0 -38 1.5t-24.5 5t-12.5 9.5t-5 15l-48 315h-539l-169 -312q-5 -10 -11.5 -16.5t-18 -10.5t-30 -5.5t-45.5 -1.5q-30 0 -48 2.5t-25 9.5t-4 20.5t14 35.5l674 1202q7 11 15 18t21 11t33 5.5t49 1.5
q33 0 53.5 -1.5t33 -5.5t17.5 -11.5t7 -18.5zM723 1122h-1l-350 -645h448zM1122 1527q-5 -28 -12.5 -46t-21 -29.5t-33 -16t-46.5 -4.5q-28 0 -45.5 4.5t-27 16t-11 29.5t2.5 46q5 28 12 46.5t20.5 30t32.5 16t47 4.5t45.5 -4.5t27 -16t12 -30t-2.5 -46.5zM709 1527
q-4 -28 -12 -46t-21.5 -29.5t-33 -16t-47.5 -4.5t-45.5 4.5t-26.5 16t-10.5 29.5t3.5 46q4 28 11.5 46.5t20 30t32 16t48.5 4.5q27 0 44.5 -4.5t27 -16t11.5 -30t-2 -46.5zM170 1294z" />
    <glyph glyph-name="Aring" unicode="&#xc5;" horiz-adv-x="1185" 
d="M1060 61q3 -22 1.5 -35.5t-11 -20.5t-29.5 -9t-54 -2q-22 0 -38 1.5t-24.5 5t-12.5 9.5t-5 15l-48 315h-539l-169 -312q-5 -10 -11.5 -16.5t-18 -10.5t-30 -5.5t-45.5 -1.5q-30 0 -48 2.5t-25 9.5t-4 20.5t14 35.5l674 1202q7 11 15 18t21 11t33 5.5t49 1.5
q33 0 53.5 -1.5t33 -5.5t17.5 -11.5t7 -18.5zM723 1122h-1l-350 -645h448zM1025 1571q0 -44 -16 -82.5t-45.5 -67t-71.5 -45t-95 -16.5q-49 0 -83 13.5t-56 35.5t-32 50.5t-10 59.5q0 30 6.5 57t20 50.5t33 43.5t45 34t56.5 21.5t66 7.5q49 0 83.5 -13.5t56.5 -36.5
t32 -52.5t10 -59.5zM913 1559q0 15 -4.5 30.5t-14 27.5t-26 19.5t-39.5 7.5q-24 0 -43.5 -8.5t-32 -24t-19 -35.5t-6.5 -44q0 -15 4 -30.5t13.5 -27t26 -18.5t39.5 -7q24 0 43 8.5t32 23t20 34.5t7 44zM267 1294z" />
    <glyph glyph-name="AE" unicode="&#xc6;" horiz-adv-x="1563" 
d="M1378 110q0 -7 -1.5 -17.5t-4 -22.5t-6 -24.5t-9.5 -22.5t-13.5 -16.5t-16.5 -6.5h-615q-12 0 -23 3.5t-18 12t-10 22t0 32.5l50 246h-445l-212 -288q-8 -10 -16 -16.5t-21 -10.5t-32 -5.5t-49 -1.5q-29 0 -46.5 2.5t-23.5 9.5t-1.5 20.5t19.5 35.5l887 1195
q8 12 17.5 19.5t24 11t34.5 5t49 1.5h681q24 0 24 -34q0 -7 -1.5 -17.5t-3.5 -22.5t-6 -24t-10 -22.5t-14 -16.5t-18 -6h-499l-82 -407h428q12 0 17.5 -9t5.5 -25q0 -7 -1 -17.5t-3.5 -23t-6.5 -24.5t-9.5 -22t-13 -16t-17.5 -6h-429l-91 -458h507q11 0 17.5 -9t6.5 -24z
M877 1151h-3l-515 -697h380z" />
    <glyph glyph-name="Ccedilla" unicode="&#xc7;" horiz-adv-x="1070" 
d="M463 -8q-127 22 -202.5 89.5t-110 163t-34.5 211.5q0 95 19.5 195.5t59 195.5t97.5 179t136 147.5t174.5 100t212.5 36.5q73 0 136.5 -16.5t109 -41.5t65.5 -44.5t20 -45.5q0 -21 -7.5 -52t-18.5 -49t-25 -18t-32.5 18.5t-50.5 40t-82.5 40t-126.5 18.5
q-84 0 -153.5 -31.5t-125 -85t-97 -123.5t-69.5 -146.5t-41.5 -154.5t-13.5 -148q0 -80 20 -142.5t58 -105.5t93 -65t125 -22q77 0 133.5 17.5t97.5 39t68.5 39t42.5 17.5q12 0 17 -8t5 -24q0 -5 -1.5 -14.5t-3.5 -20.5t-5 -24t-6.5 -24.5t-8.5 -21t-15 -19.5t-48 -32
t-110.5 -45.5t-160.5 -29.5l15 -60q9 -33 14 -56.5t5 -44.5q0 -49 -16 -85t-44 -59t-69 -34.5t-91 -11.5q-25 0 -51 2t-47.5 6t-37 8.5t-22.5 8.5q-5 3 -7.5 8t-2.5 14q0 10 2.5 23t7 25t12.5 20.5t20 8.5h123q16 0 31 3.5t26.5 11.5t18 21.5t6.5 33.5q0 10 -2 26t-6 32z
" />
    <glyph glyph-name="Egrave" unicode="&#xc8;" horiz-adv-x="1000" 
d="M1038 1261q0 -5 -0.5 -15.5t-3 -22.5t-6 -25t-9.5 -23.5t-14.5 -17t-18.5 -6.5h-505l-82 -406h435q12 0 18 -8t6 -24q0 -5 -1.5 -15.5t-3.5 -23t-6 -24.5t-9.5 -21.5t-13.5 -16t-18 -6.5h-434l-94 -463h515q10 0 16.5 -8t6.5 -25q0 -6 -1 -17t-3.5 -23t-6 -24.5t-9.5 -23
t-14.5 -16.5t-18.5 -6h-622q-11 0 -21.5 3.5t-18 12t-10.5 22t2 32.5l231 1154q7 39 31 54.5t47 15.5h613q23 0 23 -33zM778 1438q9 -11 11.5 -19t-3.5 -13.5t-19.5 -8t-35.5 -2.5q-21 0 -35 1.5t-24.5 5t-19.5 9t-19 15.5l-217 212q-10 10 -12 19t5 16t25 11.5t48 4.5
q25 0 42 -1t31 -5t24 -11.5t20 -20.5zM51 1294z" />
    <glyph glyph-name="Eacute" unicode="&#xc9;" horiz-adv-x="1000" 
d="M1038 1261q0 -5 -0.5 -15.5t-3 -22.5t-6 -25t-9.5 -23.5t-14.5 -17t-18.5 -6.5h-505l-82 -406h435q12 0 18 -8t6 -24q0 -5 -1.5 -15.5t-3.5 -23t-6 -24.5t-9.5 -21.5t-13.5 -16t-18 -6.5h-434l-94 -463h515q10 0 16.5 -8t6.5 -25q0 -6 -1 -17t-3.5 -23t-6 -24.5t-9.5 -23
t-14.5 -16.5t-18.5 -6h-622q-11 0 -21.5 3.5t-18 12t-10.5 22t2 32.5l231 1154q7 39 31 54.5t47 15.5h613q23 0 23 -33zM799 1426q-11 -9 -20 -15t-20 -9.5t-25.5 -5t-34.5 -1.5q-46 0 -55 10.5t11 32.5l197 213q11 12 22.5 19.5t25 11.5t31 5.5t42.5 1.5q30 0 47 -4.5
t24 -11.5t3.5 -16t-13.5 -19zM299 1294z" />
    <glyph glyph-name="Ecircumflex" unicode="&#xca;" horiz-adv-x="1000" 
d="M1038 1261q0 -5 -0.5 -15.5t-3 -22.5t-6 -25t-9.5 -23.5t-14.5 -17t-18.5 -6.5h-505l-82 -406h435q12 0 18 -8t6 -24q0 -5 -1.5 -15.5t-3.5 -23t-6 -24.5t-9.5 -21.5t-13.5 -16t-18 -6.5h-434l-94 -463h515q10 0 16.5 -8t6.5 -25q0 -6 -1 -17t-3.5 -23t-6 -24.5t-9.5 -23
t-14.5 -16.5t-18.5 -6h-622q-11 0 -21.5 3.5t-18 12t-10.5 22t2 32.5l231 1154q7 39 31 54.5t47 15.5h613q23 0 23 -33zM1035 1433q7 -10 6.5 -17.5t-7.5 -12t-21 -6.5t-36 -2q-30 0 -47 1.5t-27 4t-15 7t-9 9.5l-118 173l-193 -168q-10 -8 -19.5 -14t-23 -8.5t-32.5 -3.5
t-46 -1q-25 0 -38.5 2.5t-18 7t-0.5 11.5t16 17l269 227q9 9 18.5 14.5t21 9t26.5 4.5t36 1t34.5 -1t23 -4.5t16.5 -9t14 -14.5zM67 1294z" />
    <glyph glyph-name="Edieresis" unicode="&#xcb;" horiz-adv-x="1000" 
d="M1038 1261q0 -5 -0.5 -15.5t-3 -22.5t-6 -25t-9.5 -23.5t-14.5 -17t-18.5 -6.5h-505l-82 -406h435q12 0 18 -8t6 -24q0 -5 -1.5 -15.5t-3.5 -23t-6 -24.5t-9.5 -21.5t-13.5 -16t-18 -6.5h-434l-94 -463h515q10 0 16.5 -8t6.5 -25q0 -6 -1 -17t-3.5 -23t-6 -24.5t-9.5 -23
t-14.5 -16.5t-18.5 -6h-622q-11 0 -21.5 3.5t-18 12t-10.5 22t2 32.5l231 1154q7 39 31 54.5t47 15.5h613q23 0 23 -33zM1036 1527q-5 -28 -12.5 -46t-21 -29.5t-33 -16t-46.5 -4.5q-28 0 -45.5 4.5t-27 16t-11 29.5t2.5 46q5 28 12 46.5t20.5 30t32.5 16t47 4.5t45.5 -4.5
t27 -16t12 -30t-2.5 -46.5zM623 1527q-4 -28 -12 -46t-21.5 -29.5t-33 -16t-47.5 -4.5t-45.5 4.5t-26.5 16t-10.5 29.5t3.5 46q4 28 11.5 46.5t20 30t32 16t48.5 4.5q27 0 44.5 -4.5t27 -16t11.5 -30t-2 -46.5zM84 1294z" />
    <glyph glyph-name="Igrave" unicode="&#xcc;" horiz-adv-x="516" 
d="M256 25q-1 -7 -6.5 -13t-16.5 -9.5t-28 -6t-41 -2.5q-26 0 -42 2.5t-25 6t-12 9.5t-1 13l248 1244q1 7 7.5 13t17.5 9.5t27.5 6t40.5 2.5t40 -2.5t25.5 -6t12.5 -9.5t1 -13zM508 1438q9 -11 11.5 -19t-3.5 -13.5t-19.5 -8t-35.5 -2.5q-21 0 -35 1.5t-24.5 5t-19.5 9
t-19 15.5l-217 212q-10 10 -12 19t5 16t25 11.5t48 4.5q25 0 42 -1t31 -5t24 -11.5t20 -20.5zM-219 1294z" />
    <glyph glyph-name="Iacute" unicode="&#xcd;" horiz-adv-x="516" 
d="M256 25q-1 -7 -6.5 -13t-16.5 -9.5t-28 -6t-41 -2.5q-26 0 -42 2.5t-25 6t-12 9.5t-1 13l248 1244q1 7 7.5 13t17.5 9.5t27.5 6t40.5 2.5t40 -2.5t25.5 -6t12.5 -9.5t1 -13zM522 1426q-11 -9 -20 -15t-20 -9.5t-25.5 -5t-34.5 -1.5q-46 0 -55 10.5t11 32.5l197 213
q11 12 22.5 19.5t25 11.5t31 5.5t42.5 1.5q30 0 47 -4.5t24 -11.5t3.5 -16t-13.5 -19zM22 1294z" />
    <glyph glyph-name="Icircumflex" unicode="&#xce;" horiz-adv-x="516" 
d="M256 25q-1 -7 -6.5 -13t-16.5 -9.5t-28 -6t-41 -2.5q-26 0 -42 2.5t-25 6t-12 9.5t-1 13l248 1244q1 7 7.5 13t17.5 9.5t27.5 6t40.5 2.5t40 -2.5t25.5 -6t12.5 -9.5t1 -13zM769 1433q7 -10 6.5 -17.5t-7.5 -12t-21 -6.5t-36 -2q-30 0 -47 1.5t-27 4t-15 7t-9 9.5
l-118 173l-193 -168q-10 -8 -19.5 -14t-23 -8.5t-32.5 -3.5t-46 -1q-25 0 -38.5 2.5t-18 7t-0.5 11.5t16 17l269 227q9 9 18.5 14.5t21 9t26.5 4.5t36 1t34.5 -1t23 -4.5t16.5 -9t14 -14.5zM-199 1294z" />
    <glyph glyph-name="Idieresis" unicode="&#xcf;" horiz-adv-x="516" 
d="M256 25q-1 -7 -6.5 -13t-16.5 -9.5t-28 -6t-41 -2.5q-26 0 -42 2.5t-25 6t-12 9.5t-1 13l248 1244q1 7 7.5 13t17.5 9.5t27.5 6t40.5 2.5t40 -2.5t25.5 -6t12.5 -9.5t1 -13zM774 1527q-5 -28 -12.5 -46t-21 -29.5t-33 -16t-46.5 -4.5q-28 0 -45.5 4.5t-27 16t-11 29.5
t2.5 46q5 28 12 46.5t20.5 30t32.5 16t47 4.5t45.5 -4.5t27 -16t12 -30t-2.5 -46.5zM361 1527q-4 -28 -12 -46t-21.5 -29.5t-33 -16t-47.5 -4.5t-45.5 4.5t-26.5 16t-10.5 29.5t3.5 46q4 28 11.5 46.5t20 30t32 16t48.5 4.5q27 0 44.5 -4.5t27 -16t11.5 -30t-2 -46.5z
M-178 1294z" />
    <glyph glyph-name="Eth" unicode="&#xd0;" horiz-adv-x="1279" 
d="M1240 828q0 -90 -17 -186.5t-54 -188.5t-96 -174t-144.5 -144t-199 -98.5t-277.5 -36.5h-289q-27 0 -43.5 15.5t-8.5 54.5l106 531h-130q-12 0 -18 8.5t-6 26.5q0 6 1.5 16.5t3.5 23t6 24.5t10 21.5t13.5 16t17.5 6.5h131l96 480q7 39 30 54.5t53 15.5h273
q149 0 247.5 -32t163.5 -92t98 -146.5t33 -195.5zM1058 813q0 74 -21 136t-65 107t-112.5 70t-181.5 25h-179l-82 -407h234q17 0 21 -11t4 -24q0 -9 -1 -20t-4 -23t-7.5 -24t-10.5 -21t-13 -14.5t-16 -5.5h-235l-91 -457h177q122 0 204.5 29.5t145.5 80t107 117.5t72 141
t41 151.5t13 149.5z" />
    <glyph glyph-name="Ntilde" unicode="&#xd1;" horiz-adv-x="1320" 
d="M1068 71q-3 -20 -12 -34t-20.5 -23t-24.5 -13t-26 -4h-65q-26 0 -44 6t-31.5 20.5t-24 38t-22.5 58.5l-243 690q-25 74 -49.5 147.5t-47.5 147.5h-2q-13 -82 -28 -163t-31 -162l-150 -754q-2 -8 -7.5 -14t-16 -9.5t-27 -6t-39.5 -2.5t-38.5 2.5t-23.5 6t-10.5 9.5
t-0.5 14l238 1194q8 40 33.5 57t51.5 17h79q24 0 42 -5t31 -18t23 -33.5t22 -52.5l245 -699q23 -65 45.5 -130t44.5 -131h2q14 82 30.5 170t32.5 170l141 701q2 8 7 13.5t15 9.5t25.5 6t39.5 2q23 0 38.5 -2t24 -6t11.5 -9.5t2 -13.5zM1095 1614q1 7 5 11t12 6.5t20 3.5
t28 1q34 0 44 -6.5t10 -18.5q0 -4 -1.5 -21.5t-8.5 -41.5t-20 -50.5t-36.5 -49t-59.5 -37.5t-87 -15q-52 0 -90 18t-68.5 39.5t-59 39t-60.5 17.5q-43 0 -62.5 -25t-24.5 -67q-1 -6 -5 -10t-11.5 -6.5t-19.5 -4t-28 -1.5q-33 0 -44.5 5.5t-11.5 19.5q0 11 3 32t11.5 44.5
t23.5 48t39 45t58 33t81 12.5q51 0 88.5 -18t68.5 -39t59 -39t60 -18q36 0 59 20.5t28 71.5zM189 1294z" />
    <glyph glyph-name="Ograve" unicode="&#xd2;" horiz-adv-x="1340" 
d="M1298 860q0 -77 -14 -172t-47 -193t-87.5 -190.5t-134.5 -164t-190 -115.5t-252 -44q-114 0 -200 28.5t-143.5 85t-86.5 139.5t-29 192q0 86 15 185t49.5 197.5t90 189.5t136 161.5t188.5 112t248 41.5q113 0 198.5 -29.5t143 -87t86.5 -142t29 -194.5zM1114 848
q0 70 -16 128.5t-51 100.5t-93 65.5t-140 23.5q-104 0 -182.5 -38.5t-136 -100.5t-95 -140.5t-60 -158.5t-32 -155t-9.5 -130q0 -71 15.5 -128.5t51.5 -98.5t93.5 -63.5t140.5 -22.5q103 0 181 37.5t135 98.5t95 138.5t61 157t32.5 154.5t9.5 132zM912 1438q9 -11 11.5 -19
t-3.5 -13.5t-19.5 -8t-35.5 -2.5q-21 0 -35 1.5t-24.5 5t-19.5 9t-19 15.5l-217 212q-10 10 -12 19t5 16t25 11.5t48 4.5q25 0 42 -1t31 -5t24 -11.5t20 -20.5zM185 1294z" />
    <glyph glyph-name="Oacute" unicode="&#xd3;" horiz-adv-x="1340" 
d="M1298 860q0 -77 -14 -172t-47 -193t-87.5 -190.5t-134.5 -164t-190 -115.5t-252 -44q-114 0 -200 28.5t-143.5 85t-86.5 139.5t-29 192q0 86 15 185t49.5 197.5t90 189.5t136 161.5t188.5 112t248 41.5q113 0 198.5 -29.5t143 -87t86.5 -142t29 -194.5zM1114 848
q0 70 -16 128.5t-51 100.5t-93 65.5t-140 23.5q-104 0 -182.5 -38.5t-136 -100.5t-95 -140.5t-60 -158.5t-32 -155t-9.5 -130q0 -71 15.5 -128.5t51.5 -98.5t93.5 -63.5t140.5 -22.5q103 0 181 37.5t135 98.5t95 138.5t61 157t32.5 154.5t9.5 132zM906 1426q-11 -9 -20 -15
t-20 -9.5t-25.5 -5t-34.5 -1.5q-46 0 -55 10.5t11 32.5l197 213q11 12 22.5 19.5t25 11.5t31 5.5t42.5 1.5q30 0 47 -4.5t24 -11.5t3.5 -16t-13.5 -19zM406 1294z" />
    <glyph glyph-name="Ocircumflex" unicode="&#xd4;" horiz-adv-x="1340" 
d="M1298 860q0 -77 -14 -172t-47 -193t-87.5 -190.5t-134.5 -164t-190 -115.5t-252 -44q-114 0 -200 28.5t-143.5 85t-86.5 139.5t-29 192q0 86 15 185t49.5 197.5t90 189.5t136 161.5t188.5 112t248 41.5q113 0 198.5 -29.5t143 -87t86.5 -142t29 -194.5zM1114 848
q0 70 -16 128.5t-51 100.5t-93 65.5t-140 23.5q-104 0 -182.5 -38.5t-136 -100.5t-95 -140.5t-60 -158.5t-32 -155t-9.5 -130q0 -71 15.5 -128.5t51.5 -98.5t93.5 -63.5t140.5 -22.5q103 0 181 37.5t135 98.5t95 138.5t61 157t32.5 154.5t9.5 132zM1178 1433
q7 -10 6.5 -17.5t-7.5 -12t-21 -6.5t-36 -2q-30 0 -47 1.5t-27 4t-15 7t-9 9.5l-118 173l-193 -168q-10 -8 -19.5 -14t-23 -8.5t-32.5 -3.5t-46 -1q-25 0 -38.5 2.5t-18 7t-0.5 11.5t16 17l269 227q9 9 18.5 14.5t21 9t26.5 4.5t36 1t34.5 -1t23 -4.5t16.5 -9t14 -14.5z
M210 1294z" />
    </font>
</defs>
</svg>
